osu file format v14

[General]
AudioFilename: audio.mp3
AudioLeadIn: 0
PreviewTime: 77391
Countdown: 0
SampleSet: Soft
StackLeniency: 0.5
Mode: 0
LetterboxInBreaks: 0
WidescreenStoryboard: 1

[Editor]
Bookmarks: 949,16333,28641,34795,47102,59410,77872,90179,96333,96525,96718,96910,97102,102487,105564,116718,117487
DistanceSpacing: 0.6
BeatDivisor: 4
GridSize: 4
TimelineZoom: 1.7

[Metadata]
Title:Ronron e Rairairai!
TitleUnicode:ロンロンヘ ライライライ!
Artist:Coconatsu
ArtistUnicode:ここなつ
Creator:Sunazuka Akira
Version:Hard
Source:SOUND VOLTEX III GRAVITY WARS
Tags:jubeat Qubell pop'n music うさぎと猫と少年の夢 DanceDanceRevolution A Hige Driver 東雲夏陽 東雲心菜 Cocona Shinonome Ari Ozawa Natsuhi Shinonome Yuri Hinami video game japanese chinese
BeatmapID:2698016
BeatmapSetID:1300739

[Difficulty]
HPDrainRate:5
CircleSize:4
OverallDifficulty:6
ApproachRate:8
SliderMultiplier:1.3
SliderTickRate:1

[Events]
//Background and Video events
0,0,"63724173-p0-master1200.jpg",0,0
//Break Periods
//Storyboard Layer 0 (Background)
//Storyboard Layer 1 (Fail)
//Storyboard Layer 2 (Pass)
//Storyboard Layer 3 (Foreground)
//Storyboard Layer 4 (Overlay)
//Storyboard Sound Samples

[TimingPoints]
964,384.615384615385,4,2,1,40,1,0
964,-166.666666666667,4,2,1,40,0,0
3271,-100,4,2,1,40,0,0
4040,-166.666666666667,4,2,1,40,0,0
6348,-100,4,2,1,40,0,0
7117,-166.666666666667,4,2,1,40,0,0
9425,-100,4,2,1,40,0,0
10194,-166.666666666667,4,2,1,40,0,0
12502,-100,4,2,1,40,0,0
16348,-66.6666666666667,4,2,1,80,0,0
17502,-50,4,2,1,80,0,0
17887,-66.6666666666667,4,2,1,80,0,0
19040,-50,4,2,1,80,0,0
19425,-66.6666666666667,4,2,1,80,0,0
23656,-50,4,2,1,80,0,0
24040,-66.6666666666667,4,2,1,80,0,0
25194,-50,4,2,1,80,0,0
25578,-66.6666666666667,4,2,1,80,0,0
28271,-66.6666666666667,4,2,2,80,0,0
28464,-66.6666666666667,4,2,1,80,0,0
28656,-76.9230769230769,4,2,1,63,0,0
34810,-90.9090909090909,4,2,1,67,0,0
40579,-125,4,2,1,67,0,0
40964,-90.9090909090909,4,2,1,67,0,0
46733,-125,4,2,1,67,0,0
47118,-90.9090909090909,4,2,1,67,0,0
52887,-125,4,2,1,67,0,0
53271,-90.9090909090909,4,2,1,67,0,0
59040,-125,4,2,1,67,0,0
59425,-100,4,2,1,67,0,0
60194,-55.5555555555556,4,2,1,67,0,0
60387,-100,4,2,1,67,0,0
61541,-100,4,2,1,67,0,0
63271,-55.5555555555556,4,2,1,67,0,0
63464,-100,4,2,1,67,0,0
64810,-55.5555555555556,4,2,1,67,0,0
65003,-100,4,2,1,67,0,0
67695,-100,4,2,1,67,0,0
69425,-55.5555555555556,4,2,1,67,0,0
69618,-100,4,2,1,67,0,0
70772,-100,4,2,1,67,0,0
71733,-76.9230769230769,4,2,1,67,0,0
77887,-66.6666666666667,4,2,1,85,0,0
83656,-55.5555555555556,4,2,1,85,0,0
84040,-66.6666666666667,4,2,1,85,0,0
89810,-55.5555555555556,4,2,1,85,0,0
90194,-66.6666666666667,4,2,1,85,0,0
96348,-55.5555555555556,4,2,1,85,0,0
97117,-66.6666666666667,4,2,1,85,0,0
102502,-90.9090909090909,4,2,1,85,0,0
105579,-66.6666666666667,4,2,1,80,0,0
106733,-50,4,2,1,80,0,0
107117,-66.6666666666667,4,2,1,80,0,0
108271,-50,4,2,1,80,0,0
108656,-66.6666666666667,4,2,1,80,0,0
112887,-50,4,2,1,80,0,0
113271,-66.6666666666667,4,2,1,80,0,0
114425,-50,4,2,1,80,0,0
114810,-66.6666666666667,4,2,1,80,0,0
117310,-66.6666666666667,4,2,1,5,0,0
117502,-66.6666666666667,4,2,1,5,0,0

[Colours]
Combo1 : 184,113,255
Combo2 : 132,255,132
Combo3 : 255,255,128
Combo4 : 255,182,147

[HitObjects]
39,37,964,6,0,L|130:45,1,77.999997619629,6|2,1:3|0:3,0:0:0:0:
217,116,1733,2,0,L|125:124,1,77.999997619629,2|2,0:3|0:3,0:0:0:0:
30,132,2502,1,2,0:3:0:0:
139,122,2887,1,2,0:3:0:0:
21,320,3271,6,0,P|90:228|208:210,1,227.5,2|0,0:0|0:0,0:0:0:0:
196,208,4040,6,0,P|200:251|164:275,1,77.999997619629,2|2,0:3|0:3,0:0:0:0:
33,200,4810,2,0,P|68:173|107:193,1,77.999997619629,2|2,0:3|0:3,0:0:0:0:
71,282,5387,1,0,0:0:0:0:
71,282,5579,6,0,L|79:320,1,38.9999988098145,2|0,0:3|0:0,0:0:0:0:
164,320,5964,2,0,L|172:358,1,38.9999988098145,2|0,0:3|0:0,0:0:0:0:
259,383,6348,6,0,B|324:320|391:357|388:397|488:354,1,227.5,2|0,0:0|0:0,0:0:0:0:
473,361,7117,6,0,L|459:279,1,77.999997619629,2|2,0:3|0:3,0:0:0:0:
368,195,7694,1,2,0:0:0:0:
385,270,7887,2,0,L|346:276,2,38.9999988098145,2|0|2,0:3|0:0|0:3,0:0:0:0:
449,211,8464,1,0,0:0:0:0:
460,284,8656,6,0,P|439:290|421:318,1,38.9999988098145,2|0,0:3|0:0,0:0:0:0:
366,345,9040,2,0,P|372:365|400:383,1,38.9999988098145,2|0,0:3|0:0,0:0:0:0:
476,360,9425,2,0,B|467:254|467:254|469:250|469:250|460:116,1,227.5,2|0,0:2|0:0,0:0:0:0:
444,16,10194,5,2,0:3:0:0:
512,66,10387,2,0,L|421:59,1,77.999997619629,2|2,0:0|0:0,0:0:0:0:
284,38,10964,2,0,L|374:31,1,77.999997619629,2|2,0:3|0:3,0:0:0:0:
385,133,11540,1,0,0:0:0:0:
309,149,11733,6,0,L|304:110,1,38.9999988098145,2|0,0:3|0:0,0:0:0:0:
328,264,12117,2,0,L|323:225,1,38.9999988098145,2|0,0:3|0:0,0:0:0:0:
252,348,12502,6,0,B|220:349|217:374|232:432|337:412|348:295|318:241|173:271|249:342|126:446|27:314|58:201|99:145|225:148|257:242|215:290,1,520,2|0,0:2|0:0,0:0:0:0:
256,40,14810,5,2,0:0:0:0:
244,128,15194,1,2,0:0:0:0:
227,215,15579,1,2,0:0:0:0:
40,351,15964,6,0,P|70:356|95:392,1,65,4|0,3:0|0:0,0:0:0:0:
156,322,16348,6,0,L|142:217,1,97.50000371933,2|2,1:2|0:0,0:0:0:0:
140,207,16637,1,2,0:0:0:0:
137,180,16733,2,0,B|186:190|186:190|192:189|192:189|244:202,1,97.50000371933,8|2,0:2|0:0,0:0:0:0:
309,222,17117,1,0,1:2:0:0:
309,222,17310,1,2,0:0:0:0:
320,312,17502,6,0,P|258:325|224:379,1,130,8|0,0:2|0:0,0:0:0:0:
156,322,17887,6,0,L|142:217,1,97.50000371933,2|2,1:2|0:0,0:0:0:0:
140,207,18176,1,2,0:0:0:0:
137,180,18271,2,0,B|186:190|186:190|192:189|192:189|244:202,1,97.50000371933,8|2,0:2|0:0,0:0:0:0:
309,222,18656,1,0,1:2:0:0:
309,222,18849,1,2,0:0:0:0:
320,312,19040,6,0,P|286:365|224:378,1,130,8|0,0:2|0:0,0:0:0:0:
165,308,19425,6,0,L|179:203,1,97.50000371933,2|2,1:2|0:0,0:0:0:0:
181,193,19714,1,2,0:0:0:0:
184,166,19810,2,0,B|141:175|141:175|132:174|132:174|76:187,1,97.50000371933,8|2,0:2|0:0,0:0:0:0:
15,208,20194,1,0,1:2:0:0:
15,208,20387,1,2,0:0:0:0:
13,94,20579,6,0,B|43:101|66:87|57:82|88:75|109:87,1,97.50000371933,8|2,3:2|0:0,0:0:0:0:
134,94,20867,1,0,0:0:0:0:
163,90,20964,2,0,L|366:57,1,195.00000743866,0|8,1:2|0:2,0:0:0:0:
490,155,21733,2,0,B|467:124|467:124|399:113|352:189|390:254,1,195.00000743866,0|8,1:2|0:2,0:0:0:0:
339,349,22502,6,0,L|234:363,1,97.50000371933,2|2,1:2|0:0,0:0:0:0:
224,365,22791,1,2,0:0:0:0:
197,368,22887,2,0,B|208:320|208:320|212:316|212:316|224:265,1,97.50000371933,8|2,0:2|0:0,0:0:0:0:
239,196,23271,1,2,1:2:0:0:
239,196,23464,1,2,0:2:0:0:
329,185,23656,6,0,P|342:247|396:281,1,130,8|0,0:2|0:0,0:0:0:0:
339,349,24040,6,0,L|234:363,1,97.50000371933,2|2,1:2|0:0,0:0:0:0:
224,365,24329,1,2,0:0:0:0:
197,368,24425,2,0,B|208:320|208:320|212:316|212:316|224:265,1,97.50000371933,8|2,0:2|0:0,0:0:0:0:
239,196,24809,1,0,1:2:0:0:
239,196,25002,1,2,0:0:0:0:
148,187,25194,6,0,P|135:249|81:283,1,130,8|0,0:2|0:0,0:0:0:0:
47,184,25579,6,0,P|36:140|24:89,1,97.50000371933,2|2,1:2|0:0,0:0:0:0:
52,93,25867,1,2,0:0:0:0:
70,96,25964,2,0,B|115:102|115:102|121:101|121:101|166:108,1,97.50000371933,8|2,0:2|0:0,0:0:0:0:
244,121,26348,1,0,1:2:0:0:
244,121,26541,1,2,0:0:0:0:
244,121,26733,1,8,0:2:0:0:
273,372,27117,5,8,1:1:0:0:
371,276,27406,1,8,1:1:0:0:
458,378,27694,1,8,1:1:0:0:
458,378,27887,1,8,1:1:0:0:
256,245,28271,6,0,L|256:148,1,97.50000371933,2|0,0:1|0:0,0:0:0:0:
372,52,28656,5,2,1:2:0:0:
356,48,28752,1,2,1:2:0:0:
336,44,28848,2,0,P|313:39|288:32,2,42.2499980659486,2|2|8,1:2|1:2|1:3,0:0:0:0:
419,146,29425,5,2,1:2:0:0:
435,142,29521,1,2,1:2:0:0:
455,138,29617,2,0,P|477:133|503:126,2,42.2499980659486,2|2|8,1:2|1:2|1:3,0:0:0:0:
281,249,30194,5,2,1:2:0:0:
265,245,30290,1,2,1:2:0:0:
245,241,30386,2,0,P|222:236|197:229,2,42.2499980659486,2|2|8,1:2|1:2|1:3,0:0:0:0:
44,224,31733,5,2,1:2:0:0:
48,208,31829,1,2,1:2:0:0:
53,187,31925,2,0,L|65:146,2,42.2499980659486,2|2|8,1:2|1:2|1:3,0:0:0:0:
149,343,32502,5,2,1:2:0:0:
145,327,32598,1,2,1:2:0:0:
140,306,32694,2,0,L|128:265,2,42.2499980659486,2|2|8,1:2|1:2|1:3,0:0:0:0:
267,236,33271,5,2,1:2:0:0:
173,135,33560,1,8,1:3:0:0:
309,96,33848,1,2,1:2:0:0:
309,96,34040,1,2,1:2:0:0:
220,36,34233,1,8,1:3:0:0:
173,135,34425,5,2,0:3:0:0:
256,312,34810,5,4,1:2:0:0:
316,368,35002,2,0,L|405:359,2,71.5000021820069,2|8|2,0:3|2:2|2:3,0:0:0:0:
222,335,35579,2,0,P|258:289|192:267,1,143.000004364014,0|8,1:2|1:2,0:0:0:0:
119,367,36156,1,2,0:3:0:0:
77,308,36348,5,0,1:2:0:0:
187,333,36540,2,0,L|259:340,2,71.5000021820069,0|8|0,0:0|1:2|0:0,0:0:0:0:
148,264,37117,2,0,B|141:251|141:251|178:120,1,143.000004364014,0|8,1:2|1:2,0:0:0:0:
160,55,37694,1,0,0:0:0:0:
102,103,37887,1,0,1:2:0:0:
27,74,38079,5,2,0:3:0:0:
27,74,38175,1,0,0:0:0:0:
27,74,38271,1,8,1:2:0:0:
90,28,38464,1,2,0:3:0:0:
206,84,38656,2,0,P|170:38|236:16,1,143.000004364014,0|8,1:0|1:2,0:0:0:0:
283,63,39233,1,0,1:0:0:0:
256,172,39425,6,0,L|256:248,1,71.5000021820069,10|0,1:2|0:0,0:0:0:0:
271,346,39810,2,0,P|301:332|311:288,1,71.5000021820069,8|0,1:2|0:0,0:0:0:0:
404,235,40194,2,0,P|377:215|333:229,1,71.5000021820069,8|0,1:2|0:0,0:0:0:0:
403,316,40579,2,0,L|429:319,2,26,2|2|2,1:0|0:3|0:3,0:0:0:0:
312,297,40964,5,4,1:2:0:0:
341,221,41156,2,0,L|435:211,2,71.5000021820069,2|8|2,0:3|1:2|0:3,0:0:0:0:
250,208,41733,2,0,B|235:170|260:134|275:150|296:104|275:70,1,143.000004364014,0|8,1:2|1:2,0:0:0:0:
183,138,42310,1,2,0:0:0:0:
136,58,42502,6,0,L|289:77,1,143.000004364014,0|8,1:2|1:2,0:0:0:0:
356,32,43079,1,2,0:0:0:0:
348,108,43271,1,0,1:2:0:0:
340,184,43464,1,0,0:0:0:0:
404,241,43656,6,0,B|426:244|436:213|385:175|330:220|342:286,1,143.000004364014,8|0,1:2|1:2,0:0:0:0:
396,317,44233,1,0,0:0:0:0:
350,374,44425,2,0,B|311:354|326:341|288:329,2,71.5000021820069,8|2|0,1:2|0:3|1:2,0:0:0:0:
492,337,45194,1,8,1:2:0:0:
492,337,45387,1,2,0:0:0:0:
396,317,45579,6,0,L|299:325,1,71.5000021820069,10|0,1:2|0:0,0:0:0:0:
225,373,45964,2,0,B|247:323|247:323|231:296,1,71.5000021820069,8|0,1:2|0:0,0:0:0:0:
232,239,46348,2,0,B|209:189|209:189|225:162,1,71.5000021820069,8|0,1:2|0:0,0:0:0:0:
151,122,46733,2,0,L|125:125,2,26,2|2|2,1:0|0:3|0:3,0:0:0:0:
246,107,47117,5,4,1:2:0:0:
261,29,47310,1,2,0:3:0:0:
261,29,47406,1,0,0:0:0:0:
261,29,47502,1,8,1:2:0:0:
185,49,47694,1,2,0:3:0:0:
205,154,47887,6,0,B|236:136|234:95|234:95|228:12,1,143.000004364014,0|8,1:2|1:2,0:0:0:0:
329,17,48464,1,2,0:3:0:0:
389,55,48656,1,0,1:2:0:0:
317,87,48848,2,0,B|327:106|353:105|353:105|405:101,2,71.5000021820069,0|8|2,0:0|1:2|0:0,0:0:0:0:
286,166,49425,1,0,1:2:0:0:
295,237,49617,1,0,0:0:0:0:
296,316,49810,6,0,B|411:341|411:341|430:326,1,143.000004364014,8|0,1:2|1:2,0:0:0:0:
460,252,50387,1,2,0:3:0:0:
466,174,50579,2,0,L|393:183,1,71.5000021820069,8|2,1:2|0:3,0:0:0:0:
272,236,50964,2,0,L|355:247,1,71.5000021820069,0|0,1:2|0:0,0:0:0:0:
492,288,51348,2,0,L|409:299,1,71.5000021820069,8|2,1:2|0:3,0:0:0:0:
338,306,51733,6,0,B|343:299|338:283|338:283|313:300|322:326,1,71.5000021820069,10|0,1:2|0:0,0:0:0:0:
258,383,52117,2,0,B|205:367|205:367|192:341,1,71.5000021820069,8|0,1:2|0:0,0:0:0:0:
127,309,52502,2,0,B|166:271|166:271|196:273,1,71.5000021820069,8|0,1:2|0:0,0:0:0:0:
253,296,52887,2,0,L|256:258,2,26,2|2|2,1:0|0:3|0:3,0:0:0:0:
249,371,53271,6,0,L|103:384,1,143.000004364014,4|8,1:2|1:2,0:0:0:0:
68,321,53848,1,2,0:3:0:0:
31,384,54040,2,0,L|45:232,1,143.000004364014,0|8,1:2|1:2,0:0:0:0:
50,103,54617,1,2,0:0:0:0:
26,173,54810,5,0,1:2:0:0:
140,191,55002,1,2,0:0:0:0:
140,191,55098,1,0,0:0:0:0:
140,191,55194,1,8,1:2:0:0:
202,148,55387,1,2,0:0:0:0:
304,169,55579,6,0,L|207:183,1,71.5000021820069,0|0,1:2|0:0,0:0:0:0:
133,109,55964,2,0,P|120:73|133:36,1,71.5000021820069,8|2,1:2|0:3,0:0:0:0:
232,35,56348,6,0,L|268:31,3,35.7500010910034,0|0|0|0,3:2|3:0|3:0|3:0,0:0:0:0:
297,28,56733,1,8,1:2:0:0:
452,85,57117,6,0,L|417:81,3,35.7500010910034,0|0|0|0,3:2|3:0|3:0|3:0,0:0:0:0:
388,78,57502,1,8,1:2:0:0:
240,118,57887,6,0,B|226:144|226:144|246:199,1,71.5000021820069,10|0,1:2|0:0,0:0:0:0:
325,194,58271,2,0,B|335:200|335:200|389:189|389:189|400:195,1,71.5000021820069,8|0,1:2|0:0,0:0:0:0:
482,214,58656,2,0,B|470:219|470:219|453:272|453:272|443:278,1,71.5000021820069,8|0,1:2|0:0,0:0:0:0:
372,305,59040,2,0,L|369:267,2,26,2|2|2,1:0|0:3|0:3,0:0:0:0:
476,363,59425,5,4,3:0:0:0:
380,345,59617,1,0,3:0:0:0:
380,345,59714,1,0,0:0:0:0:
380,345,59810,2,0,L|240:329,2,130,0|8|0,1:2|3:1|0:0,0:0:0:0:
270,227,60964,5,0,1:2:0:0:
347,216,61348,2,0,L|486:200,2,130,0|8|0,1:2|3:1|3:0,0:0:0:0:
257,179,62502,6,0,B|221:186|224:167|191:179,1,65,0|0,1:2|3:0,0:0:0:0:
147,139,62790,1,0,3:0:0:0:
147,139,62887,2,0,B|186:135|190:91|190:91|194:20,1,130,0|8,1:2|3:1,0:0:0:0:
76,189,64040,6,0,B|97:215|97:215|206:228,2,130,0|0|8,1:2|1:2|3:1,0:0:0:0:
73,169,65194,1,0,3:2:0:0:
73,169,65387,1,0,3:2:0:0:
7,124,65579,5,0,1:2:0:0:
138,86,65964,2,0,P|185:104|153:163,2,130,0|8|0,1:2|3:1|0:0,0:0:0:0:
63,104,67117,1,0,1:2:0:0:
87,237,67502,2,0,P|47:268|12:211,2,130,0|8|0,1:2|3:1|3:2,0:0:0:0:
139,334,68656,6,0,P|172:330|211:357,1,65,0|0,1:2|3:2,0:0:0:0:
247,379,68944,1,0,3:2:0:0:
248,366,69040,2,0,L|263:228,1,130,0|8,1:2|3:1,0:0:0:0:
460,163,70194,6,0,L|386:166,1,65,0|0,1:2|0:0,0:0:0:0:
379,204,70483,1,0,0:0:0:0:
379,204,70579,2,0,P|436:210|469:268,1,130,0|8,1:2|3:1,0:0:0:0:
433,382,71348,1,0,3:2:0:0:
247,296,71733,5,2,1:2:0:0:
248,312,71829,1,2,1:2:0:0:
251,332,71925,2,0,L|256:381,2,42.2499980659486,2|2|8,1:2|1:2|1:3,0:0:0:0:
252,177,72502,5,2,1:2:0:0:
253,161,72598,1,2,1:2:0:0:
256,141,72694,2,0,L|261:91,2,42.2499980659486,2|2|8,1:2|1:2|1:3,0:0:0:0:
352,195,73271,5,2,1:2:0:0:
368,195,73367,1,2,1:2:0:0:
388,198,73463,2,0,L|437:203,2,42.2499980659486,2|2|8,1:2|1:2|1:3,0:0:0:0:
252,177,74810,5,2,1:2:0:0:
253,161,74906,1,2,1:2:0:0:
256,141,75002,2,0,L|261:91,2,42.2499980659486,2|2|8,1:2|1:2|1:3,0:0:0:0:
160,195,75579,5,2,1:2:0:0:
144,195,75675,1,2,1:2:0:0:
124,198,75771,2,0,L|74:203,2,42.2499980659486,2|2|8,1:2|1:2|1:3,0:0:0:0:
249,53,76348,5,10,1:2:0:0:
353,134,76637,1,8,1:2:0:0:
222,183,76925,1,8,1:2:0:0:
222,183,77117,1,2,1:3:0:0:
283,238,77310,1,2,3:0:0:0:
222,183,77502,5,8,0:3:0:0:
192,350,77887,6,0,B|234:328|284:339|263:357|329:372|361:339,1,146.250005578995,4|0,1:0|0:0,0:0:0:0:
350,350,78271,2,0,P|403:319|386:241,1,146.250005578995,8|0,0:2|0:0,0:0:0:0:
381,227,78656,2,0,P|327:196|268:250,1,146.250005578995,0|0,1:2|0:0,0:0:0:0:
192,268,79040,1,8,0:2:0:0:
192,268,79233,1,2,0:3:0:0:
254,369,79425,6,0,L|266:268,1,97.50000371933,0|2,1:2|0:3,0:0:0:0:
253,229,79714,1,0,0:0:0:0:
253,229,79810,2,0,L|240:128,1,97.50000371933,8|2,0:2|0:3,0:0:0:0:
145,56,80194,2,0,B|162:34|133:-1|77:29|113:107|181:89|182:44|229:39|253:62,1,195.00000743866,0|8,1:2|0:2,0:0:0:0:
503,58,80964,6,0,L|396:69,1,97.50000371933,0|2,1:2|0:3,0:0:0:0:
337,92,81252,1,0,0:0:0:0:
353,93,81348,2,0,P|400:102|435:155,1,97.50000371933,8|2,0:2|0:3,0:0:0:0:
355,266,81733,6,0,L|365:160,1,97.50000371933,0|2,1:2|0:3,0:0:0:0:
292,181,82021,1,2,0:3:0:0:
276,182,82117,2,0,P|228:191|193:244,1,97.50000371933,8|2,0:2|0:3,0:0:0:0:
279,289,82502,5,0,1:2:0:0:
361,338,82694,1,2,0:0:0:0:
277,384,82887,1,8,0:2:0:0:
380,337,83079,1,2,0:0:0:0:
264,374,83271,2,0,L|148:387,1,97.50000371933,0|2,1:2|0:0,0:0:0:0:
175,294,83656,6,0,B|157:267|187:239|187:239|230:261|214:300,1,116.999996429443,12|0,1:3|0:0,0:0:0:0:
278,368,84040,6,0,B|236:346|186:357|207:375|141:390|109:357,1,146.250005578995,4|0,1:0|0:0,0:0:0:0:
113,365,84425,2,0,B|92:351|92:351|105:219,1,146.250005578995,8|0,0:2|0:0,0:0:0:0:
106,215,84810,2,0,B|115:139|115:139|89:101|39:123,1,146.250005578995,0|0,1:2|0:0,0:0:0:0:
18,179,85194,1,8,0:2:0:0:
18,179,85387,1,2,0:3:0:0:
41,298,85579,6,0,P|53:349|100:356,1,97.50000371933,0|2,1:2|0:3,0:0:0:0:
165,361,85867,1,2,0:3:0:0:
183,373,85964,2,0,B|190:296|190:296|195:291|195:291|204:179,1,195.00000743866,8|0,0:2|1:2,0:0:0:0:
204,181,86733,1,8,0:2:0:0:
213,92,86925,1,2,0:3:0:0:
286,120,87117,6,0,P|311:178|241:210,1,146.250005578995,0|2,1:2|0:3,0:0:0:0:
228,207,87502,1,8,0:2:0:0:
228,207,87598,2,0,B|190:106,1,97.50000371933
176,43,87887,2,0,B|211:25|237:36|223:47|263:57|275:42,1,97.50000371933,0|2,1:2|0:3,0:0:0:0:
372,12,88271,1,8,0:2:0:0:
372,12,88464,1,2,0:3:0:0:
355,146,88656,6,0,B|369:167|345:189|345:189|311:172|323:141,1,97.50000371933,0|0,1:2|0:0,0:0:0:0:
415,26,89040,2,0,B|371:27|371:27|367:28|367:28|316:31,1,97.50000371933,8|0,0:2|0:0,0:0:0:0:
186,110,89425,2,0,B|229:111|229:111|233:112|233:112|284:115,1,97.50000371933,0|0,1:2|0:0,0:0:0:0:
453,108,89810,6,0,B|474:113|485:96|441:66|400:80|393:129,1,116.999996429443,12|0,1:3|0:0,0:0:0:0:
340,210,90194,6,0,B|449:199|449:199|482:231,1,146.250005578995,4|0,1:0|0:0,0:0:0:0:
482,243,90579,2,0,B|468:304|468:304|462:309|462:309|442:373|442:373|413:363,1,146.250005578995,8|0,0:2|0:0,0:0:0:0:
414,366,90964,2,0,B|382:339|339:348|344:370|284:375|265:342,1,146.250005578995,0|0,1:2|0:0,0:0:0:0:
284,283,91348,1,8,0:2:0:0:
284,283,91540,1,2,0:3:0:0:
387,276,91733,6,0,L|381:171,1,97.50000371933,0|2,1:2|0:3,0:0:0:0:
355,156,92021,1,0,0:0:0:0:
355,156,92117,2,0,L|360:51,1,97.50000371933,8|2,0:2|0:3,0:0:0:0:
463,28,92502,2,0,B|470:59|521:27|485:-20|409:2|444:38|390:73|339:43|351:7,1,195.00000743866,0|8,1:2|0:2,0:0:0:0:
78,34,93271,6,0,L|193:53,1,97.50000371933,0|2,1:2|0:3,0:0:0:0:
220,58,93560,1,0,0:0:0:0:
242,60,93656,2,0,B|228:92|228:92|151:113,1,97.50000371933,8|2,0:2|0:3,0:0:0:0:
0,245,94040,6,0,L|96:229,1,97.50000371933,0|2,1:2|0:3,0:0:0:0:
161,252,94329,1,0,2:0:0:0:
139,245,94425,2,0,P|103:281|100:341,1,97.50000371933,8|2,2:2|0:3,0:0:0:0:
227,288,94810,5,0,2:2:0:0:
216,384,95002,1,2,2:0:0:0:
315,336,95195,1,8,0:2:0:0:
225,383,95387,1,2,0:0:0:0:
358,384,95579,6,0,B|351:333|351:333|352:328|352:328|344:274,1,97.50000371933,0|2,1:2|0:0,0:0:0:0:
335,211,95964,2,0,B|328:169|356:141|400:160|390:183|365:177,1,97.50000371933,12|2,1:3|0:0,0:0:0:0:
469,171,96348,6,0,B|387:252|279:144|366:43|412:65|495:77|426:133|489:177|545:119|583:41|468:-41|419:23|424:66|379:35,1,467.999985717774,4|0,1:0|1:2,0:0:0:0:
258,29,97502,1,8,0:2:0:0:
258,29,97694,1,2,0:3:0:0:
200,95,97887,2,0,L|218:197,1,97.50000371933,0|2,1:2|0:3,0:0:0:0:
247,257,98175,1,0,0:0:0:0:
260,262,98271,2,0,P|206:280|193:325,1,97.50000371933,8|2,0:2|0:3,0:0:0:0:
93,377,98656,6,0,L|109:280,1,97.50000371933,0|0,1:2|0:0,0:0:0:0:
121,185,99040,1,8,0:2:0:0:
121,185,99233,1,2,0:1:0:0:
25,103,99425,6,0,B|88:94|67:113|142:105,1,97.50000371933,0|2,1:2|0:3,0:0:0:0:
193,142,99714,1,2,0:3:0:0:
194,127,99810,2,0,B|207:74|180:92|196:19,1,97.50000371933,8|2,0:2|0:3,0:0:0:0:
101,2,100194,5,0,1:2:0:0:
19,51,100386,1,2,0:3:0:0:
103,97,100579,1,8,0:2:0:0:
0,50,100771,1,2,0:3:0:0:
156,108,100964,6,0,B|132:46|221:19|253:79|226:85|230:152|278:157,1,195.00000743866,0|0,1:2|1:0,0:0:0:0:
449,64,101733,2,0,B|473:2|384:-25|352:35|379:41|375:108|327:113,1,195.00000743866,0|0,1:2|1:0,0:0:0:0:
458,223,102502,6,0,P|371:228|262:383,1,286.000008728028,12|8,1:1|1:1,0:0:0:0:
170,291,104040,2,0,L|219:-4,1,286.000008728028,8|0,1:1|3:1,0:0:0:0:
102,186,105579,6,0,L|207:200,1,97.50000371933,6|2,1:2|0:0,0:0:0:0:
217,202,105868,1,2,0:0:0:0:
244,205,105964,2,0,B|233:157|233:157|229:153|229:153|217:102,1,97.50000371933,8|2,0:2|0:0,0:0:0:0:
202,33,106348,1,0,1:2:0:0:
202,33,106541,1,2,0:0:0:0:
112,22,106733,6,0,P|99:84|45:118,1,130,8|0,0:2|0:0,0:0:0:0:
102,186,107117,6,0,L|207:200,1,97.50000371933,2|2,1:2|0:0,0:0:0:0:
217,202,107406,1,2,0:0:0:0:
244,205,107502,2,0,B|233:157|233:157|229:153|229:153|217:102,1,97.50000371933,8|2,0:2|0:0,0:0:0:0:
202,33,107886,1,0,1:2:0:0:
202,33,108079,1,2,0:0:0:0:
293,24,108271,6,0,P|306:86|360:120,1,130,8|0,0:2|0:0,0:0:0:0:
350,199,108656,6,0,L|443:174,1,97.50000371933,2|2,1:2|0:0,0:0:0:0:
443,199,108945,1,2,0:0:0:0:
440,217,109040,2,0,B|434:263|434:263|432:269|432:269|427:313,1,97.50000371933,8|2,0:2|0:0,0:0:0:0:
388,384,109425,1,0,1:2:0:0:
388,384,109618,1,2,0:0:0:0:
321,239,109810,6,0,B|314:261|314:261|228:290,1,97.50000371933,8|2,3:2|0:0,0:0:0:0:
216,284,110098,1,0,0:0:0:0:
193,279,110194,2,0,L|-10:246,1,195.00000743866,0|8,1:2|0:2,0:0:0:0:
80,158,110964,2,0,B|49:119|44:52|96:17|150:46|147:81,1,195.00000743866,0|8,1:2|0:2,0:0:0:0:
368,215,111733,6,0,L|382:110,1,97.50000371933,2|2,1:2|0:0,0:0:0:0:
384,100,112022,1,2,0:0:0:0:
387,73,112118,2,0,B|338:83|338:83|332:82|332:82|280:95,1,97.50000371933,8|2,0:2|0:0,0:0:0:0:
215,115,112502,1,0,1:2:0:0:
215,115,112695,1,2,0:0:0:0:
204,205,112887,6,0,P|266:218|300:272,1,130,8|0,0:2|0:0,0:0:0:0:
368,215,113272,6,0,L|382:110,1,97.50000371933,2|2,1:2|0:0,0:0:0:0:
384,100,113561,1,2,0:0:0:0:
387,73,113656,2,0,B|338:83|338:83|332:82|332:82|280:95,1,97.50000371933,8|2,0:2|0:0,0:0:0:0:
215,115,114041,1,0,1:2:0:0:
215,115,114234,1,2,0:0:0:0:
204,205,114425,6,0,P|266:218|300:272,1,130,8|0,0:2|0:0,0:0:0:0:
359,201,114810,6,0,L|345:96,1,97.50000371933,2|2,1:2|0:0,0:0:0:0:
343,86,115099,1,2,0:0:0:0:
340,59,115195,2,0,B|383:68|383:68|392:67|392:67|448:80,1,97.50000371933,8|2,0:2|0:0,0:0:0:0:
509,101,115579,1,0,1:2:0:0:
509,101,115772,1,2,0:0:0:0:
421,251,115964,6,0,B|385:240|406:209|455:210|472:252|438:296|431:284|416:319|442:348,1,146.250005578995,8|0,0:2|0:0,0:0:0:0:
429,318,116348,5,8,1:1:0:0:
326,228,116637,1,8,1:1:0:0:
445,174,116925,1,8,1:1:0:0:
401,94,117118,5,8,1:1:0:0:
