osu file format v14

[General]
AudioFilename: audio.mp3
AudioLeadIn: 0
PreviewTime: 77391
Countdown: 0
SampleSet: Soft
StackLeniency: 0.4
Mode: 0
LetterboxInBreaks: 0
WidescreenStoryboard: 1

[Editor]
Bookmarks: 69357,73203
DistanceSpacing: 1.5
BeatDivisor: 8
GridSize: 4
TimelineZoom: 1.7

[Metadata]
Title:Ronron e Rairairai!
TitleUnicode:ロンロンヘ ライライライ!
Artist:Coconatsu
ArtistUnicode:ここなつ
Creator:Lunala
Version:Hard
Source:SOUND VOLTEX III GRAVITY WARS
Tags:jubeat Qubell pop'n music うさぎと猫と少年の夢 DanceDanceRevolution A Hige Driver 東雲夏陽 東雲心菜 Cocona Shinonome Ari Ozawa Natsuhi Shinonome Yuri Hinami video game japanese
BeatmapID:2356841
BeatmapSetID:1128064

[Difficulty]
HPDrainRate:5
CircleSize:3.7
OverallDifficulty:7
ApproachRate:8
SliderMultiplier:1.4
SliderTickRate:1

[Events]
//Background and Video events
0,0,"bg0.jpg",0,0
//Break Periods
//Storyboard Layer 0 (Background)
//Storyboard Layer 1 (Fail)
//Storyboard Layer 2 (Pass)
//Storyboard Layer 3 (Foreground)
//Storyboard Layer 4 (Overlay)
//Storyboard Sound Samples

[TimingPoints]
949,384.615384615385,4,2,1,70,1,0
949,-100,4,2,1,70,0,0
14795,-100,4,2,1,100,0,0
15949,-83.3333333333333,4,2,1,100,0,0
16333,-83.3333333333333,4,2,1,100,0,0
17775,-83.3333333333333,4,2,1,5,0,0
17871,-83.3333333333333,4,2,1,100,0,0
19313,-83.3333333333333,4,2,1,5,0,0
19409,-83.3333333333333,4,2,1,100,0,0
23929,-83.3333333333333,4,2,1,5,0,0
24025,-83.3333333333333,4,2,1,100,0,0
25467,-83.3333333333333,4,2,1,5,0,0
25563,-83.3333333333333,4,2,1,100,0,0
27006,-83.3333333333333,4,2,1,5,0,0
27102,-83.3333333333333,4,2,1,100,0,0
28256,-83.3333333333333,4,2,1,50,0,0
28641,-100,4,2,1,50,0,0
34410,-100,4,2,1,80,0,0
34795,-100,4,2,1,80,0,0
39698,-100,4,2,1,5,0,0
39794,-100,4,2,1,80,0,0
40083,-100,4,2,1,5,0,0
40179,-100,4,2,1,80,0,0
40467,-100,4,2,1,5,0,0
40563,-100,4,2,1,80,0,0
56237,-100,4,2,1,5,0,0
56333,-100,4,2,1,80,0,0
58160,-100,4,2,1,5,0,0
58256,-100,4,2,1,80,0,0
58544,-100,4,2,1,5,0,0
58640,-100,4,2,1,80,0,0
58929,-100,4,2,1,5,0,0
59025,-100,4,2,1,80,0,0
59795,-111.111111111111,4,2,1,80,0,0
76333,-100,4,2,1,80,0,0
77487,-90.9090909090909,4,2,1,90,0,0
77872,-83.3333333333333,4,2,1,100,0,1
78160,-83.3333333333333,4,2,1,5,0,1
78256,-83.3333333333333,4,2,1,100,0,1
78544,-83.3333333333333,4,2,1,5,0,1
78640,-83.3333333333333,4,2,1,100,0,1
78929,-83.3333333333333,4,2,1,5,0,1
79025,-83.3333333333333,4,2,1,100,0,1
84313,-83.3333333333333,4,2,1,5,0,1
84409,-83.3333333333333,4,2,1,100,0,1
84698,-83.3333333333333,4,2,1,5,0,1
84794,-83.3333333333333,4,2,1,100,0,1
85083,-83.3333333333333,4,2,1,5,0,1
85179,-83.3333333333333,4,2,1,100,0,1
87775,-83.3333333333333,4,2,1,5,0,1
87871,-83.3333333333333,4,2,1,100,0,1
88929,-83.3333333333333,4,2,1,5,0,1
89025,-83.3333333333333,4,2,1,100,0,1
89313,-83.3333333333333,4,2,1,5,0,1
89409,-83.3333333333333,4,2,1,100,0,1
89698,-83.3333333333333,4,2,1,5,0,1
89794,-83.3333333333333,4,2,1,100,0,1
90467,-83.3333333333333,4,2,1,5,0,1
90563,-83.3333333333333,4,2,1,100,0,1
90852,-83.3333333333333,4,2,1,5,0,1
90948,-83.3333333333333,4,2,1,100,0,1
91237,-83.3333333333333,4,2,1,5,0,1
91333,-83.3333333333333,4,2,1,100,0,1
95852,-83.3333333333333,4,2,1,5,0,1
95948,-83.3333333333333,4,2,1,100,0,1
96237,-83.3333333333333,4,2,1,5,0,1
96333,-83.3333333333333,4,2,1,100,0,1
101237,-83.3333333333333,4,2,1,5,0,1
101333,-83.3333333333333,4,2,1,100,0,1
101621,-83.3333333333333,4,2,1,5,0,1
101717,-83.3333333333333,4,2,1,100,0,1
102006,-83.3333333333333,4,2,1,5,0,1
102102,-83.3333333333333,4,2,1,100,0,1
102390,-83.3333333333333,4,2,1,5,0,1
102486,-83.3333333333333,4,2,1,100,0,1
105564,-83.3333333333333,4,2,1,100,0,0
107006,-83.3333333333333,4,2,1,5,0,1
107102,-83.3333333333333,4,2,1,100,0,0
108545,-83.3333333333333,4,2,1,5,0,1
108641,-83.3333333333333,4,2,1,100,0,0
113160,-83.3333333333333,4,2,1,5,0,1
113256,-83.3333333333333,4,2,1,100,0,0
114699,-83.3333333333333,4,2,1,5,0,1
114795,-83.3333333333333,4,2,1,100,0,0
116237,-83.3333333333333,4,2,1,5,0,1
116333,-83.3333333333333,4,2,1,100,0,0

[Colours]
Combo1 : 179,109,255
Combo2 : 255,0,0
Combo3 : 255,128,64
Combo4 : 255,128,255

[HitObjects]
154,60,14795,5,2,0:0:0:0:
86,116,15179,1,2,0:0:0:0:
96,202,15564,1,2,0:0:0:0:
180,304,15949,2,0,L|192:200,1,83.9999974365235,0|0,3:0|0:0,0:0:0:0:
267,107,16333,6,0,P|289:154|284:193,1,83.9999974365235,2|2,3:2|0:0,0:0:0:0:
287,224,16622,1,2,0:0:0:0:
287,224,16718,2,0,L|402:194,1,83.9999974365235,10|2,0:0|0:0,0:0:0:0:
465,261,17102,1,2,3:2:0:0:
465,261,17295,1,2,0:0:0:0:
397,336,17487,2,0,L|234:320,1,125.999996154785,10|0,0:0|0:0,0:0:0:0:
229,320,17872,6,0,P|184:353|125:340,1,83.9999974365235,2|2,3:2|0:0,0:0:0:0:
118,346,18160,1,2,0:0:0:0:
118,346,18256,2,0,L|123:256,1,83.9999974365235,10|2,0:0|0:0,0:0:0:0:
72,177,18641,1,2,3:2:0:0:
72,177,18833,1,2,0:0:0:0:
167,127,19025,2,0,P|202:81|163:22,1,125.999996154785,10|0,0:0|0:0,0:0:0:0:
219,17,19410,6,0,P|273:36|324:29,1,83.9999974365235,2|2,3:2|0:0,0:0:0:0:
339,35,19699,1,2,0:0:0:0:
339,35,19795,2,0,L|322:135,1,83.9999974365235,10|2,2:0|0:0,0:0:0:0:
301,214,20179,1,2,3:2:0:0:
301,214,20372,1,2,0:0:0:0:
386,269,20564,2,0,P|432:332|421:363,1,83.9999974365235,10|0,2:0|0:0,0:0:0:0:
423,373,20852,5,2,0:0:0:0:
423,373,20949,2,0,L|306:358,1,83.9999974365235,2|0,3:2|0:0,0:0:0:0:
194,315,21333,2,0,L|311:300,1,83.9999974365235,10|0,2:0|0:0,0:0:0:0:
426,260,21718,2,0,L|309:245,1,83.9999974365235,2|8,3:2|0:3,0:0:0:0:
191,205,22102,2,0,L|308:190,1,83.9999974365235,10|0,2:0|0:0,0:0:0:0:
366,123,22487,6,0,P|383:80|361:30,1,83.9999974365235,2|2,3:2|0:0,0:0:0:0:
351,12,22775,1,2,0:0:0:0:
351,12,22872,2,0,L|260:30,1,83.9999974365235,10|2,2:0|0:0,0:0:0:0:
160,29,23256,1,2,3:2:0:0:
160,29,23449,1,2,0:0:0:0:
86,110,23641,2,0,L|112:234,1,125.999996154785,10|0,2:0|0:0,0:0:0:0:
115,279,24025,6,0,P|168:258|218:278,1,83.9999974365235,2|2,3:2|0:0,0:0:0:0:
236,273,24314,1,2,0:0:0:0:
236,273,24410,2,0,L|230:376,1,83.9999974365235,10|2,2:0|0:0,0:0:0:0:
326,379,24795,1,2,3:2:0:0:
326,379,24987,1,2,0:0:0:0:
398,317,25179,2,0,P|445:276|513:292,1,125.999996154785,10|0,0:0|0:0,0:0:0:0:
512,250,25564,6,0,P|488:168|502:143,1,83.9999974365235,2|2,3:2|0:0,0:0:0:0:
503,139,25852,1,2,0:0:0:0:
503,139,25949,2,0,L|398:157,1,83.9999974365235,10|2,2:0|0:0,0:0:0:0:
335,196,26333,1,2,3:2:0:0:
335,196,26525,1,2,0:0:0:0:
245,133,26718,2,0,P|178:101|106:132,1,125.999996154785,10|0,2:0|0:0,0:0:0:0:
86,117,27102,6,0,L|112:221,1,83.9999974365235,2|0,3:2|0:0,0:0:0:0:
120,231,27391,2,0,P|79:261|87:323,1,83.9999974365235,2|0,3:2|0:0,0:0:0:0:
72,327,27679,1,2,3:2:0:0:
168,375,27872,2,0,B|225:360|225:360|276:383|276:383|356:365,1,167.999994873047,2|8,3:2|0:3,0:0:0:0:
448,302,28641,5,4,0:3:0:0:
449,276,28737,1,4,0:3:0:0:
451,251,28833,2,0,L|454:194,2,35,4|4|4,0:3|0:3|0:3,0:0:0:0:
338,95,29410,5,4,0:3:0:0:
339,120,29506,1,4,0:3:0:0:
341,145,29602,2,0,L|342:179,2,35,4|4|4,0:3|0:3|0:3,0:0:0:0:
219,294,30179,5,4,0:3:0:0:
220,268,30275,1,4,0:3:0:0:
222,243,30371,2,0,L|225:186,2,35,4|4|4,0:3|0:3|0:3,0:0:0:0:
46,97,31718,5,4,0:3:0:0:
72,100,31814,1,4,0:3:0:0:
96,104,31910,2,0,L|157:112,2,35,4|4|4,0:3|0:3|0:3,0:0:0:0:
253,197,32487,5,4,0:3:0:0:
228,200,32583,1,4,0:3:0:0:
203,204,32679,2,0,L|142:212,2,35,4|4|4,0:3|0:3|0:3,0:0:0:0:
134,336,33256,5,2,3:2:0:0:
231,356,33545,1,0,3:0:0:0:
339,375,33833,1,2,3:2:0:0:
339,375,34025,2,0,L|331:278,1,70,2|0,3:2|0:0,0:0:0:0:
320,206,34410,5,4,0:0:0:0:
160,182,34795,5,6,3:2:0:0:
110,102,34987,2,0,L|122:20,2,70,0|10|0,0:0|0:0|0:0,0:0:0:0:
42,160,35564,2,0,L|54:251,1,70,2|2,3:2|0:0,0:0:0:0:
35,309,35949,1,8,0:0:0:0:
111,355,36141,2,0,P|217:334|245:357,1,140,2|2,0:0|0:0,0:0:0:0:
327,361,36718,6,0,L|342:284,1,70,10|0,0:0|0:0,0:0:0:0:
400,221,37102,1,0,3:0:0:0:
422,305,37295,1,2,0:0:0:0:
491,242,37487,2,0,L|464:97,1,140,10|0,0:0|3:0,0:0:0:0:
384,41,38064,5,2,0:0:0:0:
384,41,38160,1,2,0:0:0:0:
384,41,38256,2,0,L|375:118,1,70,10|2,0:0|0:0,0:0:0:0:
314,187,38641,2,0,L|345:285,1,70,2|0,3:2|0:0,0:0:0:0:
357,293,38929,1,2,0:0:0:0:
357,293,39025,2,0,L|264:277,1,70,10|0,0:0|0:0,0:0:0:0:
196,302,39410,6,0,P|167:359|104:368,1,105,2|0,3:2|0:0,0:0:0:0:
77,368,39795,2,0,B|46:326|46:326|65:258,1,105,2|0,3:2|0:0,0:0:0:0:
65,238,40179,2,0,L|45:128,1,105,2|0,3:2|0:0,0:0:0:0:
39,92,40564,2,0,P|90:106|124:100,1,70,0|0,3:0|0:0,0:0:0:0:
203,92,40949,5,0,3:0:0:0:
287,31,41141,1,2,0:0:0:0:
287,31,41237,1,2,0:0:0:0:
287,31,41333,2,0,L|371:36,1,70,10|2,0:0|0:0,0:0:0:0:
451,97,41718,2,0,L|374:110,1,70,2|0,3:2|0:0,0:0:0:0:
297,138,42102,1,10,0:0:0:0:
373,198,42295,2,0,P|398:262|398:293,1,70,2|0,0:0|3:0,0:0:0:0:
488,257,42679,6,0,P|405:307|406:362,1,140,2|2,0:0|0:0,0:0:0:0:
317,381,43256,1,2,3:2:0:0:
285,279,43449,1,2,0:0:0:0:
202,339,43641,2,0,B|54:366,1,140,10|0,0:0|3:0,0:0:0:0:
20,289,44218,5,2,0:0:0:0:
103,230,44410,2,0,L|94:148,1,70,10|0,0:0|0:0,0:0:0:0:
149,79,44795,2,0,P|174:113|285:103,1,140,2|8,3:2|0:0,0:0:0:0:
225,43,45372,1,2,0:0:0:0:
336,85,45564,6,0,L|347:158,1,70,2|0,3:2|0:0,0:0:0:0:
418,214,45949,2,0,L|435:117,1,70,2|0,3:2|0:0,0:0:0:0:
512,42,46333,2,0,B|502:97|502:97|514:132|514:132|504:200,1,140,2|0,3:2|3:0,0:0:0:0:
499,331,47102,5,4,3:2:0:0:
417,290,47295,1,2,0:0:0:0:
417,290,47391,1,2,0:0:0:0:
417,290,47487,2,0,L|328:306,1,70,10|2,0:0|0:0,0:0:0:0:
264,343,47872,2,0,L|188:326,1,70,2|0,3:2|0:0,0:0:0:0:
116,280,48256,1,10,0:0:0:0:
53,211,48449,2,0,P|32:143|81:64,1,140,2|2,0:0|0:0,0:0:0:0:
142,6,49025,6,0,P|142:85|136:93,1,70,10|2,0:0|0:0,0:0:0:0:
128,152,49410,1,2,3:2:0:0:
216,131,49602,1,2,0:0:0:0:
280,200,49795,2,0,L|438:171,1,140,10|0,0:0|3:0,0:0:0:0:
481,111,50372,6,0,L|460:29,2,70,2|10|0,0:0|0:0|0:0,0:0:0:0:
461,206,50949,2,0,L|480:288,1,70,2|2,3:2|0:0,0:0:0:0:
458,363,51333,1,10,0:2:0:0:
458,363,51429,1,2,0:2:0:0:
458,363,51525,1,2,0:2:0:0:
358,314,51718,6,0,L|264:330,1,70,2|0,3:2|0:0,0:0:0:0:
207,379,52102,2,0,L|191:285,1,70,2|0,3:2|0:0,0:0:0:0:
120,238,52487,2,0,L|214:222,1,70,2|0,3:2|0:0,0:0:0:0:
271,173,52871,2,0,L|287:267,1,70,2|0,3:2|0:0,0:0:0:0:
372,277,53256,5,0,3:0:0:0:
443,211,53449,2,0,P|467:194|514:180,2,70,2|8|0,0:0|0:0|0:0,0:0:0:0:
362,154,54025,2,0,P|365:82|371:67,1,70,2|2,3:2|0:0,0:0:0:0:
409,3,54410,1,10,0:0:0:0:
307,21,54602,2,0,L|217:40,1,70,2|0,0:0|3:0,0:0:0:0:
147,77,54987,5,2,0:0:0:0:
147,77,55083,1,2,0:0:0:0:
147,77,55179,2,0,L|64:56,1,70,10|2,0:0|0:0,0:0:0:0:
7,130,55564,1,2,3:2:0:0:
25,214,55756,1,0,0:0:0:0:
117,206,55949,2,0,L|101:318,1,105,8|0,0:0|0:0,0:0:0:0:
93,349,56333,6,0,L|153:338,3,35,2|0|0|2,3:2|0:3|0:3|0:2,0:0:0:0:
177,333,56718,1,8,0:0:0:0:
297,259,57102,6,0,L|237:248,3,35,2|0|0|0,3:2|0:0|0:0|0:0,0:0:0:0:
213,243,57487,1,10,0:2:0:0:
177,120,57872,6,0,P|203:26|230:17,1,105,2|0,3:2|0:0,0:0:0:0:
249,25,58256,2,0,P|279:66|272:117,1,105,2|0,3:2|0:0,0:0:0:0:
257,160,58641,2,0,P|317:127|384:130,1,105,2|0,3:2|0:0,0:0:0:0:
394,126,59025,1,8,0:0:0:0:
482,188,59218,1,2,0:0:0:0:
482,188,59314,1,2,0:0:0:0:
482,188,59410,1,6,0:0:0:0:
341,264,59795,6,0,L|303:124,2,125.999996154785,0|6|0,3:0|3:2|0:0,0:0:0:0:
299,369,60949,2,0,P|216:340|163:367,1,125.999996154785,0|0,3:0|3:0,0:0:0:0:
47,344,61718,2,0,L|50:272,1,62.9999980773926,12|0,0:0|0:0,0:0:0:0:
111,213,62102,2,0,L|96:144,1,62.9999980773926,0|0,3:0|0:0,0:0:0:0:
136,84,62487,6,0,P|38:98|24:133,2,125.999996154785,2|0|6,3:2|3:0|3:2,0:0:0:0:
293,113,64025,2,0,P|391:99|405:64,2,125.999996154785,0|0|0,3:2|3:2|3:2,0:0:0:0:
165,163,65179,1,0,3:0:0:0:
165,163,65372,1,0,3:0:0:0:
234,224,65564,2,0,L|225:298,1,62.9999980773926,2|8,3:2|0:3,0:0:0:0:
226,328,65852,5,8,0:3:0:0:
226,328,65949,2,0,P|141:290|96:307,2,125.999996154785,0|6|0,3:3|3:2|0:0,0:0:0:0:
357,354,67102,2,0,P|404:285|462:273,1,125.999996154785,0|0,3:0|3:0,0:0:0:0:
491,151,67872,2,0,L|413:130,1,62.9999980773926,12|0,0:0|0:0,0:0:0:0:
365,79,68256,2,0,L|294:97,1,62.9999980773926,0|0,3:0|3:0,0:0:0:0:
239,161,68641,6,0,B|209:219|209:219|247:295,2,125.999996154785,2|0|6,3:2|3:0|3:2,0:0:0:0:
349,136,70179,2,0,B|379:78|379:78|341:2,2,125.999996154785,0|0|6,3:0|3:0|3:2,0:0:0:0:
354,249,71333,2,0,L|435:237,1,62.9999980773926,0|0,3:0|0:0,0:0:0:0:
486,311,71718,5,0,3:0:0:0:
406,326,71910,1,0,3:0:0:0:
326,345,72102,1,0,3:0:0:0:
185,228,72487,5,0,3:0:0:0:
265,243,72679,1,0,3:0:0:0:
345,262,72871,1,0,3:0:0:0:
396,128,73256,5,0,3:0:0:0:
316,143,73448,1,0,3:0:0:0:
236,162,73640,1,0,3:0:0:0:
43,296,74795,5,0,3:0:0:0:
55,215,74987,1,0,3:0:0:0:
69,135,75179,1,0,3:0:0:0:
139,0,75564,5,0,3:0:0:0:
151,81,75756,1,0,3:0:0:0:
165,161,75948,1,0,3:0:0:0:
253,278,76333,5,0,3:0:0:0:
355,251,76622,1,0,3:0:0:0:
453,226,76910,1,0,3:0:0:0:
453,226,77102,2,0,L|431:138,1,70,0|0,3:0|0:0,0:0:0:0:
424,26,77487,6,0,P|366:84|311:77,1,115.50000352478,4|0,3:2|0:0,0:0:0:0:
292,76,77872,6,0,B|233:42|233:42|180:94,1,125.999996154785,6|0,3:2|0:0,0:0:0:0:
165,110,78256,2,0,P|186:189|156:228,1,125.999996154785,2|0,1:2|0:0,0:0:0:0:
133,245,78641,2,0,P|208:266|229:332,1,125.999996154785,2|0,3:2|0:0,0:0:0:0:
230,349,79025,1,0,1:0:0:0:
230,349,79218,1,2,0:0:0:0:
343,375,79410,2,0,L|354:260,1,83.9999974365235,2|2,3:2|0:0,0:0:0:0:
435,206,79795,2,0,L|456:302,1,83.9999974365235,0|2,1:0|0:0,0:0:0:0:
353,184,80179,2,0,P|385:133|494:149,1,167.999994873047,2|0,3:2|1:0,0:0:0:0:
506,48,80756,5,2,0:0:0:0:
397,21,80949,2,0,L|307:44,1,83.9999974365235,2|0,3:2|0:0,0:0:0:0:
279,50,81237,1,2,0:0:0:0:
279,50,81333,2,0,P|283:114|248:152,1,83.9999974365235,0|0,1:0|0:0,0:0:0:0:
244,164,81622,1,0,0:0:0:0:
244,164,81718,2,0,L|158:142,1,83.9999974365235,2|0,3:2|0:0,0:0:0:0:
72,211,82102,2,0,L|164:233,1,83.9999974365235,0|0,1:0|0:0,0:0:0:0:
235,284,82487,5,2,3:2:0:0:
318,317,82679,1,0,0:0:0:0:
376,247,82871,1,2,1:2:0:0:
328,170,83064,1,2,0:0:0:0:
240,192,83256,1,2,3:2:0:0:
114,45,83641,2,0,L|129:134,1,83.9999974365235,2|0,1:2|0:0,0:0:0:0:
32,230,84025,6,0,P|120:209|159:262,1,125.999996154785,2|0,3:2|0:0,0:0:0:0:
172,255,84410,2,0,B|198:318|198:318|147:368,1,125.999996154785,2|0,1:2|0:0,0:0:0:0:
118,379,84795,2,0,L|273:358,1,125.999996154785,2|0,3:2|0:0,0:0:0:0:
288,359,85179,1,2,1:2:0:0:
288,359,85372,1,2,0:0:0:0:
369,280,85564,2,0,P|375:235|353:171,1,83.9999974365235,2|0,3:2|0:0,0:0:0:0:
278,134,85949,2,0,P|272:89|294:25,1,83.9999974365235,2|2,1:2|0:0,0:0:0:0:
368,1,86333,2,0,P|280:46|202:0,1,167.999994873047,2|2,3:2|1:2,0:0:0:0:
129,42,86910,1,2,0:0:0:0:
64,120,87102,6,0,L|71:210,1,83.9999974365235,2|0,3:2|0:0,0:0:0:0:
73,248,87391,1,2,0:2:0:0:
73,248,87487,2,0,P|166:259|178:312,1,125.999996154785,0|0,1:0|0:0,0:0:0:0:
178,319,87872,1,2,3:2:0:0:
178,319,88064,1,0,0:0:0:0:
272,362,88256,1,2,1:2:0:0:
272,362,88449,1,2,0:0:0:0:
360,302,88641,6,0,L|348:154,1,125.999996154785,2|0,3:2|0:0,0:0:0:0:
351,128,89025,2,0,P|420:177|478:151,1,125.999996154785,2|0,1:2|0:0,0:0:0:0:
500,155,89410,2,0,P|445:197|459:269,1,125.999996154785,2|0,3:2|0:0,0:0:0:0:
480,277,89795,2,0,L|378:258,1,83.9999974365235,4|0,0:1|0:0,0:0:0:0:
283,266,90179,6,0,P|223:328|158:312,1,125.999996154785,6|0,3:2|0:0,0:0:0:0:
149,314,90564,2,0,P|140:217|96:197,1,125.999996154785,2|0,1:2|0:0,0:0:0:0:
85,185,90949,2,0,B|55:128|55:128|104:61,1,125.999996154785,2|0,3:2|0:0,0:0:0:0:
125,54,91333,1,2,1:2:0:0:
125,54,91525,1,2,0:0:0:0:
217,110,91718,2,0,L|307:95,1,83.9999974365235,2|0,3:2|0:0,0:0:0:0:
396,164,92102,2,0,L|306:179,1,83.9999974365235,2|2,1:2|0:0,0:0:0:0:
192,265,92487,2,0,B|257:253|257:253|297:273|297:273|390:257,1,167.999994873047,2|0,3:2|1:0,0:0:0:0:
446,311,93064,1,2,0:0:0:0:
512,230,93256,6,0,P|502:148|479:130,1,83.9999974365235,2|0,3:2|0:0,0:0:0:0:
473,126,93545,1,2,0:2:0:0:
473,126,93641,2,0,P|458:82|479:34,1,83.9999974365235,0|0,1:0|0:0,0:0:0:0:
494,15,93929,1,0,0:0:0:0:
494,15,94025,2,0,L|404:33,1,83.9999974365235,2|0,3:2|0:0,0:0:0:0:
318,9,94410,2,0,L|235:25,1,83.9999974365235,0|0,1:0|0:0,0:0:0:0:
172,116,94795,5,2,3:2:0:0:
260,94,94987,1,0,0:0:0:0:
308,171,95180,1,2,1:2:0:0:
250,241,95372,1,2,0:0:0:0:
167,208,95564,2,0,B|105:198|105:198|38:253,1,125.999996154785,2|0,3:2|0:0,0:0:0:0:
19,260,95949,2,0,P|74:298|70:355,1,125.999996154785,2|0,1:2|0:0,0:0:0:0:
32,376,96333,6,0,L|235:347,1,167.999994873047,2|0,3:2|1:0,0:0:0:0:
389,363,97102,2,0,P|374:294|396:259,1,83.9999974365235,0|0,3:0|0:0,0:0:0:0:
428,211,97487,1,2,1:2:0:0:
487,141,97679,2,0,L|464:37,1,83.9999974365235,2|0,0:0|3:0,0:0:0:0:
374,28,98064,5,2,0:0:0:0:
286,6,98256,1,2,1:2:0:0:
238,83,98449,1,2,0:0:0:0:
296,153,98641,2,0,L|277:337,1,167.999994873047,2|0,3:2|1:0,0:0:0:0:
192,359,99218,1,2,0:0:0:0:
117,286,99410,6,0,P|83:257|41:254,1,83.9999974365235,2|0,3:2|0:0,0:0:0:0:
8,268,99699,1,2,0:0:0:0:
8,268,99795,2,0,L|22:161,1,83.9999974365235,0|0,1:0|0:0,0:0:0:0:
88,78,100179,2,0,L|102:161,1,83.9999974365235,2|2,3:2|0:2,0:0:0:0:
207,238,100564,2,0,L|193:131,1,83.9999974365235,2|2,1:2|0:2,0:0:0:0:
259,52,100949,6,0,P|306:137|358:136,1,125.999996154785,2|0,3:2|0:0,0:0:0:0:
364,131,101333,2,0,P|306:208|328:253,1,125.999996154785,2|0,1:2|0:0,0:0:0:0:
332,261,101718,2,0,B|393:282|393:282|379:352,1,125.999996154785,2|0,3:2|0:0,0:0:0:0:
379,384,102102,2,0,L|240:360,1,125.999996154785,2|0,1:2|0:0,0:0:0:0:
213,350,102487,5,2,3:2:0:0:
153,253,103256,1,2,3:2:0:0:
205,152,104025,1,2,3:2:0:0:
358,54,104795,5,8,0:3:0:0:
361,78,104891,1,8,0:3:0:0:
365,103,104987,1,8,0:3:0:0:
369,128,105083,1,8,0:3:0:0:
372,154,105179,1,8,0:3:0:0:
391,325,105564,6,0,P|361:303|307:308,1,83.9999974365235,2|2,3:2|0:0,0:0:0:0:
276,320,105852,1,2,0:0:0:0:
276,320,105949,2,0,L|256:232,1,83.9999974365235,10|2,0:0|0:0,0:0:0:0:
202,169,106333,1,2,3:2:0:0:
202,169,106525,1,2,0:0:0:0:
100,209,106718,2,0,L|117:69,1,125.999996154785,10|0,0:0|0:0,0:0:0:0:
113,40,107102,6,0,P|206:42|211:34,1,83.9999974365235,2|2,3:2|0:0,0:0:0:0:
234,48,107391,1,2,0:0:0:0:
234,48,107487,2,0,L|325:61,1,83.9999974365235,10|2,0:0|0:0,0:0:0:0:
403,82,107872,1,2,3:2:0:0:
403,82,108064,1,2,0:0:0:0:
489,141,108256,2,0,P|438:193|462:274,1,125.999996154785,10|0,0:0|0:0,0:0:0:0:
474,276,108641,6,0,P|434:253|378:261,1,83.9999974365235,2|2,3:2|0:0,0:0:0:0:
360,263,108929,1,2,0:0:0:0:
360,263,109025,2,0,L|375:368,1,83.9999974365235,10|2,2:0|0:0,0:0:0:0:
283,380,109410,1,2,3:2:0:0:
283,380,109602,1,2,0:0:0:0:
205,301,109795,2,0,L|215:213,1,83.9999974365235,10|0,2:0|0:0,0:0:0:0:
218,179,110083,5,2,0:0:0:0:
218,179,110179,2,0,L|128:196,1,83.9999974365235,2|0,3:2|0:0,0:0:0:0:
302,132,110564,2,0,L|398:147,1,83.9999974365235,10|0,2:0|0:0,0:0:0:0:
217,79,110949,2,0,L|127:96,1,83.9999974365235,2|8,3:2|0:3,0:0:0:0:
301,32,111334,2,0,L|397:47,1,83.9999974365235,10|0,2:0|0:0,0:0:0:0:
472,97,111718,6,0,P|489:153|469:199,1,83.9999974365235,2|2,3:2|0:0,0:0:0:0:
467,213,112006,1,2,0:0:0:0:
467,213,112102,2,0,L|482:313,1,83.9999974365235,10|2,2:0|0:0,0:0:0:0:
421,368,112487,1,2,3:2:0:0:
421,368,112679,1,2,0:0:0:0:
342,307,112872,2,0,P|299:275|217:288,1,125.999996154785,10|0,2:0|0:0,0:0:0:0:
199,299,113256,6,0,P|146:333|109:328,1,83.9999974365235,2|2,3:2|0:0,0:0:0:0:
83,323,113545,1,2,0:0:0:0:
83,323,113641,2,0,L|93:236,1,83.9999974365235,10|2,2:0|0:0,0:0:0:0:
28,156,114025,1,2,3:2:0:0:
28,156,114218,1,2,0:0:0:0:
106,85,114410,2,0,P|148:136|229:133,1,125.999996154785,10|0,2:2|0:0,0:0:0:0:
247,133,114795,6,0,P|251:209|271:229,1,83.9999974365235,2|2,3:2|0:0,0:0:0:0:
284,240,115083,1,2,0:0:0:0:
284,240,115179,2,0,L|386:224,1,83.9999974365235,10|2,2:0|0:0,0:0:0:0:
470,184,115564,1,2,3:2:0:0:
470,184,115756,1,2,0:0:0:0:
407,93,115949,2,0,L|270:116,1,125.999996154785,10|0,2:0|0:0,0:0:0:0:
242,121,116333,5,4,3:2:0:0:
138,139,116622,1,4,3:2:0:0:
30,159,116910,1,4,3:2:0:0:
30,159,117102,1,4,3:2:0:0:
