osu file format v14

[General]
AudioFilename: audio.ogg
AudioLeadIn: 0
PreviewTime: 80928
Countdown: 0
SampleSet: Normal
StackLeniency: 0.7
Mode: 1
LetterboxInBreaks: 0
WidescreenStoryboard: 1

[Editor]
Bookmarks: 16928,32928,48928,64928,72928,80928,96928,112928,128927,144928,160928,180990,196928
DistanceSpacing: 0.8
BeatDivisor: 4
GridSize: 32
TimelineZoom: 3.099999

[Metadata]
Title:Kimi Ego Search
TitleUnicode:キミヱゴサーチ
Artist:Coconatsu
ArtistUnicode:ここなつ
Creator:Eyenine
Version:Oni
Source:SOUND VOLTEX II -infinite infection-
Tags:electronic japanese sasakure.uk 東雲心菜 shinonome cocona 東雲夏陽 shinonome natsuhi ひなビタ hinabitter ミライプリズム mirai prism sdvx2 hinabita Hinatabi Bitter Sweets 日向美ビタースイーツ ♪
BeatmapID:3837857
BeatmapSetID:1855684

[Difficulty]
HPDrainRate:5
CircleSize:5
OverallDifficulty:6
ApproachRate:8
SliderMultiplier:1.4
SliderTickRate:1

[Events]
//Background and Video events
0,0,"res.jpg",0,0
//Break Periods
//Storyboard Layer 0 (Background)
//Storyboard Layer 1 (Fail)
//Storyboard Layer 2 (Pass)
//Storyboard Layer 3 (Foreground)
//Storyboard Layer 4 (Overlay)
//Storyboard Sound Samples

[TimingPoints]
938,500,4,1,0,60,1,0
12935,-55.555557,4,1,0,85,0,0
12997,-56.258263,4,1,0,85,0,0
13060,-56.981407,4,1,0,85,0,0
13185,-58.44386,4,1,0,85,0,0
13310,-59.943844,4,1,0,85,0,0
13435,-61.482327,4,1,0,85,0,0
13497,-62.260006,4,1,0,85,0,0
13560,-63.0603,4,1,0,85,0,0
13685,-64.678764,4,1,0,85,0,0
13810,-66.33877,4,1,0,85,0,0
13935,-68.04138,4,1,0,85,0,0
14018,-69.195984,4,1,0,85,0,0
14101,-70.37018,4,1,0,85,0,0
14185,-71.57881,4,1,0,85,0,0
14435,-75.30016,4,1,0,85,0,0
14560,-77.23277,4,1,0,85,0,0
14685,-79.21498,4,1,0,85,0,0
14810,-81.24806,4,1,0,85,0,0
14935,-83.33333,4,1,0,85,0,0
15063,-100,4,1,0,20,0,0
16906,-74.0740740740741,4,1,0,80,0,0
32906,-58.8235294117647,4,1,0,90,0,0
46935,-58.82353,4,1,0,90,0,0
47000,-58.82353,4,1,0,80,0,0
47310,-61.910877,4,1,0,80,0,0
47435,-63.188652,4,1,0,80,0,0
47560,-64.4928,4,1,0,80,0,0
47935,-68.56898,4,1,0,80,0,0
48185,-71.42857,4,1,0,80,0,0
48435,-66.666664,4,1,0,100,0,0
48497,-68.98455,4,1,0,100,0,0
48560,-64.612915,4,1,0,100,0,0
48622,-63.617847,4,1,0,100,0,0
48685,-62.62243,4,1,0,100,0,0
48747,-61.65802,4,1,0,100,0,0
48810,-60.69327,4,1,0,100,0,0
48872,-57.155922,4,1,0,100,0,0
48935,-58.82354,4,1,0,100,0,0
49000,-90.9090909090909,4,1,0,80,0,0
52906,-58.8235294117647,4,1,0,85,0,0
56969,-90.9090909090909,4,1,0,80,0,0
60906,-74.0740740740741,4,1,0,85,0,0
60935,-73.7031,4,1,0,85,0,0
61185,-70.92796,4,1,0,85,0,0
61435,-68.35423,4,1,0,85,0,0
61685,-65.96074,4,1,0,85,0,0
61935,-63.729206,4,1,0,85,0,0
62185,-61.64372,4,1,0,85,0,0
62435,-59.690395,4,1,0,85,0,0
62685,-57.857063,4,1,0,85,0,0
62935,-56.132996,4,1,0,85,0,0
63060,-55.30892,4,1,0,85,0,0
63185,-54.508698,4,1,0,85,0,0
63310,-53.7313,4,1,0,85,0,0
63435,-52.975765,4,1,0,85,0,0
63560,-52.24118,4,1,0,85,0,0
63685,-51.52669,4,1,0,85,0,0
63810,-50.831486,4,1,0,85,0,0
63935,-50.15478,4,1,0,85,0,0
63997,-49.825783,4,1,0,85,0,0
64060,-49.495865,4,1,0,85,0,0
64122,-49.175423,4,1,0,85,0,0
64185,-48.854034,4,1,0,85,0,0
64247,-48.541824,4,1,0,85,0,0
64310,-48.22864,4,1,0,85,0,0
64372,-47.924347,4,1,0,85,0,0
64406,-47.6190476190476,4,1,0,50,0,0
64435,-33.3333344999999,4,1,0,50,0,0
64906,-100,4,1,0,70,0,0
72906,-71.4285714285714,4,1,0,90,0,0
80938,-54.054054054054,4,1,0,100,0,1
88938,-54.054054,4,1,0,100,0,0
89310,-57.073067,4,1,0,100,0,0
89435,-58.15577,4,1,0,100,0,0
89685,-60.44927,4,1,0,100,0,0
89935,-62.931095,4,1,0,100,0,0
90060,-64.25002,4,1,0,100,0,0
90185,-65.62543,4,1,0,100,0,0
90310,-67.061005,4,1,0,100,0,0
90435,-68.5608,4,1,0,100,0,0
90518,-69.59428,4,1,0,100,0,0
90601,-70.65939,4,1,0,100,0,0
90685,-71.77105,4,1,0,100,0,0
90768,-72.90438,4,1,0,100,0,0
90851,-74.07407,4,1,0,100,0,0
90938,-54.054054054054,4,1,0,100,0,1
96938,-54.054054054054,4,1,0,100,0,0
97000,-74.0740740740741,4,1,0,90,0,0
110935,-74.07407,4,1,0,90,0,0
111310,-77.192986,4,1,0,70,0,0
111935,-83.01887,4,1,0,70,0,0
112310,-86.95652,4,1,0,70,0,0
112906,-86.9565217391304,4,1,0,70,0,0
124906,-74.0740740740741,4,1,0,85,0,0
124935,-71.42857,4,1,0,85,0,0
125060,-70.851845,4,1,0,85,0,0
125185,-70.27978,4,1,0,85,0,0
125310,-69.712326,4,1,0,85,0,0
125435,-69.14946,4,1,0,85,0,0
125685,-68.03732,4,1,0,85,0,0
125810,-67.487976,4,1,0,85,0,0
125935,-66.94307,4,1,0,85,0,0
126060,-66.402565,4,1,0,85,0,0
126185,-65.86642,4,1,0,85,0,0
126310,-65.3346,4,1,0,85,0,0
126435,-64.80709,4,1,0,85,0,0
126685,-63.764782,4,1,0,85,0,0
126810,-63.24994,4,1,0,85,0,0
126935,-62.73925,4,1,0,85,0,0
127060,-62.23269,4,1,0,85,0,0
127185,-61.730213,4,1,0,85,0,0
127310,-61.231792,4,1,0,85,0,0
127435,-60.7374,4,1,0,85,0,0
127685,-59.760548,4,1,0,85,0,0
127810,-59.27803,4,1,0,85,0,0
127935,-58.79942,4,1,0,85,0,0
128060,-58.32466,4,1,0,85,0,0
128185,-57.85374,4,1,0,85,0,0
128310,-57.38662,4,1,0,85,0,0
128435,-56.92328,4,1,0,85,0,0
128560,-56.46367,4,1,0,85,0,0
128685,-56.007774,4,1,0,85,0,0
128810,-55.555557,4,1,0,85,0,0
128906,-90.9090909090909,4,1,0,80,0,0
132906,-62.5,4,1,0,85,0,0
136969,-90.9090909090909,4,1,0,80,0,0
140906,-74.0740740740741,4,1,0,90,0,0
140935,-74.07407,4,1,0,90,0,0
141185,-71.77284,4,1,0,90,0,0
141435,-69.5431,4,1,0,90,0,0
141685,-67.38263,4,1,0,90,0,0
141935,-65.28927,4,1,0,90,0,0
142185,-63.26095,4,1,0,90,0,0
142435,-61.29564,4,1,0,90,0,0
142685,-59.391384,4,1,0,90,0,0
142935,-57.54629,4,1,0,90,0,0
143060,-56.645355,4,1,0,90,0,0
143185,-55.75853,4,1,0,90,0,0
143310,-54.88558,4,1,0,90,0,0
143435,-54.026295,4,1,0,90,0,0
143560,-53.180458,4,1,0,90,0,0
143685,-52.347874,4,1,0,90,0,0
143810,-51.528324,4,1,0,90,0,0
143935,-50.721603,4,1,0,90,0,0
143997,-50.326168,4,1,0,90,0,0
144060,-49.927505,4,1,0,90,0,0
144122,-49.538265,4,1,0,90,0,0
144185,-49.145844,4,1,0,90,0,0
144247,-48.7627,4,1,0,90,0,0
144310,-48.376427,4,1,0,90,0,0
144372,-47.999275,4,1,0,90,0,0
144406,-47.6190476190476,4,1,0,50,0,0
144435,-33.3333344999999,4,1,0,50,0,0
144906,-100,4,1,0,70,0,0
152906,-47.6190476190476,4,1,0,90,0,0
154906,-71.4285714285714,4,1,0,85,0,0
160938,-54.054054054054,4,1,0,100,0,1
168938,-54.054054,4,1,0,100,0,0
169310,-57.073067,4,1,0,100,0,0
169435,-58.15577,4,1,0,100,0,0
169685,-60.44927,4,1,0,100,0,0
169935,-62.931095,4,1,0,100,0,0
170060,-64.25002,4,1,0,100,0,0
170185,-65.62543,4,1,0,100,0,0
170310,-67.061005,4,1,0,100,0,0
170435,-68.5608,4,1,0,100,0,0
170518,-69.59428,4,1,0,100,0,0
170601,-70.65939,4,1,0,100,0,0
170685,-71.77105,4,1,0,100,0,0
170768,-72.90438,4,1,0,100,0,0
170851,-74.07407,4,1,0,100,0,0
170938,-54.054054054054,4,1,0,100,0,1
176938,-54.054054054054,4,1,0,80,0,0
177185,-60.60606,4,1,0,80,0,0
177435,-62.176167,4,1,0,80,0,0
177685,-63.829784,4,1,0,80,0,0
178185,-67.41573,4,1,0,80,0,0
178435,-69.36416,4,1,0,80,0,0
178685,-71.42857,4,1,0,80,0,0
178935,-73.61963,4,1,0,80,0,0
179185,-75.94936,4,1,0,80,0,0
179435,-78.43137,4,1,0,80,0,0
179685,-81.08108,4,1,0,80,0,0
180185,-86.95652,4,1,0,80,0,0
180435,-71.42857,4,1,0,80,0,0
180497,-72.28219,4,1,0,80,0,0
180560,-73.17073,4,1,0,80,0,0
180622,-74.06676,4,1,0,80,0,0
180685,-75,4,1,0,80,0,0
180747,-75.94167,4,1,0,80,0,0
180810,-76.92308,4,1,0,80,0,0
180906,-74.0740740740741,4,1,0,80,0,0
180938,-74.0740740740741,4,1,0,80,0,0
196906,-58.8235294117647,4,1,0,90,0,0
210935,-58.82353,4,1,0,70,0,0
211310,-63.400574,4,1,0,70,0,0
211935,-72.84768,4,1,0,70,0,0
212310,-80,4,1,0,70,0,0

[HitObjects]
160,128,938,5,0,0:0:0:0:
352,128,1313,1,8,0:0:0:0:
160,128,1563,1,0,0:0:0:0:
352,128,1688,1,8,0:0:0:0:
352,128,1813,1,8,0:0:0:0:
160,128,1938,1,0,0:0:0:0:
160,128,2063,1,0,0:0:0:0:
160,128,2313,1,0,0:0:0:0:
160,128,2563,1,0,0:0:0:0:
352,128,2688,1,8,0:0:0:0:
352,128,2938,1,8,0:0:0:0:
352,128,3313,1,8,0:0:0:0:
160,128,3563,1,0,0:0:0:0:
352,128,3688,1,8,0:0:0:0:
352,128,3813,1,8,0:0:0:0:
352,128,3938,1,8,0:0:0:0:
160,128,4063,1,0,0:0:0:0:
352,128,4313,1,8,0:0:0:0:
352,128,4563,1,8,0:0:0:0:
160,128,4688,1,0,0:0:0:0:
160,128,4938,1,0,0:0:0:0:
352,128,5313,1,8,0:0:0:0:
160,128,5563,1,0,0:0:0:0:
352,128,5688,1,8,0:0:0:0:
352,128,5813,1,8,0:0:0:0:
160,128,5938,1,0,0:0:0:0:
160,128,6063,1,0,0:0:0:0:
160,128,6313,1,0,0:0:0:0:
160,128,6563,1,0,0:0:0:0:
352,128,6688,1,8,0:0:0:0:
352,128,6938,1,8,0:0:0:0:
352,128,7313,1,8,0:0:0:0:
160,128,7688,1,0,0:0:0:0:
352,128,7813,1,8,0:0:0:0:
352,128,7875,1,8,0:0:0:0:
352,128,7938,1,8,0:0:0:0:
160,128,8063,1,0,0:0:0:0:
352,128,8188,1,8,0:0:0:0:
352,128,8313,1,8,0:0:0:0:
160,128,8563,1,0,0:0:0:0:
352,128,8688,1,8,0:0:0:0:
160,128,8938,1,0,0:0:0:0:
352,128,9313,1,8,0:0:0:0:
160,128,9563,1,0,0:0:0:0:
352,128,9688,1,8,0:0:0:0:
352,128,9813,1,8,0:0:0:0:
160,128,9938,1,0,0:0:0:0:
160,128,10063,1,0,0:0:0:0:
160,128,10313,1,0,0:0:0:0:
352,128,10563,1,8,0:0:0:0:
160,128,10688,1,0,0:0:0:0:
160,128,10938,1,0,0:0:0:0:
352,128,11313,1,8,0:0:0:0:
160,128,11563,1,0,0:0:0:0:
352,128,11688,1,8,0:0:0:0:
352,128,11813,1,8,0:0:0:0:
352,128,11938,1,8,0:0:0:0:
160,128,12063,1,0,0:0:0:0:
352,128,12313,1,8,0:0:0:0:
352,128,12563,1,8,0:0:0:0:
160,128,12688,1,0,0:0:0:0:
352,128,12938,1,8,0:0:0:0:
352,128,13000,1,8,0:0:0:0:
352,128,13063,1,8,0:0:0:0:
160,128,13188,1,0,0:0:0:0:
160,128,13313,1,0,0:0:0:0:
352,128,13438,1,8,0:0:0:0:
352,128,13500,1,8,0:0:0:0:
160,128,13563,1,0,0:0:0:0:
352,128,13688,1,8,0:0:0:0:
160,128,13813,1,0,0:0:0:0:
352,128,13938,1,8,0:0:0:0:
352,128,14021,1,8,0:0:0:0:
352,128,14104,1,8,0:0:0:0:
160,128,14188,1,0,0:0:0:0:
352,128,14438,1,8,0:0:0:0:
352,128,14563,1,8,0:0:0:0:
160,128,14688,1,0,0:0:0:0:
160,128,14813,1,0,0:0:0:0:
352,256,14938,1,12,0:0:0:0:
160,256,16938,1,4,0:0:0:0:
160,128,17313,1,0,0:0:0:0:
352,128,17563,1,8,0:0:0:0:
352,128,17688,1,8,0:0:0:0:
160,128,17813,1,0,0:0:0:0:
352,128,17938,1,8,0:0:0:0:
160,128,18063,1,0,0:0:0:0:
160,128,18188,1,0,0:0:0:0:
352,128,18313,1,8,0:0:0:0:
160,128,18563,1,0,0:0:0:0:
160,128,18688,1,0,0:0:0:0:
352,128,18938,1,8,0:0:0:0:
160,128,19313,1,0,0:0:0:0:
352,128,19563,1,8,0:0:0:0:
160,128,19688,1,0,0:0:0:0:
160,128,19813,1,0,0:0:0:0:
352,128,19938,1,8,0:0:0:0:
352,128,20000,1,8,0:0:0:0:
352,128,20063,1,8,0:0:0:0:
160,128,20188,1,0,0:0:0:0:
352,128,20313,1,8,0:0:0:0:
352,128,20563,1,8,0:0:0:0:
352,128,20688,1,8,0:0:0:0:
160,128,20938,1,0,0:0:0:0:
160,128,21313,1,0,0:0:0:0:
352,128,21563,1,8,0:0:0:0:
352,128,21688,1,8,0:0:0:0:
160,128,21813,1,0,0:0:0:0:
352,128,21938,1,8,0:0:0:0:
160,128,22063,1,0,0:0:0:0:
160,128,22188,1,0,0:0:0:0:
352,128,22313,1,8,0:0:0:0:
160,128,22563,1,0,0:0:0:0:
160,128,22688,1,0,0:0:0:0:
352,128,22938,1,8,0:0:0:0:
160,128,23313,1,0,0:0:0:0:
160,128,23813,1,0,0:0:0:0:
160,128,23875,1,0,0:0:0:0:
352,128,23938,1,8,0:0:0:0:
352,128,24063,1,8,0:0:0:0:
160,128,24188,1,0,0:0:0:0:
352,128,24313,1,8,0:0:0:0:
160,128,24563,1,0,0:0:0:0:
352,128,24688,1,8,0:0:0:0:
160,256,24938,1,4,0:0:0:0:
160,128,25313,1,0,0:0:0:0:
352,128,25563,1,8,0:0:0:0:
352,128,25688,1,8,0:0:0:0:
160,128,25813,1,0,0:0:0:0:
352,128,25938,1,8,0:0:0:0:
160,128,26063,1,0,0:0:0:0:
160,128,26188,1,0,0:0:0:0:
352,128,26313,1,8,0:0:0:0:
160,128,26563,1,0,0:0:0:0:
160,128,26688,1,0,0:0:0:0:
352,128,26938,1,8,0:0:0:0:
160,128,27313,1,0,0:0:0:0:
352,128,27563,1,8,0:0:0:0:
160,128,27688,1,0,0:0:0:0:
160,128,27813,1,0,0:0:0:0:
352,128,27938,1,8,0:0:0:0:
352,128,28000,1,8,0:0:0:0:
352,128,28063,1,8,0:0:0:0:
160,128,28188,1,0,0:0:0:0:
352,128,28313,1,8,0:0:0:0:
352,128,28563,1,8,0:0:0:0:
352,128,28688,1,8,0:0:0:0:
160,128,28938,1,0,0:0:0:0:
160,128,29313,1,0,0:0:0:0:
352,128,29563,1,8,0:0:0:0:
352,128,29688,1,8,0:0:0:0:
160,128,29813,5,0,0:0:0:0:
352,128,29938,1,8,0:0:0:0:
160,128,30063,1,0,0:0:0:0:
160,128,30188,1,0,0:0:0:0:
352,128,30313,1,8,0:0:0:0:
160,128,30563,1,0,0:0:0:0:
160,128,30688,1,0,0:0:0:0:
352,128,30938,5,8,0:0:0:0:
160,128,31063,1,0,0:0:0:0:
352,128,31188,1,8,0:0:0:0:
160,128,31313,1,0,0:0:0:0:
352,128,31438,1,8,0:0:0:0:
352,128,31521,1,8,0:0:0:0:
352,128,31604,1,8,0:0:0:0:
160,128,31688,1,0,0:0:0:0:
352,128,31813,1,8,0:0:0:0:
160,128,31938,1,0,0:0:0:0:
160,128,32000,1,0,0:0:0:0:
160,128,32063,1,0,0:0:0:0:
160,128,32188,1,0,0:0:0:0:
160,128,32313,1,0,0:0:0:0:
352,128,32438,1,8,0:0:0:0:
160,256,32938,1,4,0:0:0:0:
160,128,33188,1,0,0:0:0:0:
352,128,33438,1,8,0:0:0:0:
160,128,33563,1,0,0:0:0:0:
352,128,33688,1,8,0:0:0:0:
352,128,33813,1,8,0:0:0:0:
160,128,33938,1,0,0:0:0:0:
352,128,34063,1,8,0:0:0:0:
352,128,34313,1,8,0:0:0:0:
160,128,34438,1,0,0:0:0:0:
160,128,34563,1,0,0:0:0:0:
352,128,34688,1,8,0:0:0:0:
160,128,34938,1,0,0:0:0:0:
160,128,35188,1,0,0:0:0:0:
352,128,35438,1,8,0:0:0:0:
160,128,35563,1,0,0:0:0:0:
160,128,35688,1,0,0:0:0:0:
352,128,35813,1,8,0:0:0:0:
352,128,36063,1,8,0:0:0:0:
160,128,36188,1,0,0:0:0:0:
160,128,36313,1,0,0:0:0:0:
352,128,36438,1,8,0:0:0:0:
160,128,36563,1,0,0:0:0:0:
352,128,36688,1,8,0:0:0:0:
160,128,36938,1,0,0:0:0:0:
352,128,37188,1,8,0:0:0:0:
160,128,37313,1,0,0:0:0:0:
160,128,37438,1,0,0:0:0:0:
352,128,37563,1,8,0:0:0:0:
160,128,37813,1,0,0:0:0:0:
352,128,37938,1,8,0:0:0:0:
160,128,38063,1,0,0:0:0:0:
352,128,38188,1,8,0:0:0:0:
160,128,38313,1,0,0:0:0:0:
160,128,38438,1,0,0:0:0:0:
352,128,38563,1,8,0:0:0:0:
352,128,38688,1,8,0:0:0:0:
160,128,38938,1,0,0:0:0:0:
160,128,39063,1,0,0:0:0:0:
352,128,39188,1,8,0:0:0:0:
352,128,39438,1,8,0:0:0:0:
160,128,39563,1,0,0:0:0:0:
352,128,39687,1,8,0:0:0:0:
160,128,39812,1,0,0:0:0:0:
160,128,39875,1,0,0:0:0:0:
352,128,39938,1,8,0:0:0:0:
352,128,40063,1,8,0:0:0:0:
160,128,40188,1,0,0:0:0:0:
160,128,40313,1,0,0:0:0:0:
352,128,40438,1,8,0:0:0:0:
160,128,40563,1,0,0:0:0:0:
352,128,40688,1,8,0:0:0:0:
160,256,40938,1,4,0:0:0:0:
352,128,41188,1,8,0:0:0:0:
160,128,41313,1,0,0:0:0:0:
352,128,41438,1,8,0:0:0:0:
352,128,41688,1,8,0:0:0:0:
352,128,41813,1,8,0:0:0:0:
160,128,41938,1,0,0:0:0:0:
160,128,42063,1,0,0:0:0:0:
352,128,42188,1,8,0:0:0:0:
160,128,42313,1,0,0:0:0:0:
160,128,42563,1,0,0:0:0:0:
352,128,42688,1,8,0:0:0:0:
352,128,42813,1,8,0:0:0:0:
160,128,43063,1,0,0:0:0:0:
352,128,43188,1,8,0:0:0:0:
352,128,43438,1,8,0:0:0:0:
160,128,43563,1,0,0:0:0:0:
160,128,43688,1,0,0:0:0:0:
352,128,43813,1,8,0:0:0:0:
160,128,43938,1,0,0:0:0:0:
352,128,44063,1,8,0:0:0:0:
352,128,44188,1,8,0:0:0:0:
160,128,44313,1,0,0:0:0:0:
352,128,44438,1,8,0:0:0:0:
160,128,44563,1,0,0:0:0:0:
352,128,44688,1,8,0:0:0:0:
352,128,44813,1,8,0:0:0:0:
160,128,45063,1,0,0:0:0:0:
352,128,45188,1,8,0:0:0:0:
160,128,45313,1,0,0:0:0:0:
352,128,45438,1,8,0:0:0:0:
352,128,45563,1,8,0:0:0:0:
160,128,45813,1,0,0:0:0:0:
352,128,45938,1,8,0:0:0:0:
160,128,46063,1,0,0:0:0:0:
352,128,46188,1,8,0:0:0:0:
352,128,46313,1,8,0:0:0:0:
160,128,46438,1,0,0:0:0:0:
160,128,46563,1,0,0:0:0:0:
352,128,46688,1,8,0:0:0:0:
352,128,46813,1,8,0:0:0:0:
160,256,46938,1,4,0:0:0:0:
160,128,47313,1,0,0:0:0:0:
352,128,47438,1,8,0:0:0:0:
352,128,47563,1,8,0:0:0:0:
160,128,47938,1,0,0:0:0:0:
160,128,48188,1,0,0:0:0:0:
160,128,48438,1,0,0:0:0:0:
160,128,48563,1,0,0:0:0:0:
160,128,48625,1,0,0:0:0:0:
352,128,48688,1,8,0:0:0:0:
352,128,48750,1,8,0:0:0:0:
352,128,48813,1,8,0:0:0:0:
160,256,48938,1,4,0:0:0:0:
352,128,49313,1,8,0:0:0:0:
160,128,49438,1,0,0:0:0:0:
352,128,49688,1,8,0:0:0:0:
160,128,50188,1,0,0:0:0:0:
352,128,50438,1,8,0:0:0:0:
160,128,50688,1,0,0:0:0:0:
160,128,50938,1,0,0:0:0:0:
352,128,51313,1,8,0:0:0:0:
352,128,51438,1,8,0:0:0:0:
160,128,51688,1,0,0:0:0:0:
352,128,52188,1,8,0:0:0:0:
160,128,52438,1,0,0:0:0:0:
160,128,52688,1,0,0:0:0:0:
160,256,52938,1,4,0:0:0:0:
352,128,53188,1,8,0:0:0:0:
160,128,53354,1,0,0:0:0:0:
352,128,53438,1,8,0:0:0:0:
160,128,53604,1,0,0:0:0:0:
160,128,53688,1,0,0:0:0:0:
160,128,53938,1,0,0:0:0:0:
352,128,54188,1,8,0:0:0:0:
160,128,54354,1,0,0:0:0:0:
352,128,54438,1,8,0:0:0:0:
160,128,54604,1,0,0:0:0:0:
160,128,54688,1,0,0:0:0:0:
160,128,54938,1,0,0:0:0:0:
352,128,55188,1,8,0:0:0:0:
160,128,55354,1,0,0:0:0:0:
352,128,55438,1,8,0:0:0:0:
160,128,55604,1,0,0:0:0:0:
160,128,55688,1,0,0:0:0:0:
352,128,55938,1,8,0:0:0:0:
352,128,56188,1,8,0:0:0:0:
160,128,56354,1,0,0:0:0:0:
352,128,56438,1,8,0:0:0:0:
160,128,56604,1,0,0:0:0:0:
352,128,56688,1,8,0:0:0:0:
160,256,56938,1,4,0:0:0:0:
352,128,57313,1,8,0:0:0:0:
160,128,57438,1,0,0:0:0:0:
352,128,57688,1,8,0:0:0:0:
160,128,58188,1,0,0:0:0:0:
352,128,58438,1,8,0:0:0:0:
160,128,58688,1,0,0:0:0:0:
352,128,58938,1,8,0:0:0:0:
352,128,59188,1,8,0:0:0:0:
352,128,59438,1,8,0:0:0:0:
160,128,59688,1,0,0:0:0:0:
160,128,60188,1,0,0:0:0:0:
352,128,60438,1,8,0:0:0:0:
352,128,60688,1,8,0:0:0:0:
160,256,60938,1,4,0:0:0:0:
160,128,61188,1,0,0:0:0:0:
160,128,61438,1,0,0:0:0:0:
160,128,61688,1,0,0:0:0:0:
352,128,61938,1,8,0:0:0:0:
352,128,62188,1,8,0:0:0:0:
352,128,62438,1,8,0:0:0:0:
352,128,62688,1,8,0:0:0:0:
160,128,62938,1,0,0:0:0:0:
160,128,63063,1,0,0:0:0:0:
160,128,63188,1,0,0:0:0:0:
160,128,63313,1,0,0:0:0:0:
352,128,63438,1,8,0:0:0:0:
352,128,63563,1,8,0:0:0:0:
352,128,63688,1,8,0:0:0:0:
352,128,63813,1,8,0:0:0:0:
160,128,63938,1,0,0:0:0:0:
160,128,64000,1,0,0:0:0:0:
160,128,64063,1,0,0:0:0:0:
160,128,64125,1,0,0:0:0:0:
352,128,64188,1,8,0:0:0:0:
352,128,64250,1,8,0:0:0:0:
352,128,64313,1,8,0:0:0:0:
160,256,64938,5,4,0:0:0:0:
352,128,65313,1,8,0:0:0:0:
352,128,65688,1,8,0:0:0:0:
160,128,66188,1,0,0:0:0:0:
352,128,66688,1,8,0:0:0:0:
160,128,66938,1,0,0:0:0:0:
352,128,67063,1,8,0:0:0:0:
160,128,67313,1,0,0:0:0:0:
352,128,67688,1,8,0:0:0:0:
352,128,67938,1,8,0:0:0:0:
352,128,68063,1,8,0:0:0:0:
160,128,68313,1,0,0:0:0:0:
160,128,68938,1,0,0:0:0:0:
352,128,69313,1,8,0:0:0:0:
352,128,69688,1,8,0:0:0:0:
160,128,70188,1,0,0:0:0:0:
352,128,70688,1,8,0:0:0:0:
160,128,70938,1,0,0:0:0:0:
352,128,71063,1,8,0:0:0:0:
160,128,71313,1,0,0:0:0:0:
352,128,71688,1,8,0:0:0:0:
352,128,71938,1,8,0:0:0:0:
160,128,72188,1,0,0:0:0:0:
160,128,72313,1,0,0:0:0:0:
352,256,72938,1,12,0:0:0:0:
160,128,73188,1,0,0:0:0:0:
160,128,73313,1,0,0:0:0:0:
352,128,73438,1,8,0:0:0:0:
352,128,73688,1,8,0:0:0:0:
160,128,73938,1,0,0:0:0:0:
352,128,74188,1,8,0:0:0:0:
160,128,74313,1,0,0:0:0:0:
352,128,74438,1,8,0:0:0:0:
160,128,74688,1,0,0:0:0:0:
352,128,74938,1,8,0:0:0:0:
352,128,75063,1,8,0:0:0:0:
160,128,75188,1,0,0:0:0:0:
160,128,75313,1,0,0:0:0:0:
352,128,75438,1,8,0:0:0:0:
160,128,75688,1,0,0:0:0:0:
352,128,75938,1,8,0:0:0:0:
352,128,76063,1,8,0:0:0:0:
160,128,76188,1,0,0:0:0:0:
160,128,76313,1,0,0:0:0:0:
352,128,76438,1,8,0:0:0:0:
160,128,76688,1,0,0:0:0:0:
352,128,76813,1,8,0:0:0:0:
160,128,76938,1,0,0:0:0:0:
160,128,77188,1,0,0:0:0:0:
160,128,77313,1,0,0:0:0:0:
352,128,77438,1,8,0:0:0:0:
352,128,77688,1,8,0:0:0:0:
160,128,77938,1,0,0:0:0:0:
160,128,78188,1,0,0:0:0:0:
160,128,78313,1,0,0:0:0:0:
352,128,78438,1,8,0:0:0:0:
352,128,78688,1,8,0:0:0:0:
160,128,78938,1,0,0:0:0:0:
352,128,79063,1,8,0:0:0:0:
352,128,79188,1,8,0:0:0:0:
160,128,79313,1,0,0:0:0:0:
352,128,79438,1,8,0:0:0:0:
352,128,79521,1,8,0:0:0:0:
352,128,79604,1,8,0:0:0:0:
160,128,79688,1,0,0:0:0:0:
352,128,79813,1,8,0:0:0:0:
160,128,79938,1,0,0:0:0:0:
160,128,80000,1,0,0:0:0:0:
352,128,80063,1,8,0:0:0:0:
160,128,80188,1,0,0:0:0:0:
352,128,80438,1,8,0:0:0:0:
352,128,80521,1,8,0:0:0:0:
352,128,80604,1,8,0:0:0:0:
160,128,80688,1,0,0:0:0:0:
160,256,80938,1,4,0:0:0:0:
352,128,81188,1,8,0:0:0:0:
160,128,81313,1,0,0:0:0:0:
160,128,81375,1,0,0:0:0:0:
352,128,81438,1,8,0:0:0:0:
160,128,81563,1,0,0:0:0:0:
352,128,81688,1,8,0:0:0:0:
352,128,81813,1,8,0:0:0:0:
160,128,81938,1,0,0:0:0:0:
352,128,82188,1,8,0:0:0:0:
160,128,82313,1,0,0:0:0:0:
160,128,82563,1,0,0:0:0:0:
352,128,82688,1,8,0:0:0:0:
160,128,82938,1,0,0:0:0:0:
160,128,83063,1,0,0:0:0:0:
160,128,83125,1,0,0:0:0:0:
352,128,83188,1,8,0:0:0:0:
160,128,83313,1,0,0:0:0:0:
160,128,83563,1,0,0:0:0:0:
352,128,83688,1,8,0:0:0:0:
160,128,83938,1,0,0:0:0:0:
352,128,84063,1,8,0:0:0:0:
352,128,84125,1,8,0:0:0:0:
160,128,84188,1,0,0:0:0:0:
352,128,84313,1,8,0:0:0:0:
160,128,84438,1,0,0:0:0:0:
160,128,84563,1,0,0:0:0:0:
352,128,84688,1,8,0:0:0:0:
160,128,84938,1,0,0:0:0:0:
352,128,85188,1,8,0:0:0:0:
160,128,85313,1,0,0:0:0:0:
160,128,85375,1,0,0:0:0:0:
352,128,85438,1,8,0:0:0:0:
160,128,85563,1,0,0:0:0:0:
352,128,85688,1,8,0:0:0:0:
352,128,85813,1,8,0:0:0:0:
160,128,85938,1,0,0:0:0:0:
352,128,86188,1,8,0:0:0:0:
160,128,86313,1,0,0:0:0:0:
160,128,86563,1,0,0:0:0:0:
352,128,86688,1,8,0:0:0:0:
160,128,86938,1,0,0:0:0:0:
160,128,87063,1,0,0:0:0:0:
160,128,87125,1,0,0:0:0:0:
352,128,87188,1,8,0:0:0:0:
160,128,87313,1,0,0:0:0:0:
160,128,87563,1,0,0:0:0:0:
352,128,87688,1,8,0:0:0:0:
160,128,87938,1,0,0:0:0:0:
352,128,88063,1,8,0:0:0:0:
352,128,88125,1,8,0:0:0:0:
160,128,88188,1,0,0:0:0:0:
352,128,88313,1,8,0:0:0:0:
160,128,88563,1,0,0:0:0:0:
352,128,88688,1,8,0:0:0:0:
160,128,88938,1,0,0:0:0:0:
160,128,89313,1,0,0:0:0:0:
352,128,89438,1,8,0:0:0:0:
352,128,89688,1,8,0:0:0:0:
160,128,89938,1,0,0:0:0:0:
352,128,90188,1,8,0:0:0:0:
352,128,90313,1,8,0:0:0:0:
160,128,90438,1,0,0:0:0:0:
160,128,90521,1,0,0:0:0:0:
160,128,90604,1,0,0:0:0:0:
352,128,90688,1,8,0:0:0:0:
160,256,90938,1,4,0:0:0:0:
352,128,91188,1,8,0:0:0:0:
160,128,91313,1,0,0:0:0:0:
160,128,91375,1,0,0:0:0:0:
352,128,91438,1,8,0:0:0:0:
160,128,91563,1,0,0:0:0:0:
352,128,91688,1,8,0:0:0:0:
352,128,91813,1,8,0:0:0:0:
160,128,91938,1,0,0:0:0:0:
352,128,92188,1,8,0:0:0:0:
160,128,92313,1,0,0:0:0:0:
352,128,92438,1,8,0:0:0:0:
160,128,92563,1,0,0:0:0:0:
160,128,92625,1,0,0:0:0:0:
352,128,92688,1,8,0:0:0:0:
352,128,92813,1,8,0:0:0:0:
160,128,92938,1,0,0:0:0:0:
352,128,93188,1,8,0:0:0:0:
160,128,93313,1,0,0:0:0:0:
352,128,93438,1,8,0:0:0:0:
352,128,93688,1,8,0:0:0:0:
352,128,93813,1,8,0:0:0:0:
160,128,93938,1,0,0:0:0:0:
160,128,94063,1,0,0:0:0:0:
352,128,94188,1,8,0:0:0:0:
160,128,94313,1,0,0:0:0:0:
352,128,94438,1,8,0:0:0:0:
352,128,94688,1,8,0:0:0:0:
352,128,94813,1,8,0:0:0:0:
160,128,94938,1,0,0:0:0:0:
352,128,95063,1,8,0:0:0:0:
160,128,95125,1,0,0:0:0:0:
352,128,95188,1,8,0:0:0:0:
160,128,95313,1,0,0:0:0:0:
352,128,95438,1,8,0:0:0:0:
160,128,95563,1,0,0:0:0:0:
352,128,95688,1,8,0:0:0:0:
352,128,95813,1,8,0:0:0:0:
160,128,95938,1,0,0:0:0:0:
352,128,96188,1,8,0:0:0:0:
160,128,96313,1,0,0:0:0:0:
352,128,96438,1,8,0:0:0:0:
352,128,96500,1,8,0:0:0:0:
160,128,96563,1,0,0:0:0:0:
160,128,96625,1,0,0:0:0:0:
160,128,96688,1,0,0:0:0:0:
160,256,96938,1,4,0:0:0:0:
352,128,97188,1,8,0:0:0:0:
160,128,97313,1,0,0:0:0:0:
352,128,97563,1,8,0:0:0:0:
352,128,97688,1,8,0:0:0:0:
160,128,97813,1,0,0:0:0:0:
352,128,97938,1,8,0:0:0:0:
160,128,98063,1,0,0:0:0:0:
160,128,98188,1,0,0:0:0:0:
352,128,98313,1,8,0:0:0:0:
160,128,98563,1,0,0:0:0:0:
160,128,98688,1,0,0:0:0:0:
352,128,98938,1,8,0:0:0:0:
160,128,99188,1,0,0:0:0:0:
160,128,99313,1,0,0:0:0:0:
352,128,99563,1,8,0:0:0:0:
352,128,99688,1,8,0:0:0:0:
160,128,99813,1,0,0:0:0:0:
352,128,99938,1,8,0:0:0:0:
352,128,100063,1,8,0:0:0:0:
160,128,100188,1,0,0:0:0:0:
352,128,100313,1,8,0:0:0:0:
160,128,100563,1,0,0:0:0:0:
352,128,100688,1,8,0:0:0:0:
160,128,100938,1,0,0:0:0:0:
352,128,101188,1,8,0:0:0:0:
160,128,101313,1,0,0:0:0:0:
352,128,101563,1,8,0:0:0:0:
160,128,101688,1,0,0:0:0:0:
160,128,101813,1,0,0:0:0:0:
352,128,101938,1,8,0:0:0:0:
352,128,102000,5,8,0:0:0:0:
352,128,102063,1,8,0:0:0:0:
160,128,102188,1,0,0:0:0:0:
352,128,102313,1,8,0:0:0:0:
160,128,102438,1,0,0:0:0:0:
352,128,102563,1,8,0:0:0:0:
352,128,102688,1,8,0:0:0:0:
352,128,102938,1,8,0:0:0:0:
160,128,103188,1,0,0:0:0:0:
160,128,103313,1,0,0:0:0:0:
160,128,103563,1,0,0:0:0:0:
352,128,103688,1,8,0:0:0:0:
160,128,103813,1,0,0:0:0:0:
160,128,103875,1,0,0:0:0:0:
352,128,103938,1,8,0:0:0:0:
352,128,104063,1,8,0:0:0:0:
160,128,104188,1,0,0:0:0:0:
352,128,104313,1,8,0:0:0:0:
160,128,104563,1,0,0:0:0:0:
352,128,104688,1,8,0:0:0:0:
160,256,104938,1,4,0:0:0:0:
352,128,105188,1,8,0:0:0:0:
160,128,105313,1,0,0:0:0:0:
352,128,105563,1,8,0:0:0:0:
352,128,105688,1,8,0:0:0:0:
160,128,105813,1,0,0:0:0:0:
352,128,105938,1,8,0:0:0:0:
160,128,106063,1,0,0:0:0:0:
160,128,106188,1,0,0:0:0:0:
352,128,106313,1,8,0:0:0:0:
160,128,106563,1,0,0:0:0:0:
160,128,106688,1,0,0:0:0:0:
352,128,106938,1,8,0:0:0:0:
160,128,107188,1,0,0:0:0:0:
160,128,107313,1,0,0:0:0:0:
352,128,107563,1,8,0:0:0:0:
352,128,107688,1,8,0:0:0:0:
160,128,107813,1,0,0:0:0:0:
352,128,107938,1,8,0:0:0:0:
352,128,108063,1,8,0:0:0:0:
160,128,108188,1,0,0:0:0:0:
352,128,108313,1,8,0:0:0:0:
160,128,108563,1,0,0:0:0:0:
352,128,108688,1,8,0:0:0:0:
160,128,108938,1,0,0:0:0:0:
352,128,109188,1,8,0:0:0:0:
160,128,109313,1,0,0:0:0:0:
352,128,109563,1,8,0:0:0:0:
160,128,109688,1,0,0:0:0:0:
160,128,109813,5,0,0:0:0:0:
352,128,109938,1,8,0:0:0:0:
352,128,110000,1,8,0:0:0:0:
352,128,110063,1,8,0:0:0:0:
160,128,110188,1,0,0:0:0:0:
352,128,110313,1,8,0:0:0:0:
160,128,110438,1,0,0:0:0:0:
352,128,110563,1,8,0:0:0:0:
352,128,110688,1,8,0:0:0:0:
160,256,110938,1,4,0:0:0:0:
160,128,111313,1,0,0:0:0:0:
160,128,111938,1,0,0:0:0:0:
160,128,112313,1,0,0:0:0:0:
160,256,112938,1,4,0:0:0:0:
160,128,113438,1,0,0:0:0:0:
352,128,113688,1,8,0:0:0:0:
160,128,113938,1,0,0:0:0:0:
352,128,114313,1,8,0:0:0:0:
160,128,114438,1,0,0:0:0:0:
160,128,114938,1,0,0:0:0:0:
352,128,115313,1,8,0:0:0:0:
160,128,115438,1,0,0:0:0:0:
352,128,115688,1,8,0:0:0:0:
160,128,115938,1,0,0:0:0:0:
352,128,116188,1,8,0:0:0:0:
160,128,116438,1,0,0:0:0:0:
160,128,116938,1,0,0:0:0:0:
352,128,117313,1,8,0:0:0:0:
160,128,117438,1,0,0:0:0:0:
352,128,117688,1,8,0:0:0:0:
160,128,117938,1,0,0:0:0:0:
352,128,118313,1,8,0:0:0:0:
160,128,118438,1,0,0:0:0:0:
160,128,118938,1,0,0:0:0:0:
352,128,119313,1,8,0:0:0:0:
160,128,119438,1,0,0:0:0:0:
352,128,119688,1,8,0:0:0:0:
160,128,119938,1,0,0:0:0:0:
352,128,120188,1,8,0:0:0:0:
160,128,120438,1,0,0:0:0:0:
160,256,120938,1,4,0:0:0:0:
160,128,121438,1,0,0:0:0:0:
352,128,121688,1,8,0:0:0:0:
160,128,121938,1,0,0:0:0:0:
352,128,122188,1,8,0:0:0:0:
352,128,122313,1,8,0:0:0:0:
352,128,122688,1,8,0:0:0:0:
160,128,122938,1,0,0:0:0:0:
352,128,123188,1,8,0:0:0:0:
352,128,123438,1,8,0:0:0:0:
160,128,123688,1,0,0:0:0:0:
352,128,124188,1,8,0:0:0:0:
352,128,124688,1,8,0:0:0:0:
160,128,124938,1,0,0:0:0:0:
352,128,125188,1,8,0:0:0:0:
160,128,125313,1,0,0:0:0:0:
352,128,125438,1,8,0:0:0:0:
352,128,125688,1,8,0:0:0:0:
160,128,125938,1,0,0:0:0:0:
352,128,126063,1,8,0:0:0:0:
160,128,126188,1,0,0:0:0:0:
160,128,126313,1,0,0:0:0:0:
352,128,126438,1,8,0:0:0:0:
352,128,126688,1,8,0:0:0:0:
160,128,126938,1,0,0:0:0:0:
160,128,127063,1,0,0:0:0:0:
352,128,127188,1,8,0:0:0:0:
160,128,127313,1,0,0:0:0:0:
352,128,127438,1,8,0:0:0:0:
352,128,127688,1,8,0:0:0:0:
160,128,127938,1,0,0:0:0:0:
352,128,128063,1,8,0:0:0:0:
160,128,128188,1,0,0:0:0:0:
160,128,128313,1,0,0:0:0:0:
352,128,128438,1,8,0:0:0:0:
160,128,128563,1,0,0:0:0:0:
352,128,128688,1,8,0:0:0:0:
160,256,128938,1,4,0:0:0:0:
352,128,129313,1,8,0:0:0:0:
160,128,129438,1,0,0:0:0:0:
352,128,129688,1,8,0:0:0:0:
160,128,130188,1,0,0:0:0:0:
352,128,130438,1,8,0:0:0:0:
160,128,130688,1,0,0:0:0:0:
160,128,130938,1,0,0:0:0:0:
352,128,131313,1,8,0:0:0:0:
352,128,131438,1,8,0:0:0:0:
160,128,131688,1,0,0:0:0:0:
352,128,132188,1,8,0:0:0:0:
160,128,132438,1,0,0:0:0:0:
160,128,132688,1,0,0:0:0:0:
160,128,132938,1,0,0:0:0:0:
352,128,133188,1,8,0:0:0:0:
160,128,133354,1,0,0:0:0:0:
352,128,133438,1,8,0:0:0:0:
160,128,133604,1,0,0:0:0:0:
160,128,133688,1,0,0:0:0:0:
160,128,133938,1,0,0:0:0:0:
352,128,134188,1,8,0:0:0:0:
160,128,134354,1,0,0:0:0:0:
352,128,134438,1,8,0:0:0:0:
160,128,134604,1,0,0:0:0:0:
160,128,134688,1,0,0:0:0:0:
160,128,134938,1,0,0:0:0:0:
352,128,135188,1,8,0:0:0:0:
160,128,135354,1,0,0:0:0:0:
352,128,135438,1,8,0:0:0:0:
160,128,135604,1,0,0:0:0:0:
160,128,135688,1,0,0:0:0:0:
352,128,135938,1,8,0:0:0:0:
352,128,136188,1,8,0:0:0:0:
160,128,136354,1,0,0:0:0:0:
352,128,136438,1,8,0:0:0:0:
160,128,136604,1,0,0:0:0:0:
352,128,136688,1,8,0:0:0:0:
160,256,136938,1,4,0:0:0:0:
352,128,137313,1,8,0:0:0:0:
160,128,137438,1,0,0:0:0:0:
352,128,137688,1,8,0:0:0:0:
160,128,138188,1,0,0:0:0:0:
352,128,138438,1,8,0:0:0:0:
160,128,138688,1,0,0:0:0:0:
352,128,138938,1,8,0:0:0:0:
352,128,139188,1,8,0:0:0:0:
352,128,139438,1,8,0:0:0:0:
160,128,139688,1,0,0:0:0:0:
160,128,140188,1,0,0:0:0:0:
352,128,140438,1,8,0:0:0:0:
352,128,140688,1,8,0:0:0:0:
160,256,140938,1,4,0:0:0:0:
160,128,141188,1,0,0:0:0:0:
160,128,141438,1,0,0:0:0:0:
160,128,141688,1,0,0:0:0:0:
352,128,141938,1,8,0:0:0:0:
352,128,142188,1,8,0:0:0:0:
352,128,142438,1,8,0:0:0:0:
352,128,142688,1,8,0:0:0:0:
160,128,142938,1,0,0:0:0:0:
160,128,143063,1,0,0:0:0:0:
160,128,143188,1,0,0:0:0:0:
160,128,143313,1,0,0:0:0:0:
352,128,143438,1,8,0:0:0:0:
352,128,143563,1,8,0:0:0:0:
352,128,143688,1,8,0:0:0:0:
352,128,143813,1,8,0:0:0:0:
160,128,143938,1,0,0:0:0:0:
160,128,144000,1,0,0:0:0:0:
160,128,144063,1,0,0:0:0:0:
160,128,144125,1,0,0:0:0:0:
352,128,144188,1,8,0:0:0:0:
352,128,144250,1,8,0:0:0:0:
352,128,144313,1,8,0:0:0:0:
160,256,144938,5,4,0:0:0:0:
352,128,145313,1,8,0:0:0:0:
352,128,145688,1,8,0:0:0:0:
160,128,146188,1,0,0:0:0:0:
352,128,146688,1,8,0:0:0:0:
160,128,146938,1,0,0:0:0:0:
352,128,147063,1,8,0:0:0:0:
160,128,147313,1,0,0:0:0:0:
352,128,147688,1,8,0:0:0:0:
352,128,147938,1,8,0:0:0:0:
352,128,148063,1,8,0:0:0:0:
160,128,148313,1,0,0:0:0:0:
160,128,148938,1,0,0:0:0:0:
352,128,149313,1,8,0:0:0:0:
352,128,149688,1,8,0:0:0:0:
160,128,150188,1,0,0:0:0:0:
352,128,150688,1,8,0:0:0:0:
160,128,150938,1,0,0:0:0:0:
352,128,151063,1,8,0:0:0:0:
160,128,151313,1,0,0:0:0:0:
352,128,151688,1,8,0:0:0:0:
352,128,151938,1,8,0:0:0:0:
160,128,152188,1,0,0:0:0:0:
160,128,152313,1,0,0:0:0:0:
160,256,152938,1,4,0:0:0:0:
352,128,153063,1,8,0:0:0:0:
352,128,153188,1,8,0:0:0:0:
160,128,153313,1,0,0:0:0:0:
352,128,153438,1,8,0:0:0:0:
352,128,153500,1,8,0:0:0:0:
160,128,153563,1,0,0:0:0:0:
352,128,153688,1,8,0:0:0:0:
352,128,153813,1,8,0:0:0:0:
160,128,153938,1,0,0:0:0:0:
160,128,154000,1,0,0:0:0:0:
352,256,154938,1,12,0:0:0:0:
352,128,155188,1,8,0:0:0:0:
160,128,155313,1,0,0:0:0:0:
352,128,155438,1,8,0:0:0:0:
160,128,155688,1,0,0:0:0:0:
352,128,155938,1,8,0:0:0:0:
352,128,156063,1,8,0:0:0:0:
160,128,156188,1,0,0:0:0:0:
160,128,156313,1,0,0:0:0:0:
352,128,156438,1,8,0:0:0:0:
160,128,156688,1,0,0:0:0:0:
352,128,156813,1,8,0:0:0:0:
160,128,156938,1,0,0:0:0:0:
160,128,157188,1,0,0:0:0:0:
160,128,157313,1,0,0:0:0:0:
352,128,157438,1,8,0:0:0:0:
352,128,157688,1,8,0:0:0:0:
160,128,157938,1,0,0:0:0:0:
160,128,158188,1,0,0:0:0:0:
160,128,158313,1,0,0:0:0:0:
352,128,158438,1,8,0:0:0:0:
352,128,158688,1,8,0:0:0:0:
160,128,158938,1,0,0:0:0:0:
352,128,159063,1,8,0:0:0:0:
352,128,159188,1,8,0:0:0:0:
160,128,159313,1,0,0:0:0:0:
352,128,159438,1,8,0:0:0:0:
352,128,159521,1,8,0:0:0:0:
352,128,159604,1,8,0:0:0:0:
160,128,159688,1,0,0:0:0:0:
352,128,159813,1,8,0:0:0:0:
160,128,159938,1,0,0:0:0:0:
160,128,160000,1,0,0:0:0:0:
352,128,160063,1,8,0:0:0:0:
160,128,160188,1,0,0:0:0:0:
352,128,160438,1,8,0:0:0:0:
352,128,160521,1,8,0:0:0:0:
352,128,160604,1,8,0:0:0:0:
160,128,160688,1,0,0:0:0:0:
160,256,160938,1,4,0:0:0:0:
352,128,161188,1,8,0:0:0:0:
160,128,161313,1,0,0:0:0:0:
160,128,161375,1,0,0:0:0:0:
352,128,161438,1,8,0:0:0:0:
160,128,161563,1,0,0:0:0:0:
352,128,161688,1,8,0:0:0:0:
352,128,161813,1,8,0:0:0:0:
160,128,161938,1,0,0:0:0:0:
352,128,162188,1,8,0:0:0:0:
160,128,162313,1,0,0:0:0:0:
160,128,162563,1,0,0:0:0:0:
352,128,162688,1,8,0:0:0:0:
160,128,162938,1,0,0:0:0:0:
160,128,163063,1,0,0:0:0:0:
160,128,163125,1,0,0:0:0:0:
352,128,163188,1,8,0:0:0:0:
160,128,163313,1,0,0:0:0:0:
160,128,163563,1,0,0:0:0:0:
352,128,163688,1,8,0:0:0:0:
160,128,163938,1,0,0:0:0:0:
352,128,164063,1,8,0:0:0:0:
352,128,164125,1,8,0:0:0:0:
160,128,164188,1,0,0:0:0:0:
352,128,164313,1,8,0:0:0:0:
160,128,164438,1,0,0:0:0:0:
160,128,164563,1,0,0:0:0:0:
160,128,164625,1,0,0:0:0:0:
352,128,164688,1,8,0:0:0:0:
160,128,164938,1,0,0:0:0:0:
352,128,165188,1,8,0:0:0:0:
160,128,165313,1,0,0:0:0:0:
160,128,165375,1,0,0:0:0:0:
352,128,165438,1,8,0:0:0:0:
160,128,165563,1,0,0:0:0:0:
352,128,165688,1,8,0:0:0:0:
352,128,165813,1,8,0:0:0:0:
160,128,165938,1,0,0:0:0:0:
352,128,166188,1,8,0:0:0:0:
160,128,166313,1,0,0:0:0:0:
160,128,166563,1,0,0:0:0:0:
352,128,166688,1,8,0:0:0:0:
160,128,166938,1,0,0:0:0:0:
160,128,167063,1,0,0:0:0:0:
160,128,167125,1,0,0:0:0:0:
352,128,167188,1,8,0:0:0:0:
160,128,167313,1,0,0:0:0:0:
160,128,167563,1,0,0:0:0:0:
352,128,167688,1,8,0:0:0:0:
160,128,167938,1,0,0:0:0:0:
352,128,168063,1,8,0:0:0:0:
352,128,168125,1,8,0:0:0:0:
160,128,168188,1,0,0:0:0:0:
352,128,168313,1,8,0:0:0:0:
160,128,168563,1,0,0:0:0:0:
352,128,168688,1,8,0:0:0:0:
160,128,168938,1,0,0:0:0:0:
160,128,169313,1,0,0:0:0:0:
352,128,169438,1,8,0:0:0:0:
352,128,169688,1,8,0:0:0:0:
160,128,169938,1,0,0:0:0:0:
352,128,170188,1,8,0:0:0:0:
352,128,170313,1,8,0:0:0:0:
160,128,170438,1,0,0:0:0:0:
160,128,170521,1,0,0:0:0:0:
160,128,170604,1,0,0:0:0:0:
352,128,170688,1,8,0:0:0:0:
160,256,170938,1,4,0:0:0:0:
352,128,171188,1,8,0:0:0:0:
160,128,171313,1,0,0:0:0:0:
160,128,171375,1,0,0:0:0:0:
352,128,171438,1,8,0:0:0:0:
160,128,171563,1,0,0:0:0:0:
352,128,171688,1,8,0:0:0:0:
352,128,171813,1,8,0:0:0:0:
160,128,171938,1,0,0:0:0:0:
352,128,172188,1,8,0:0:0:0:
160,128,172313,1,0,0:0:0:0:
352,128,172438,1,8,0:0:0:0:
160,128,172563,1,0,0:0:0:0:
160,128,172625,1,0,0:0:0:0:
352,128,172688,1,8,0:0:0:0:
352,128,172813,1,8,0:0:0:0:
160,128,172938,1,0,0:0:0:0:
352,128,173188,1,8,0:0:0:0:
160,128,173313,1,0,0:0:0:0:
352,128,173438,1,8,0:0:0:0:
352,128,173688,1,8,0:0:0:0:
352,128,173813,1,8,0:0:0:0:
160,128,173938,1,0,0:0:0:0:
160,128,174063,1,0,0:0:0:0:
352,128,174188,1,8,0:0:0:0:
160,128,174313,1,0,0:0:0:0:
352,128,174438,1,8,0:0:0:0:
352,128,174688,1,8,0:0:0:0:
352,128,174813,1,8,0:0:0:0:
160,128,174938,1,0,0:0:0:0:
352,128,175063,1,8,0:0:0:0:
160,128,175125,1,0,0:0:0:0:
352,128,175188,1,8,0:0:0:0:
160,128,175313,1,0,0:0:0:0:
352,128,175438,1,8,0:0:0:0:
160,128,175563,1,0,0:0:0:0:
352,128,175688,1,8,0:0:0:0:
352,128,175813,1,8,0:0:0:0:
160,128,175938,1,0,0:0:0:0:
352,128,176063,1,8,0:0:0:0:
160,128,176125,1,0,0:0:0:0:
352,128,176188,1,8,0:0:0:0:
160,128,176313,5,0,0:0:0:0:
160,128,176438,1,0,0:0:0:0:
160,128,176500,1,0,0:0:0:0:
352,128,176563,1,8,0:0:0:0:
352,128,176625,1,8,0:0:0:0:
352,128,176688,1,8,0:0:0:0:
352,256,176938,5,12,0:0:0:0:
160,128,177188,1,0,0:0:0:0:
352,128,177438,1,8,0:0:0:0:
160,128,177688,1,0,0:0:0:0:
160,128,178188,1,0,0:0:0:0:
352,128,178438,1,8,0:0:0:0:
160,128,178688,1,0,0:0:0:0:
352,128,178938,1,8,0:0:0:0:
352,128,179188,1,8,0:0:0:0:
160,128,179438,1,0,0:0:0:0:
352,128,179688,1,8,0:0:0:0:
352,128,180188,1,8,0:0:0:0:
352,128,180438,1,8,0:0:0:0:
352,128,180500,1,8,0:0:0:0:
160,128,180563,1,0,0:0:0:0:
160,128,180625,1,0,0:0:0:0:
160,128,180688,1,0,0:0:0:0:
160,256,180938,5,4,0:0:0:0:
352,128,181188,1,8,0:0:0:0:
160,128,181313,1,0,0:0:0:0:
352,128,181563,1,8,0:0:0:0:
352,128,181688,1,8,0:0:0:0:
160,128,181813,1,0,0:0:0:0:
352,128,181938,1,8,0:0:0:0:
160,128,182063,1,0,0:0:0:0:
160,128,182188,1,0,0:0:0:0:
352,128,182313,1,8,0:0:0:0:
160,128,182563,1,0,0:0:0:0:
160,128,182688,1,0,0:0:0:0:
352,128,182938,1,8,0:0:0:0:
352,128,183188,1,8,0:0:0:0:
160,128,183313,1,0,0:0:0:0:
352,128,183563,1,8,0:0:0:0:
160,128,183688,1,0,0:0:0:0:
160,128,183813,1,0,0:0:0:0:
352,128,183938,1,8,0:0:0:0:
352,128,184000,1,8,0:0:0:0:
352,128,184063,1,8,0:0:0:0:
160,128,184188,1,0,0:0:0:0:
352,128,184313,1,8,0:0:0:0:
160,128,184438,1,0,0:0:0:0:
352,128,184563,1,8,0:0:0:0:
352,128,184688,1,8,0:0:0:0:
352,128,184938,1,8,0:0:0:0:
352,128,185188,1,8,0:0:0:0:
160,128,185313,1,0,0:0:0:0:
352,128,185563,1,8,0:0:0:0:
160,128,185688,1,0,0:0:0:0:
160,128,185813,1,0,0:0:0:0:
352,128,185938,1,8,0:0:0:0:
352,128,186063,1,8,0:0:0:0:
160,128,186188,1,0,0:0:0:0:
352,128,186313,1,8,0:0:0:0:
160,128,186563,1,0,0:0:0:0:
160,128,186688,1,0,0:0:0:0:
352,128,186938,1,8,0:0:0:0:
352,128,187188,1,8,0:0:0:0:
160,128,187313,1,0,0:0:0:0:
160,128,187563,1,0,0:0:0:0:
352,128,187688,1,8,0:0:0:0:
160,128,187813,1,0,0:0:0:0:
160,128,187875,1,0,0:0:0:0:
352,128,187938,1,8,0:0:0:0:
352,128,188063,1,8,0:0:0:0:
160,128,188188,1,0,0:0:0:0:
352,128,188313,1,8,0:0:0:0:
160,128,188438,1,0,0:0:0:0:
160,128,188563,1,0,0:0:0:0:
352,128,188688,1,8,0:0:0:0:
160,256,188938,1,4,0:0:0:0:
352,128,189188,1,8,0:0:0:0:
160,128,189313,1,0,0:0:0:0:
352,128,189563,1,8,0:0:0:0:
352,128,189688,1,8,0:0:0:0:
160,128,189813,1,0,0:0:0:0:
352,128,189938,1,8,0:0:0:0:
160,128,190063,1,0,0:0:0:0:
160,128,190188,1,0,0:0:0:0:
352,128,190313,1,8,0:0:0:0:
160,128,190563,1,0,0:0:0:0:
160,128,190688,1,0,0:0:0:0:
352,128,190938,1,8,0:0:0:0:
352,128,191188,1,8,0:0:0:0:
160,128,191313,1,0,0:0:0:0:
352,128,191563,1,8,0:0:0:0:
160,128,191688,1,0,0:0:0:0:
160,128,191813,1,0,0:0:0:0:
352,128,191938,1,8,0:0:0:0:
352,128,192000,1,8,0:0:0:0:
352,128,192063,1,8,0:0:0:0:
160,128,192188,1,0,0:0:0:0:
352,128,192313,1,8,0:0:0:0:
160,128,192438,1,0,0:0:0:0:
352,128,192563,1,8,0:0:0:0:
352,128,192688,1,8,0:0:0:0:
352,128,192938,1,8,0:0:0:0:
352,128,193188,1,8,0:0:0:0:
160,128,193313,1,0,0:0:0:0:
352,128,193563,1,8,0:0:0:0:
160,128,193688,1,0,0:0:0:0:
160,128,193813,5,0,0:0:0:0:
352,128,193938,1,8,0:0:0:0:
352,128,194063,1,8,0:0:0:0:
160,128,194188,1,0,0:0:0:0:
352,128,194313,1,8,0:0:0:0:
160,128,194563,1,0,0:0:0:0:
160,128,194688,1,0,0:0:0:0:
352,128,194938,5,8,0:0:0:0:
352,128,195000,1,8,0:0:0:0:
160,128,195063,1,0,0:0:0:0:
352,128,195188,1,8,0:0:0:0:
160,128,195313,1,0,0:0:0:0:
352,128,195438,1,8,0:0:0:0:
352,128,195521,1,8,0:0:0:0:
352,128,195604,1,8,0:0:0:0:
160,128,195688,1,0,0:0:0:0:
352,128,195813,1,8,0:0:0:0:
160,128,195938,1,0,0:0:0:0:
160,128,196000,1,0,0:0:0:0:
160,128,196063,1,0,0:0:0:0:
160,128,196188,1,0,0:0:0:0:
160,128,196313,1,0,0:0:0:0:
352,128,196438,1,8,0:0:0:0:
160,256,196938,1,4,0:0:0:0:
160,128,197188,1,0,0:0:0:0:
352,128,197438,1,8,0:0:0:0:
160,128,197563,1,0,0:0:0:0:
352,128,197688,1,8,0:0:0:0:
352,128,197813,1,8,0:0:0:0:
160,128,197938,1,0,0:0:0:0:
352,128,198063,1,8,0:0:0:0:
160,128,198188,1,0,0:0:0:0:
352,128,198313,1,8,0:0:0:0:
160,128,198438,1,0,0:0:0:0:
160,128,198563,1,0,0:0:0:0:
352,128,198688,1,8,0:0:0:0:
160,128,198938,1,0,0:0:0:0:
160,128,199188,1,0,0:0:0:0:
160,128,199313,1,0,0:0:0:0:
352,128,199438,1,8,0:0:0:0:
160,128,199563,1,0,0:0:0:0:
160,128,199688,1,0,0:0:0:0:
352,128,199813,1,8,0:0:0:0:
160,128,199938,1,0,0:0:0:0:
352,128,200063,1,8,0:0:0:0:
160,128,200188,1,0,0:0:0:0:
160,128,200313,1,0,0:0:0:0:
352,128,200438,1,8,0:0:0:0:
160,128,200563,1,0,0:0:0:0:
352,128,200688,1,8,0:0:0:0:
160,128,200938,1,0,0:0:0:0:
352,128,201188,1,8,0:0:0:0:
160,128,201313,1,0,0:0:0:0:
160,128,201438,1,0,0:0:0:0:
352,128,201563,1,8,0:0:0:0:
160,128,201813,1,0,0:0:0:0:
352,128,201938,1,8,0:0:0:0:
160,128,202063,1,0,0:0:0:0:
352,128,202188,1,8,0:0:0:0:
160,128,202313,1,0,0:0:0:0:
160,128,202438,1,0,0:0:0:0:
352,128,202563,1,8,0:0:0:0:
352,128,202688,1,8,0:0:0:0:
160,128,202938,1,0,0:0:0:0:
160,128,203063,1,0,0:0:0:0:
352,128,203188,1,8,0:0:0:0:
160,128,203313,1,0,0:0:0:0:
352,128,203438,1,8,0:0:0:0:
160,128,203563,1,0,0:0:0:0:
352,128,203687,1,8,0:0:0:0:
160,128,203812,1,0,0:0:0:0:
160,128,203875,1,0,0:0:0:0:
352,128,203938,1,8,0:0:0:0:
160,128,204063,1,0,0:0:0:0:
160,128,204188,1,0,0:0:0:0:
352,128,204313,1,8,0:0:0:0:
160,128,204438,1,0,0:0:0:0:
352,128,204563,1,8,0:0:0:0:
160,128,204688,1,0,0:0:0:0:
352,128,204813,1,8,0:0:0:0:
160,128,204938,1,0,0:0:0:0:
352,128,205188,1,8,0:0:0:0:
160,128,205313,1,0,0:0:0:0:
352,128,205438,1,8,0:0:0:0:
160,128,205563,1,0,0:0:0:0:
352,128,205688,1,8,0:0:0:0:
352,128,205813,1,8,0:0:0:0:
160,128,205938,1,0,0:0:0:0:
160,128,206063,1,0,0:0:0:0:
352,128,206188,1,8,0:0:0:0:
160,128,206313,1,0,0:0:0:0:
160,128,206438,1,0,0:0:0:0:
160,128,206563,1,0,0:0:0:0:
352,128,206688,1,8,0:0:0:0:
352,128,206813,1,8,0:0:0:0:
160,128,207063,1,0,0:0:0:0:
352,128,207188,1,8,0:0:0:0:
160,128,207313,1,0,0:0:0:0:
352,128,207438,1,8,0:0:0:0:
160,128,207563,1,0,0:0:0:0:
160,128,207688,1,0,0:0:0:0:
352,128,207813,1,8,0:0:0:0:
160,128,207938,1,0,0:0:0:0:
352,128,208063,1,8,0:0:0:0:
352,128,208188,1,8,0:0:0:0:
160,128,208313,1,0,0:0:0:0:
352,128,208438,1,8,0:0:0:0:
160,128,208563,1,0,0:0:0:0:
352,128,208688,1,8,0:0:0:0:
352,128,208813,1,8,0:0:0:0:
160,128,209063,1,0,0:0:0:0:
352,128,209188,1,8,0:0:0:0:
160,128,209313,1,0,0:0:0:0:
352,128,209438,1,8,0:0:0:0:
352,128,209563,1,8,0:0:0:0:
160,128,209688,1,0,0:0:0:0:
160,128,209813,1,0,0:0:0:0:
352,128,209938,1,8,0:0:0:0:
160,128,210063,1,0,0:0:0:0:
352,128,210188,1,8,0:0:0:0:
352,128,210313,5,8,0:0:0:0:
160,128,210438,1,0,0:0:0:0:
160,128,210563,1,0,0:0:0:0:
352,128,210688,1,8,0:0:0:0:
352,128,210813,1,8,0:0:0:0:
160,128,210938,1,0,0:0:0:0:
160,128,211313,1,0,0:0:0:0:
160,128,211938,1,0,0:0:0:0:
160,128,212313,1,0,0:0:0:0:
