osu file format v14

[General]
AudioFilename: audio.mp3
AudioLeadIn: 0
PreviewTime: 65488
Countdown: 0
SampleSet: Normal
StackLeniency: 0.7
Mode: 3
LetterboxInBreaks: 0
SpecialStyle: 0
WidescreenStoryboard: 1

[Editor]
Bookmarks: 19819
DistanceSpacing: 0.8
BeatDivisor: 8
GridSize: 8
TimelineZoom: 2.1

[Metadata]
Title:Himitsu Dial
TitleUnicode:ヒミツダイヤル
Artist:Coconatsu
ArtistUnicode:ここなつ
Creator:Suu is my waifu
Version:NOVICE
Source:SOUND VOLTEX III GRAVITY WARS
Tags:SDVX original song konami bemani 東雲心菜 東雲夏陽
BeatmapID:1138479
BeatmapSetID:536025

[Difficulty]
HPDrainRate:7
CircleSize:4
OverallDifficulty:7
ApproachRate:5
SliderMultiplier:1.4
SliderTickRate:1

[Events]
//Background and Video events
0,0,"bg.jpg",0,0
//Break Periods
//Storyboard Layer 0 (Background)
//Storyboard Layer 1 (Fail)
//Storyboard Layer 2 (Pass)
//Storyboard Layer 3 (Foreground)
//Storyboard Sound Samples

[TimingPoints]
1337,535.714285714286,4,1,1,35,1,0
69908,-100,4,1,1,35,0,1
84908,-100,4,1,1,35,0,0
87051,-100,4,1,1,35,0,1
102051,-100,4,1,1,35,0,0

[HitObjects]
64,192,1337,5,0,0:0:0:0:
448,192,1337,1,0,0:0:0:0:
192,192,1604,1,0,0:0:0:0:
320,192,1872,1,0,0:0:0:0:
448,192,2140,1,0,0:0:0:0:
320,192,2408,1,0,0:0:0:0:
192,192,2676,1,0,0:0:0:0:
64,192,2944,1,0,0:0:0:0:
448,192,2944,1,0,0:0:0:0:
192,192,3479,1,0,0:0:0:0:
320,192,3479,1,0,0:0:0:0:
320,192,4417,128,0,4551:0:0:0:0:
448,192,4819,1,0,0:0:0:0:
320,192,5087,1,0,0:0:0:0:
192,192,5354,1,0,0:0:0:0:
64,192,5622,1,0,0:0:0:0:
448,192,5622,1,0,0:0:0:0:
320,192,5890,1,0,0:0:0:0:
192,192,6158,1,0,0:0:0:0:
64,192,6426,1,0,0:0:0:0:
192,192,6694,1,0,0:0:0:0:
320,192,6962,1,0,0:0:0:0:
448,192,7229,1,0,0:0:0:0:
192,192,7229,1,0,0:0:0:0:
64,192,7765,1,0,0:0:0:0:
320,192,7765,1,0,0:0:0:0:
192,192,8703,128,0,8837:0:0:0:0:
448,192,9104,1,0,0:0:0:0:
320,192,9372,1,0,0:0:0:0:
192,192,9640,1,0,0:0:0:0:
64,192,9908,1,0,0:0:0:0:
448,192,9908,1,0,0:0:0:0:
192,192,10176,1,0,0:0:0:0:
320,192,10444,1,0,0:0:0:0:
64,192,10712,1,0,0:0:0:0:
448,192,10979,1,0,0:0:0:0:
192,192,11247,1,0,0:0:0:0:
64,192,11515,1,0,0:0:0:0:
448,192,11515,1,0,0:0:0:0:
192,192,12051,1,0,0:0:0:0:
320,192,12051,1,0,0:0:0:0:
64,192,12988,128,0,13122:0:0:0:0:
192,192,13390,1,0,0:0:0:0:
320,192,13658,1,0,0:0:0:0:
448,192,13926,1,0,0:0:0:0:
64,192,14194,1,0,0:0:0:0:
448,192,14194,1,0,0:0:0:0:
448,192,14462,1,0,0:0:0:0:
64,192,14729,1,0,0:0:0:0:
320,192,14997,1,0,0:0:0:0:
192,192,15265,1,0,0:0:0:0:
320,192,15533,1,0,0:0:0:0:
64,192,15801,1,0,0:0:0:0:
320,192,15801,1,0,0:0:0:0:
448,192,16337,1,0,0:0:0:0:
192,192,16337,1,0,0:0:0:0:
64,192,17274,1,0,0:0:0:0:
192,192,17341,1,0,0:0:0:0:
448,192,17408,128,0,17944:0:0:0:0:
64,192,17676,1,0,0:0:0:0:
320,192,17944,1,0,0:0:0:0:
192,192,18212,1,0,0:0:0:0:
64,192,18479,1,0,0:0:0:0:
448,192,18479,1,0,0:0:0:0:
320,192,18747,1,0,0:0:0:0:
192,192,19015,1,0,0:0:0:60:clap.wav
64,192,19015,1,0,0:0:0:0:
448,192,19283,1,0,0:0:0:0:
192,192,19551,1,0,0:0:0:0:
320,192,19819,1,0,0:0:0:0:
64,192,20087,1,0,0:0:0:0:
448,192,20087,1,0,0:0:0:60:clap.wav
192,192,20354,1,0,0:0:0:0:
448,192,20622,1,0,0:0:0:0:
192,192,20890,1,0,0:0:0:0:
320,192,21158,1,0,0:0:0:60:clap.wav
448,192,21158,1,0,0:0:0:0:
192,192,21426,1,0,0:0:0:0:
64,192,21694,1,0,0:0:0:0:
448,192,22095,1,0,0:0:0:0:
320,192,22229,1,0,0:0:0:0:
192,192,22229,1,0,0:0:0:60:clap.wav
64,192,22497,1,0,0:0:0:0:
192,192,22765,128,0,23033:0:0:0:0:
448,192,23033,1,0,0:0:0:0:
320,192,23301,1,0,0:0:0:60:clap.wav
192,192,23301,1,0,0:0:0:0:
64,192,23569,1,0,0:0:0:0:
192,192,23837,1,0,0:0:0:0:
448,192,24104,128,0,24372:0:0:0:0:
192,192,24372,1,0,0:0:0:60:clap.wav
320,192,24372,1,0,0:0:0:0:
64,192,24640,1,0,0:0:0:0:
320,192,24908,1,0,0:0:0:0:
64,192,25176,1,0,0:0:0:0:
192,192,25444,1,0,0:0:0:60:clap.wav
320,192,25444,1,0,0:0:0:0:
448,192,25712,1,0,0:0:0:0:
320,192,25979,1,0,0:0:0:0:
64,192,26381,1,0,0:0:0:0:
192,192,26515,1,0,0:0:0:60:clap.wav
448,192,26515,1,0,0:0:0:0:
320,192,26783,1,0,0:0:0:0:
448,192,27051,1,0,0:0:0:0:
64,192,27051,1,0,0:0:0:0:
192,192,27319,1,0,0:0:0:0:
448,192,27587,1,0,0:0:0:0:
320,192,27587,1,0,0:0:0:60:clap.wav
64,192,27854,1,0,0:0:0:0:
320,192,28122,1,0,0:0:0:0:
192,192,28390,1,0,0:0:0:0:
448,192,28658,1,0,0:0:0:60:clap.wav
64,192,28658,1,0,0:0:0:0:
192,192,28926,1,0,0:0:0:0:
320,192,29194,1,0,0:0:0:0:
448,192,29462,1,0,0:0:0:0:
64,192,29729,1,0,0:0:0:0:
320,192,29729,1,0,0:0:0:60:clap.wav
192,192,29997,1,0,0:0:0:0:
320,192,30265,1,0,0:0:0:0:
320,192,30667,1,0,0:0:0:0:
192,192,30801,1,0,0:0:0:60:clap.wav
64,192,30801,1,0,0:0:0:0:
320,192,31069,1,0,0:0:0:0:
64,192,31337,1,0,0:0:0:0:
192,192,31604,1,0,0:0:0:0:
448,192,31872,1,0,0:0:0:0:
320,192,31872,1,0,0:0:0:60:clap.wav
64,192,32140,1,0,0:0:0:0:
320,192,32408,1,0,0:0:0:0:
64,192,32676,128,0,32944:0:0:0:0:
448,192,32810,1,0,0:0:0:0:
192,192,32944,1,0,0:0:0:0:
320,192,32944,1,0,0:0:0:60:clap.wav
64,192,33212,1,0,0:0:0:0:
320,192,33479,128,0,33747:0:0:0:0:
64,192,33881,1,0,0:0:0:0:
448,192,34015,1,0,0:0:0:0:
64,192,34283,1,0,0:0:0:0:
64,192,34551,128,0,35622:0:0:0:0:
448,192,35087,128,0,35622:0:0:0:0:
192,192,35622,1,0,0:0:0:0:
320,192,35622,1,0,0:0:0:0:
448,192,35890,1,0,0:0:0:0:
64,192,36158,1,0,0:0:0:60:clap.wav
320,192,36158,1,0,0:0:0:0:
192,192,36426,1,0,0:0:0:0:
448,192,36694,1,0,0:0:0:0:
320,192,36962,1,0,0:0:0:0:
64,192,37229,1,0,0:0:0:60:clap.wav
192,192,37229,1,0,0:0:0:0:
320,192,37765,1,0,0:0:0:60:clap.wav
448,192,37765,1,0,0:0:0:0:
64,192,38033,1,0,0:0:0:60:clap.wav
192,192,38033,1,0,0:0:0:0:
320,192,38301,1,0,0:0:0:60:clap.wav
448,192,38301,1,0,0:0:0:0:
64,192,38569,1,0,0:0:0:0:
192,192,38837,1,0,0:0:0:0:
448,192,39104,1,0,0:0:0:0:
192,192,39372,1,0,0:0:0:0:
320,192,39640,1,0,0:0:0:0:
64,192,39908,1,0,0:0:0:0:
448,192,39908,1,0,0:0:0:0:
320,192,40176,1,0,0:0:0:0:
192,192,40444,128,0,40979:0:0:0:0:
320,192,40979,1,0,0:0:0:0:
64,192,41247,1,0,0:0:0:0:
448,192,41515,1,0,0:0:0:60:clap.wav
320,192,41515,1,0,0:0:0:0:
448,192,42051,128,0,42587:0:0:0:0:
64,192,42587,128,0,43122:0:0:0:0:
320,192,43122,128,0,43658:0:0:0:0:
448,192,43658,1,0,0:0:0:0:
192,192,43926,1,0,0:0:0:0:
448,192,44194,1,0,0:0:0:0:
320,192,44194,1,0,0:0:0:0:
64,192,44462,1,0,0:0:0:0:
192,192,44729,1,0,0:0:0:60:clap.wav
320,192,44729,1,0,0:0:0:0:
448,192,44997,1,0,0:0:0:0:
64,192,45265,1,0,0:0:0:0:
320,192,45533,1,0,0:0:0:0:
192,192,45801,1,0,0:0:0:60:clap.wav
448,192,45801,1,0,0:0:0:0:
192,192,46337,1,0,0:0:0:0:
448,192,46337,1,0,0:0:0:0:
64,192,46604,1,0,0:0:0:0:
320,192,46604,1,0,0:0:0:0:
448,192,46872,1,0,0:0:0:0:
192,192,46872,1,0,0:0:0:0:
64,192,47140,1,0,0:0:0:0:
448,192,47408,1,0,0:0:0:0:
320,192,47676,1,0,0:0:0:0:
64,192,47944,1,0,0:0:0:0:
192,192,47944,1,0,0:0:0:60:clap.wav
320,192,48212,1,0,0:0:0:0:
448,192,48479,1,0,0:0:0:0:
64,192,48479,1,0,0:0:0:0:
320,192,48747,1,0,0:0:0:0:
448,192,49015,1,0,0:0:0:0:
64,192,49015,1,0,0:0:0:0:
192,192,49283,1,0,0:0:0:0:
448,192,49551,1,0,0:0:0:0:
320,192,49819,1,0,0:0:0:0:
64,192,50087,1,0,0:0:0:0:
192,192,50087,1,0,0:0:0:60:clap.wav
320,192,50622,128,0,51158:0:0:0:0:
64,192,51158,128,0,51694:0:0:0:0:
448,192,51694,128,0,52229:0:0:0:0:
192,192,52229,1,0,0:0:0:0:
320,192,52497,1,0,0:0:0:0:
448,192,52765,1,0,0:0:0:0:
64,192,52765,128,0,53033:0:0:0:0:
192,192,53301,128,0,53569:0:0:0:0:
448,192,53837,128,0,54104:0:0:0:0:
64,192,54372,128,0,54640:0:0:0:0:
448,192,54908,1,0,0:0:0:0:
192,192,54908,128,0,55176:0:0:0:0:
320,192,55444,128,0,55712:0:0:0:0:
448,192,55979,128,0,56247:0:0:0:0:
192,192,57051,1,0,0:0:0:0:
320,192,57051,128,0,57319:0:0:0:0:
448,192,57587,128,0,57854:0:0:0:0:
64,192,58122,128,0,58390:0:0:0:0:
320,192,58658,128,0,58926:0:0:0:0:
192,192,59194,1,0,0:0:0:0:
64,192,59194,128,0,59462:0:0:0:0:
448,192,59729,128,0,59997:0:0:0:0:
192,192,60265,128,0,60533:0:0:0:0:
448,192,61337,1,0,0:0:0:0:
64,192,61337,128,0,61604:0:0:0:0:
448,192,61872,1,0,0:0:0:0:
320,192,61872,128,0,62140:0:0:0:0:
192,192,62408,1,0,0:0:0:70:clap.wav
64,192,62408,128,0,62676:0:0:0:0:
448,192,62944,1,0,0:0:0:0:
320,192,62944,128,0,63212:0:0:0:0:
448,192,63479,1,0,0:0:0:0:
64,192,63479,128,0,63747:0:0:0:0:
192,192,64015,1,0,0:0:0:70:clap.wav
320,192,64015,128,0,64283:0:0:0:0:
448,192,64551,1,0,0:0:0:0:
64,192,64551,128,0,64819:0:0:0:0:
64,192,65622,1,0,0:0:0:0:
320,192,65622,128,0,65890:0:0:0:0:
448,192,66158,1,0,0:0:0:0:
192,192,66158,128,0,66426:0:0:0:0:
64,192,66694,1,0,0:0:0:0:
320,192,66694,128,0,66962:0:0:0:0:
448,192,67229,1,0,0:0:0:0:
64,192,67229,128,0,67497:0:0:0:0:
448,192,67765,128,0,68301:0:0:0:0:
320,192,68301,128,0,68837:0:0:0:0:
192,192,68837,128,0,69372:0:0:0:0:
64,192,69908,1,0,0:0:0:60:finish.wav
448,192,69908,1,0,0:0:0:0:
320,192,70176,1,0,0:0:0:0:
448,192,70444,1,0,0:0:0:0:
192,192,70444,1,0,0:0:0:0:
64,192,70712,1,0,0:0:0:0:
448,192,70979,1,0,0:0:0:0:
192,192,71247,1,0,0:0:0:0:
64,192,71515,1,0,0:0:0:0:
320,192,71515,1,0,0:0:0:0:
448,192,72051,1,0,0:0:0:0:
64,192,72051,1,0,0:0:0:0:
448,192,72587,1,0,0:0:0:60:clap.wav
64,192,72587,1,0,0:0:0:0:
192,192,72854,1,0,0:0:0:0:
64,192,73122,1,0,0:0:0:0:
448,192,73390,1,0,0:0:0:0:
64,192,73658,1,0,0:0:0:0:
192,192,73658,1,0,0:0:0:0:
320,192,73926,1,0,0:0:0:0:
64,192,74194,1,0,0:0:0:0:
448,192,74194,1,0,0:0:0:0:
192,192,74462,1,0,0:0:0:0:
448,192,74729,1,0,0:0:0:0:
320,192,74729,1,0,0:0:0:0:
64,192,74997,1,0,0:0:0:0:
448,192,75265,1,0,0:0:0:0:
192,192,75533,1,0,0:0:0:0:
448,192,75801,1,0,0:0:0:60:clap.wav
64,192,75801,1,0,0:0:0:0:
448,192,76337,1,0,0:0:0:0:
64,192,76337,1,0,0:0:0:0:
192,192,76604,1,0,0:0:0:0:
64,192,76872,1,0,0:0:0:0:
320,192,76872,1,0,0:0:0:0:
448,192,77140,1,0,0:0:0:0:
64,192,77274,1,0,0:0:0:0:
192,192,77341,1,0,0:0:0:0:
320,192,77408,1,0,0:0:0:0:
64,192,77676,1,0,0:0:0:0:
192,192,77944,1,0,0:0:0:0:
320,192,78212,1,0,0:0:0:0:
448,192,78479,1,0,0:0:0:0:
64,192,78479,1,0,0:0:0:60:finish.wav
320,192,78747,1,0,0:0:0:0:
192,192,79015,1,0,0:0:0:60:clap.wav
64,192,79015,1,0,0:0:0:0:
320,192,79283,1,0,0:0:0:0:
448,192,79551,1,0,0:0:0:0:
192,192,79819,1,0,0:0:0:0:
64,192,80087,1,0,0:0:0:60:clap.wav
320,192,80087,1,0,0:0:0:0:
192,192,80622,1,0,0:0:0:0:
64,192,80622,1,0,0:0:0:0:
448,192,80890,1,0,0:0:0:0:
64,192,81158,1,0,0:0:0:60:clap.wav
320,192,81158,1,0,0:0:0:0:
448,192,81426,1,0,0:0:0:0:
192,192,81694,1,0,0:0:0:0:
320,192,81962,1,0,0:0:0:0:
64,192,82229,1,0,0:0:0:60:clap.wav
192,192,82229,1,0,0:0:0:0:
448,192,82497,1,0,0:0:0:0:
320,192,82765,1,0,0:0:0:0:
192,192,82765,1,0,0:0:0:0:
448,192,83033,1,0,0:0:0:0:
64,192,83301,1,0,0:0:0:60:clap.wav
320,192,83301,1,0,0:0:0:0:
192,192,83569,1,0,0:0:0:0:
448,192,83837,1,0,0:0:0:0:
192,192,84104,1,0,0:0:0:0:
448,192,84372,1,0,0:0:0:60:clap.wav
64,192,84372,1,0,0:0:0:0:
64,192,84908,1,0,0:0:0:0:
448,192,84908,1,0,0:0:0:0:
64,192,85444,1,0,0:0:0:0:
448,192,85712,128,0,85979:0:0:0:0:
320,192,85979,1,0,0:0:0:0:
192,192,86247,1,0,0:0:0:0:
448,192,86515,1,0,0:0:0:0:
64,192,86515,1,0,0:0:0:0:
320,192,86783,1,0,0:0:0:0:
448,192,87051,1,0,0:0:0:0:
192,192,87051,1,0,0:0:0:0:
320,192,87319,1,0,0:0:0:0:
448,192,87587,1,0,0:0:0:0:
64,192,87587,1,0,0:0:0:60:clap.wav
192,192,87854,1,0,0:0:0:0:
64,192,88122,1,0,0:0:0:0:
448,192,88122,1,0,0:0:0:0:
320,192,88390,1,0,0:0:0:0:
192,192,88658,1,0,0:0:0:60:clap.wav
64,192,88658,1,0,0:0:0:0:
448,192,88926,1,0,0:0:0:0:
320,192,89194,1,0,0:0:0:0:
192,192,89194,1,0,0:0:0:0:
64,192,89462,1,0,0:0:0:0:
320,192,89729,1,0,0:0:0:60:clap.wav
448,192,89729,1,0,0:0:0:0:
192,192,89997,1,0,0:0:0:0:
64,192,90265,1,0,0:0:0:0:
320,192,90265,1,0,0:0:0:0:
448,192,90533,1,0,0:0:0:0:
320,192,90801,1,0,0:0:0:60:clap.wav
192,192,90801,1,0,0:0:0:0:
64,192,91069,1,0,0:0:0:0:
192,192,91337,1,0,0:0:0:0:
448,192,91337,1,0,0:0:0:0:
320,192,91604,1,0,0:0:0:0:
64,192,91872,1,0,0:0:0:60:clap.wav
448,192,91872,1,0,0:0:0:0:
192,192,92140,1,0,0:0:0:0:
448,192,92408,1,0,0:0:0:0:
64,192,92408,1,0,0:0:0:0:
320,192,92676,1,0,0:0:0:0:
64,192,92944,1,0,0:0:0:0:
192,192,92944,1,0,0:0:0:60:clap.wav
320,192,93212,1,0,0:0:0:0:
192,192,93479,1,0,0:0:0:0:
448,192,93479,1,0,0:0:0:0:
64,192,93747,1,0,0:0:0:0:
320,192,94015,1,0,0:0:0:60:clap.wav
448,192,94015,1,0,0:0:0:0:
64,192,94283,1,0,0:0:0:0:
192,192,94551,1,0,0:0:0:0:
448,192,94551,1,0,0:0:0:0:
320,192,94819,1,0,0:0:0:0:
64,192,95087,1,0,0:0:0:60:clap.wav
448,192,95087,1,0,0:0:0:0:
192,192,95354,1,0,0:0:0:0:
64,192,95622,1,0,0:0:0:60:finish.wav
320,192,95622,1,0,0:0:0:0:
192,192,95890,1,0,0:0:0:0:
320,192,96158,1,0,0:0:0:60:clap.wav
448,192,96158,1,0,0:0:0:0:
192,192,96426,1,0,0:0:0:0:
64,192,96694,1,0,0:0:0:0:
320,192,96694,1,0,0:0:0:0:
192,192,96962,1,0,0:0:0:0:
320,192,97229,1,0,0:0:0:60:clap.wav
448,192,97229,1,0,0:0:0:0:
192,192,97497,1,0,0:0:0:0:
64,192,97765,1,0,0:0:0:0:
448,192,97765,1,0,0:0:0:0:
320,192,98033,1,0,0:0:0:0:
64,192,98301,1,0,0:0:0:60:clap.wav
448,192,98301,1,0,0:0:0:0:
192,192,98569,1,0,0:0:0:0:
64,192,98837,1,0,0:0:0:0:
448,192,98837,1,0,0:0:0:0:
320,192,99104,1,0,0:0:0:0:
192,192,99372,1,0,0:0:0:60:clap.wav
64,192,99372,1,0,0:0:0:0:
320,192,99640,1,0,0:0:0:0:
64,192,99908,1,0,0:0:0:0:
448,192,99908,1,0,0:0:0:0:
192,192,100176,1,0,0:0:0:0:
320,192,100444,1,0,0:0:0:60:clap.wav
448,192,100444,1,0,0:0:0:0:
192,192,100712,1,0,0:0:0:0:
64,192,100979,1,0,0:0:0:0:
320,192,100979,1,0,0:0:0:0:
192,192,101247,1,0,0:0:0:0:
320,192,101515,1,0,0:0:0:60:clap.wav
448,192,101515,1,0,0:0:0:0:
192,192,101783,1,0,0:0:0:0:
448,192,102051,1,0,0:0:0:0:
64,192,102051,128,0,102319:0:0:0:0:
192,192,102587,128,0,102854:0:0:0:0:
448,192,103122,128,0,103390:0:0:0:0:
320,192,103122,128,0,104194:0:0:0:0:
448,192,104194,1,0,0:0:0:60:clap.wav
192,192,104462,1,0,0:0:0:60:clap.wav
64,192,104729,1,0,0:0:0:60:clap.wav
192,192,104997,1,0,0:0:0:60:clap.wav
448,192,105265,1,0,0:0:0:60:clap.wav
64,192,105533,1,0,0:0:0:60:clap.wav
192,192,105801,1,0,0:0:0:60:clap.wav
320,192,106069,1,0,0:0:0:60:clap.wav
448,192,106337,1,0,0:0:0:60:clap.wav
64,192,106604,1,0,0:0:0:0:
448,192,106872,1,0,0:0:0:0:
64,192,107140,1,0,0:0:0:60:clap.wav
448,192,107274,128,0,107408:0:0:0:0:
64,192,107676,1,0,0:0:0:60:clap.wav
320,192,107944,1,0,0:0:0:60:clap.wav
192,192,108212,1,0,0:0:0:60:clap.wav
64,192,108479,1,0,0:0:0:60:clap.wav
320,192,108747,1,0,0:0:0:60:clap.wav
192,192,109015,1,0,0:0:0:60:clap.wav
448,192,109283,1,0,0:0:0:60:clap.wav
192,192,109551,1,0,0:0:0:60:clap.wav
448,192,109819,1,0,0:0:0:60:clap.wav
64,192,110087,1,0,0:0:0:60:clap.wav
320,192,110354,1,0,0:0:0:60:clap.wav
448,192,110622,1,0,0:0:0:60:clap.wav
192,192,110622,1,0,0:0:0:0:
64,192,110890,1,0,0:0:0:0:
448,192,111158,1,0,0:0:0:60:clap.wav
192,192,111426,1,0,0:0:0:0:
448,192,111694,1,0,0:0:0:0:
64,192,111694,1,0,0:0:0:60:clap.wav
