osu file format v14

[General]
AudioFilename: audio.mp3
AudioLeadIn: 0
PreviewTime: 65488
Countdown: 0
SampleSet: Normal
StackLeniency: 0.7
Mode: 3
LetterboxInBreaks: 0
SpecialStyle: 0
WidescreenStoryboard: 1

[Editor]
Bookmarks: 19819
DistanceSpacing: 0.8
BeatDivisor: 8
GridSize: 8
TimelineZoom: 2.1

[Metadata]
Title:Himitsu Dial
TitleUnicode:ヒミツダイヤル
Artist:Coconatsu
ArtistUnicode:ここなつ
Creator:Suu is my waifu
Version:ADVANCED
Source:SOUND VOLTEX III GRAVITY WARS
Tags:SDVX original song konami bemani 東雲心菜 東雲 夏陽
BeatmapID:1138478
BeatmapSetID:536025

[Difficulty]
HPDrainRate:7.5
CircleSize:4
OverallDifficulty:7.5
ApproachRate:5
SliderMultiplier:1.4
SliderTickRate:1

[Events]
//Background and Video events
0,0,"bg.jpg",0,0
//Break Periods
//Storyboard Layer 0 (Background)
//Storyboard Layer 1 (Fail)
//Storyboard Layer 2 (Pass)
//Storyboard Layer 3 (Foreground)
//Storyboard Sound Samples

[TimingPoints]
1337,535.714285714286,4,1,0,35,1,0
69908,-100,4,1,0,35,0,1
84908,-100,4,1,0,35,0,0
87051,-100,4,1,0,35,0,1
102051,-100,4,1,0,35,0,0

[HitObjects]
64,192,1337,5,0,0:0:0:0:
192,192,1337,128,0,1604:0:0:0:0:
320,192,1604,128,0,1872:0:0:0:0:
448,192,1604,1,0,0:0:0:0:
64,192,1872,1,0,0:0:0:0:
192,192,1872,1,0,0:0:0:0:
448,192,2140,1,0,0:0:0:0:
448,192,2408,1,0,0:0:0:0:
320,192,2408,128,0,2676:0:0:0:0:
192,192,2676,128,0,2944:0:0:0:0:
64,192,2676,1,0,0:0:0:0:
448,192,2944,1,0,0:0:0:0:
320,192,2944,1,0,0:0:0:0:
448,192,3479,1,0,0:0:0:0:
320,192,3479,128,0,3747:0:0:0:0:
192,192,3747,128,0,4015:0:0:0:0:
64,192,4015,1,0,0:0:0:0:
192,192,4417,1,0,0:0:0:0:
320,192,4484,1,0,0:0:0:0:
448,192,4551,1,0,0:0:0:0:
64,192,4819,1,0,0:0:0:0:
192,192,4953,1,0,0:0:0:0:
320,192,5087,1,0,0:0:0:0:
448,192,5354,1,0,0:0:0:0:
64,192,5622,128,0,5890:0:0:0:0:
192,192,5622,1,0,0:0:0:0:
320,192,5890,128,0,6158:0:0:0:0:
448,192,6158,1,0,0:0:0:0:
192,192,6158,1,0,0:0:0:0:
64,192,6426,1,0,0:0:0:0:
192,192,6694,1,0,0:0:0:0:
320,192,6694,128,0,6962:0:0:0:0:
64,192,6962,128,0,7229:0:0:0:0:
320,192,7229,1,0,0:0:0:0:
448,192,7229,1,0,0:0:0:0:
64,192,7765,1,0,0:0:0:0:
448,192,7765,128,0,8033:0:0:0:0:
192,192,8033,128,0,8301:0:0:0:0:
64,192,8301,1,0,0:0:0:0:
448,192,8703,1,0,0:0:0:0:
320,192,8770,1,0,0:0:0:0:
192,192,8837,1,0,0:0:0:0:
448,192,9104,1,0,0:0:0:0:
320,192,9238,1,0,0:0:0:0:
192,192,9372,1,0,0:0:0:0:
64,192,9640,1,0,0:0:0:0:
320,192,9908,1,0,0:0:0:0:
64,192,9908,128,0,10176:0:0:0:0:
192,192,10176,128,0,10444:0:0:0:0:
320,192,10444,1,0,0:0:0:0:
448,192,10444,1,0,0:0:0:0:
192,192,10712,1,0,0:0:0:0:
64,192,10979,1,0,0:0:0:0:
192,192,10979,128,0,11247:0:0:0:0:
448,192,11247,128,0,11515:0:0:0:0:
192,192,11515,1,0,0:0:0:0:
320,192,11515,1,0,0:0:0:0:
64,192,12051,1,0,0:0:0:0:
448,192,12051,128,0,12319:0:0:0:0:
64,192,12319,128,0,12587:0:0:0:0:
320,192,12587,1,0,0:0:0:0:
192,192,12988,1,0,0:0:0:0:
320,192,13055,1,0,0:0:0:0:
448,192,13122,1,0,0:0:0:0:
64,192,13122,128,0,13390:0:0:0:0:
192,192,13390,128,0,13658:0:0:0:0:
320,192,13524,1,0,0:0:0:0:
448,192,13658,1,0,0:0:0:0:
64,192,13658,1,0,0:0:0:0:
320,192,13926,1,0,0:0:0:0:
64,192,14194,1,0,0:0:0:0:
192,192,14194,128,0,14462:0:0:0:0:
448,192,14462,128,0,14729:0:0:0:0:
320,192,14462,1,0,0:0:0:0:
192,192,14729,1,0,0:0:0:0:
64,192,14729,1,0,0:0:0:0:
320,192,14997,1,0,0:0:0:0:
64,192,15265,1,0,0:0:0:0:
448,192,15265,128,0,15533:0:0:0:0:
192,192,15533,128,0,15801:0:0:0:0:
320,192,15801,1,0,0:0:0:0:
64,192,15801,1,0,0:0:0:0:
448,192,16337,1,0,0:0:0:0:
192,192,16337,128,0,16604:0:0:0:0:
64,192,16604,128,0,16872:0:0:0:0:
448,192,16872,1,0,0:0:0:0:
320,192,17274,1,0,0:0:0:0:
192,192,17341,1,0,0:0:0:0:
64,192,17408,1,0,0:0:0:0:
448,192,17408,1,0,0:0:0:0:
320,192,17676,1,0,0:0:0:0:
192,192,17810,1,0,0:0:0:0:
64,192,17944,1,0,0:0:0:0:
448,192,18212,1,0,0:0:0:0:
192,192,18345,1,0,0:0:0:0:
320,192,18479,1,0,0:0:0:0:
448,192,18479,1,0,0:0:0:0:
64,192,18613,1,0,0:0:0:0:
192,192,18747,1,0,0:0:0:0:
448,192,18881,1,0,0:0:0:0:
64,192,19015,1,0,0:0:0:60:clap.wav
320,192,19015,1,0,0:0:0:0:
192,192,19015,1,0,0:0:0:0:
320,192,19283,1,0,0:0:0:0:
192,192,19417,1,0,0:0:0:0:
64,192,19551,1,0,0:0:0:0:
320,192,19551,1,0,0:0:0:0:
192,192,19685,1,0,0:0:0:0:
448,192,19819,1,0,0:0:0:0:
192,192,19953,1,0,0:0:0:0:
64,192,20087,1,0,0:0:0:0:
448,192,20087,1,0,0:0:0:60:clap.wav
320,192,20087,1,0,0:0:0:0:
448,192,20354,1,0,0:0:0:0:
320,192,20488,1,0,0:0:0:0:
64,192,20622,1,0,0:0:0:0:
448,192,20622,1,0,0:0:0:0:
192,192,20756,1,0,0:0:0:0:
448,192,20890,1,0,0:0:0:0:
320,192,21024,1,0,0:0:0:0:
448,192,21158,1,0,0:0:0:0:
192,192,21158,1,0,0:0:0:0:
64,192,21158,128,0,21426:0:0:0:0:
320,192,21426,128,0,21694:0:0:0:0:
448,192,21694,128,0,21962:0:0:0:0:
192,192,21694,1,0,0:0:0:0:
320,192,22095,1,0,0:0:0:0:
192,192,22229,1,0,0:0:0:60:clap.wav
64,192,22229,1,0,0:0:0:0:
448,192,22229,1,0,0:0:0:0:
64,192,22497,1,0,0:0:0:0:
448,192,22497,1,0,0:0:0:0:
192,192,22631,1,0,0:0:0:0:
320,192,22765,1,0,0:0:0:0:
448,192,22765,1,0,0:0:0:0:
192,192,23033,1,0,0:0:0:0:
64,192,23301,1,0,0:0:0:0:
320,192,23301,1,0,0:0:0:60:clap.wav
448,192,23301,1,0,0:0:0:0:
192,192,23569,1,0,0:0:0:0:
64,192,23703,1,0,0:0:0:0:
448,192,23837,1,0,0:0:0:0:
320,192,23970,1,0,0:0:0:0:
64,192,24104,128,0,24372:0:0:0:0:
192,192,24104,1,0,0:0:0:0:
448,192,24372,1,0,0:0:0:60:clap.wav
320,192,24372,128,0,24640:0:0:0:0:
192,192,24640,1,0,0:0:0:0:
192,192,24908,1,0,0:0:0:0:
320,192,24908,1,0,0:0:0:0:
64,192,25176,1,0,0:0:0:0:
320,192,25310,1,0,0:0:0:0:
448,192,25444,1,0,0:0:0:60:clap.wav
64,192,25444,1,0,0:0:0:0:
192,192,25444,1,0,0:0:0:0:
320,192,25578,1,0,0:0:0:0:
64,192,25712,128,0,25979:0:0:0:0:
192,192,25979,128,0,26247:0:0:0:0:
320,192,25979,1,0,0:0:0:0:
448,192,26381,1,0,0:0:0:0:
192,192,26515,1,0,0:0:0:60:clap.wav
64,192,26515,1,0,0:0:0:0:
320,192,26515,1,0,0:0:0:0:
64,192,26783,1,0,0:0:0:0:
448,192,26783,1,0,0:0:0:0:
192,192,26917,1,0,0:0:0:0:
64,192,27051,1,0,0:0:0:0:
448,192,27051,1,0,0:0:0:0:
320,192,27051,1,0,0:0:0:0:
192,192,27185,1,0,0:0:0:0:
448,192,27319,1,0,0:0:0:0:
64,192,27453,1,0,0:0:0:0:
192,192,27587,1,0,0:0:0:0:
448,192,27587,1,0,0:0:0:60:clap.wav
320,192,27587,1,0,0:0:0:0:
320,192,27854,1,0,0:0:0:0:
192,192,27988,1,0,0:0:0:0:
64,192,28122,1,0,0:0:0:0:
448,192,28122,1,0,0:0:0:0:
320,192,28256,1,0,0:0:0:0:
192,192,28390,1,0,0:0:0:0:
64,192,28524,1,0,0:0:0:0:
192,192,28658,1,0,0:0:0:0:
448,192,28658,1,0,0:0:0:60:clap.wav
320,192,28658,1,0,0:0:0:0:
64,192,28926,1,0,0:0:0:0:
320,192,29060,1,0,0:0:0:0:
192,192,29194,1,0,0:0:0:0:
448,192,29194,1,0,0:0:0:0:
64,192,29328,1,0,0:0:0:0:
320,192,29462,1,0,0:0:0:0:
192,192,29595,1,0,0:0:0:0:
64,192,29729,1,0,0:0:0:60:clap.wav
320,192,29729,1,0,0:0:0:0:
448,192,29729,128,0,29997:0:0:0:0:
320,192,29997,128,0,30265:0:0:0:0:
64,192,30265,128,0,30533:0:0:0:0:
192,192,30265,1,0,0:0:0:0:
192,192,30667,1,0,0:0:0:0:
320,192,30801,1,0,0:0:0:60:clap.wav
448,192,30801,1,0,0:0:0:0:
64,192,30801,1,0,0:0:0:0:
320,192,31069,1,0,0:0:0:0:
448,192,31069,1,0,0:0:0:0:
192,192,31203,1,0,0:0:0:0:
448,192,31337,1,0,0:0:0:0:
64,192,31337,1,0,0:0:0:0:
192,192,31470,1,0,0:0:0:0:
448,192,31604,1,0,0:0:0:0:
320,192,31738,1,0,0:0:0:0:
448,192,31872,1,0,0:0:0:0:
64,192,31872,1,0,0:0:0:60:clap.wav
192,192,31872,1,0,0:0:0:0:
192,192,32140,1,0,0:0:0:0:
320,192,32274,1,0,0:0:0:0:
448,192,32408,1,0,0:0:0:0:
192,192,32408,1,0,0:0:0:0:
64,192,32542,1,0,0:0:0:0:
192,192,32676,1,0,0:0:0:0:
320,192,32676,128,0,32944:0:0:0:0:
448,192,32944,128,0,33212:0:0:0:0:
64,192,32944,1,0,0:0:0:60:clap.wav
192,192,33212,1,0,0:0:0:0:
64,192,33479,1,0,0:0:0:0:
320,192,33479,128,0,33747:0:0:0:0:
64,192,33881,1,0,0:0:0:0:
448,192,34015,1,0,0:0:0:0:
320,192,34015,1,0,0:0:0:0:
192,192,34283,1,0,0:0:0:0:
192,192,34551,128,0,35622:0:0:0:0:
64,192,34551,128,0,35087:0:0:0:0:
320,192,35087,128,0,35622:0:0:0:0:
448,192,35622,1,0,0:0:0:0:
64,192,35622,1,0,0:0:0:0:
192,192,35756,1,0,0:0:0:0:
448,192,35890,1,0,0:0:0:0:
320,192,36024,1,0,0:0:0:0:
64,192,36158,1,0,0:0:0:0:
192,192,36158,1,0,0:0:0:60:clap.wav
448,192,36426,1,0,0:0:0:0:
192,192,36560,1,0,0:0:0:0:
448,192,36694,1,0,0:0:0:0:
320,192,36694,1,0,0:0:0:0:
192,192,36828,1,0,0:0:0:0:
64,192,36962,1,0,0:0:0:0:
320,192,37095,1,0,0:0:0:0:
448,192,37229,1,0,0:0:0:0:
64,192,37229,1,0,0:0:0:60:clap.wav
320,192,37497,1,0,0:0:0:0:
64,192,37631,1,0,0:0:0:0:
320,192,37765,1,0,0:0:0:60:clap.wav
448,192,37765,1,0,0:0:0:0:
64,192,37899,1,0,0:0:0:60:clap.wav
448,192,38033,1,0,0:0:0:60:clap.wav
192,192,38167,1,0,0:0:0:0:
320,192,38301,1,0,0:0:0:60:clap.wav
448,192,38301,1,0,0:0:0:0:
320,192,38569,1,0,0:0:0:0:
192,192,38703,1,0,0:0:0:0:
448,192,38837,1,0,0:0:0:0:
320,192,39104,1,0,0:0:0:0:
64,192,39372,1,0,0:0:0:60:clap.wav
192,192,39372,128,0,39640:0:0:0:0:
448,192,39640,1,0,0:0:0:0:
320,192,39640,1,0,0:0:0:0:
64,192,39908,1,0,0:0:0:0:
320,192,39908,1,0,0:0:0:0:
192,192,40042,1,0,0:0:0:0:
320,192,40176,1,0,0:0:0:0:
448,192,40310,1,0,0:0:0:0:
64,192,40444,1,0,0:0:0:60:clap.wav
192,192,40444,128,0,40912:0:0:0:0:
320,192,40912,1,0,0:0:0:0:
448,192,40979,1,0,0:0:0:0:
64,192,41113,1,0,0:0:0:0:
320,192,41247,128,0,41515:0:0:0:0:
448,192,41515,1,0,0:0:0:0:
192,192,41515,128,0,41783:0:0:0:0:
448,192,41783,1,0,0:0:0:0:
320,192,41917,1,0,0:0:0:0:
64,192,42051,128,0,42587:0:0:0:0:
192,192,42051,1,0,0:0:0:0:
448,192,42185,1,0,0:0:0:0:
192,192,42319,1,0,0:0:0:0:
320,192,42587,128,0,43122:0:0:0:0:
448,192,42587,1,0,0:0:0:0:
64,192,42854,1,0,0:0:0:0:
192,192,43122,128,0,43658:0:0:0:0:
448,192,43122,1,0,0:0:0:0:
64,192,43390,1,0,0:0:0:0:
448,192,43658,1,0,0:0:0:0:
320,192,43658,1,0,0:0:0:0:
64,192,43926,1,0,0:0:0:0:
320,192,44060,1,0,0:0:0:0:
192,192,44194,1,0,0:0:0:0:
448,192,44194,1,0,0:0:0:0:
64,192,44194,1,0,0:0:0:0:
320,192,44328,1,0,0:0:0:0:
64,192,44462,1,0,0:0:0:0:
192,192,44595,1,0,0:0:0:0:
320,192,44729,1,0,0:0:0:60:clap.wav
448,192,44729,1,0,0:0:0:0:
320,192,44997,1,0,0:0:0:0:
192,192,45131,1,0,0:0:0:0:
64,192,45265,1,0,0:0:0:0:
448,192,45265,1,0,0:0:0:0:
320,192,45399,1,0,0:0:0:0:
64,192,45533,1,0,0:0:0:0:
192,192,45667,1,0,0:0:0:0:
320,192,45801,1,0,0:0:0:60:clap.wav
448,192,45801,1,0,0:0:0:0:
192,192,46069,1,0,0:0:0:0:
64,192,46203,1,0,0:0:0:70:clap.wav
448,192,46337,1,0,0:0:0:0:
320,192,46337,1,0,0:0:0:60:clap.wav
192,192,46470,1,0,0:0:0:60:clap.wav
64,192,46470,1,0,0:0:0:0:
320,192,46604,1,0,0:0:0:0:
448,192,46604,1,0,0:0:0:0:
64,192,46738,1,0,0:0:0:0:
448,192,46872,1,0,0:0:0:0:
192,192,46872,1,0,0:0:0:60:clap.wav
192,192,47140,1,0,0:0:0:0:
448,192,47274,1,0,0:0:0:0:
320,192,47408,1,0,0:0:0:0:
64,192,47408,128,0,47676:0:0:0:0:
192,192,47676,128,0,47944:0:0:0:0:
448,192,47676,1,0,0:0:0:0:
320,192,47944,128,0,48212:0:0:0:0:
64,192,47944,1,0,0:0:0:0:
448,192,48212,1,0,0:0:0:0:
64,192,48479,1,0,0:0:0:0:
448,192,48479,1,0,0:0:0:0:
320,192,48613,1,0,0:0:0:0:
192,192,48747,1,0,0:0:0:0:
64,192,48881,1,0,0:0:0:0:
320,192,49015,1,0,0:0:0:60:clap.wav
448,192,49015,1,0,0:0:0:0:
448,192,49283,1,0,0:0:0:0:
64,192,49417,1,0,0:0:0:0:
192,192,49551,1,0,0:0:0:0:
320,192,49551,1,0,0:0:0:0:
448,192,49685,1,0,0:0:0:0:
64,192,49819,1,0,0:0:0:0:
192,192,49953,1,0,0:0:0:0:
320,192,50087,1,0,0:0:0:60:clap.wav
448,192,50087,1,0,0:0:0:0:
320,192,50354,1,0,0:0:0:0:
192,192,50488,128,0,50622:0:0:0:0:
448,192,50488,1,0,0:0:0:0:
320,192,50622,128,0,51158:0:0:0:0:
64,192,50622,1,0,0:0:0:50:clap.wav
192,192,50756,1,0,0:0:0:50:clap.wav
64,192,50890,1,0,0:0:0:50:clap.wav
448,192,51158,128,0,51694:0:0:0:0:
192,192,51158,1,0,0:0:0:0:
64,192,51426,1,0,0:0:0:0:
192,192,51694,128,0,52229:0:0:0:0:
320,192,51694,1,0,0:0:0:0:
448,192,51962,1,0,0:0:0:0:
64,192,52229,1,0,0:0:0:0:
320,192,52229,1,0,0:0:0:0:
320,192,52497,1,0,0:0:0:0:
192,192,52497,1,0,0:0:0:0:
64,192,52765,1,0,0:0:0:0:
448,192,52765,1,0,0:0:0:0:
192,192,53033,1,0,0:0:0:0:
320,192,53167,1,0,0:0:0:0:
64,192,53301,1,0,0:0:0:0:
448,192,53301,1,0,0:0:0:0:
192,192,53435,1,0,0:0:0:0:
320,192,53569,1,0,0:0:0:0:
448,192,53703,1,0,0:0:0:0:
64,192,53837,1,0,0:0:0:0:
192,192,53837,1,0,0:0:0:0:
320,192,53970,1,0,0:0:0:0:
448,192,54104,1,0,0:0:0:0:
64,192,54372,1,0,0:0:0:0:
320,192,54372,1,0,0:0:0:0:
192,192,54506,1,0,0:0:0:0:
448,192,54640,1,0,0:0:0:0:
320,192,54774,1,0,0:0:0:0:
64,192,54908,1,0,0:0:0:0:
192,192,54908,1,0,0:0:0:0:
320,192,55176,1,0,0:0:0:0:
192,192,55310,1,0,0:0:0:0:
64,192,55444,1,0,0:0:0:0:
320,192,55444,1,0,0:0:0:0:
448,192,55578,1,0,0:0:0:0:
320,192,55712,1,0,0:0:0:0:
192,192,55845,1,0,0:0:0:0:
64,192,55979,1,0,0:0:0:0:
448,192,55979,1,0,0:0:0:0:
192,192,56247,1,0,0:0:0:0:
320,192,56247,1,0,0:0:0:0:
448,192,56515,1,0,0:0:0:0:
64,192,56515,1,0,0:0:0:0:
448,192,56783,1,0,0:0:0:0:
320,192,56783,1,0,0:0:0:0:
64,192,56917,1,0,0:0:0:0:
192,192,57051,1,0,0:0:0:0:
448,192,57051,1,0,0:0:0:0:
64,192,57185,1,0,0:0:0:0:
320,192,57319,1,0,0:0:0:0:
192,192,57453,1,0,0:0:0:0:
448,192,57587,1,0,0:0:0:0:
64,192,57587,1,0,0:0:0:0:
320,192,57720,1,0,0:0:0:0:
192,192,57854,1,0,0:0:0:0:
64,192,57988,1,0,0:0:0:0:
192,192,58122,1,0,0:0:0:0:
448,192,58122,1,0,0:0:0:0:
320,192,58256,1,0,0:0:0:0:
64,192,58390,1,0,0:0:0:0:
192,192,58658,1,0,0:0:0:0:
448,192,58658,1,0,0:0:0:0:
320,192,58792,1,0,0:0:0:0:
64,192,58926,1,0,0:0:0:0:
192,192,59060,1,0,0:0:0:0:
320,192,59194,1,0,0:0:0:0:
448,192,59194,1,0,0:0:0:0:
192,192,59462,1,0,0:0:0:0:
64,192,59595,1,0,0:0:0:0:
192,192,59729,1,0,0:0:0:0:
448,192,59729,1,0,0:0:0:0:
320,192,59863,1,0,0:0:0:0:
320,192,60265,1,0,0:0:0:0:
448,192,60265,1,0,0:0:0:0:
192,192,60533,1,0,0:0:0:0:
64,192,60533,1,0,0:0:0:0:
448,192,60801,1,0,0:0:0:0:
320,192,60801,1,0,0:0:0:0:
192,192,61069,1,0,0:0:0:0:
64,192,61337,1,0,0:0:0:60:clap.wav
448,192,61337,1,0,0:0:0:0:
192,192,61604,1,0,0:0:0:60:clap.wav
448,192,61604,1,0,0:0:0:0:
64,192,61872,1,0,0:0:0:0:
192,192,61872,1,0,0:0:0:60:clap.wav
192,192,62140,1,0,0:0:0:60:clap.wav
448,192,62140,1,0,0:0:0:0:
320,192,62408,1,0,0:0:0:0:
192,192,62408,1,0,0:0:0:60:clap.wav
448,192,62676,1,0,0:0:0:0:
64,192,62676,1,0,0:0:0:60:clap.wav
192,192,62810,1,0,0:0:0:60:clap.wav
320,192,62810,1,0,0:0:0:0:
64,192,62944,1,0,0:0:0:60:clap.wav
448,192,62944,1,0,0:0:0:0:
64,192,63479,1,0,0:0:0:60:clap.wav
192,192,63479,1,0,0:0:0:0:
448,192,63613,1,0,0:0:0:0:
320,192,63613,1,0,0:0:0:60:clap.wav
192,192,63747,1,0,0:0:0:60:clap.wav
64,192,63747,1,0,0:0:0:0:
448,192,64015,1,0,0:0:0:0:
192,192,64015,1,0,0:0:0:60:clap.wav
64,192,64283,1,0,0:0:0:0:
192,192,64283,1,0,0:0:0:60:clap.wav
192,192,64551,1,0,0:0:0:60:clap.wav
448,192,64551,1,0,0:0:0:0:
320,192,64819,1,0,0:0:0:60:clap.wav
448,192,64819,1,0,0:0:0:0:
64,192,64953,1,0,0:0:0:0:
192,192,64953,1,0,0:0:0:60:clap.wav
320,192,65087,1,0,0:0:0:60:clap.wav
448,192,65087,1,0,0:0:0:0:
448,192,65622,1,0,0:0:0:0:
320,192,65622,1,0,0:0:0:60:clap.wav
192,192,65756,1,0,0:0:0:60:clap.wav
64,192,65756,1,0,0:0:0:0:
320,192,65890,1,0,0:0:0:60:clap.wav
448,192,65890,1,0,0:0:0:0:
64,192,66158,1,0,0:0:0:0:
320,192,66158,1,0,0:0:0:60:clap.wav
192,192,66426,1,0,0:0:0:0:
320,192,66426,1,0,0:0:0:60:clap.wav
448,192,66694,1,0,0:0:0:0:
192,192,66694,1,0,0:0:0:60:clap.wav
64,192,66962,1,0,0:0:0:0:
192,192,66962,1,0,0:0:0:60:clap.wav
320,192,67095,1,0,0:0:0:60:clap.wav
448,192,67095,1,0,0:0:0:0:
64,192,67229,1,0,0:0:0:0:
192,192,67229,1,0,0:0:0:60:clap.wav
192,192,67497,1,0,0:0:0:60:clap.wav
448,192,67497,1,0,0:0:0:0:
64,192,67765,128,0,68301:0:0:0:0:
320,192,68301,128,0,68837:0:0:0:0:
448,192,68837,128,0,69104:0:0:0:0:
64,192,68837,1,0,0:0:0:60:drum.wav
64,192,69104,1,0,0:0:0:60:drum.wav
448,192,69372,1,0,0:0:0:60:drum.wav
320,192,69462,1,0,0:0:0:0:
192,192,69551,1,0,0:0:0:0:
64,192,69640,1,0,0:0:0:0:
64,192,69908,128,0,70176:0:0:0:60:finish.wav
192,192,69908,1,0,0:0:0:0:
448,192,69908,1,0,0:0:0:0:
192,192,70176,128,0,70444:0:0:0:0:
320,192,70444,128,0,70712:0:0:0:0:
448,192,70444,1,0,0:0:0:60:clap.wav
448,192,70712,128,0,70845:0:0:0:0:
192,192,70845,128,0,70979:0:0:0:0:
64,192,70979,1,0,0:0:0:0:
448,192,70979,128,0,71247:0:0:0:0:
64,192,71247,128,0,71515:0:0:0:0:
320,192,71515,128,0,72051:0:0:0:0:
192,192,71515,1,0,0:0:0:60:clap.wav
64,192,72051,128,0,72988:0:0:0:0:
448,192,72051,1,0,0:0:0:0:
320,192,72587,1,0,0:0:0:60:clap.wav
192,192,72587,1,0,0:0:0:0:
192,192,72988,1,0,0:0:0:0:
320,192,73055,1,0,0:0:0:0:
448,192,73122,128,0,73390:0:0:0:0:
64,192,73122,1,0,0:0:0:0:
192,192,73390,128,0,73524:0:0:0:0:
64,192,73524,128,0,73658:0:0:0:0:
320,192,73658,128,0,73926:0:0:0:0:
448,192,73658,1,0,0:0:0:60:clap.wav
448,192,73926,128,0,74194:0:0:0:0:
64,192,74194,128,0,74462:0:0:0:0:
192,192,74194,1,0,0:0:0:0:
192,192,74462,128,0,74729:0:0:0:0:
320,192,74729,128,0,74997:0:0:0:0:
448,192,74729,1,0,0:0:0:60:clap.wav
192,192,74997,128,0,75131:0:0:0:0:
448,192,75131,128,0,75265:0:0:0:0:
192,192,75265,128,0,75533:0:0:0:0:
320,192,75265,1,0,0:0:0:0:
64,192,75533,128,0,75801:0:0:0:0:
448,192,75801,128,0,76337:0:0:0:0:
320,192,75801,1,0,0:0:0:60:clap.wav
64,192,76337,128,0,77274:0:0:0:0:
192,192,76337,1,0,0:0:0:0:
320,192,76872,1,0,0:0:0:60:clap.wav
448,192,76872,1,0,0:0:0:0:
192,192,77274,1,0,0:0:0:0:
320,192,77341,1,0,0:0:0:0:
448,192,77408,128,0,77676:0:0:0:0:
64,192,77408,1,0,0:0:0:0:
192,192,77676,128,0,77810:0:0:0:0:
64,192,77810,128,0,77944:0:0:0:0:
320,192,77944,128,0,78212:0:0:0:0:
448,192,77944,1,0,0:0:0:60:clap.wav
448,192,78212,128,0,78479:0:0:0:0:
64,192,78479,128,0,78747:0:0:0:60:finish.wav
320,192,78479,1,0,0:0:0:0:
192,192,78747,128,0,79015:0:0:0:0:
320,192,79015,128,0,79283:0:0:0:0:
64,192,79015,1,0,0:0:0:60:clap.wav
448,192,79283,128,0,79417:0:0:0:0:
64,192,79417,128,0,79551:0:0:0:0:
448,192,79551,128,0,79819:0:0:0:0:
192,192,79551,1,0,0:0:0:0:
320,192,79819,128,0,80087:0:0:0:0:
64,192,80087,128,0,80622:0:0:0:0:
192,192,80087,1,0,0:0:0:60:clap.wav
192,192,80622,1,0,0:0:0:0:
448,192,80622,128,0,81560:0:0:0:0:
320,192,81158,1,0,0:0:0:0:
64,192,81158,1,0,0:0:0:60:clap.wav
320,192,81560,1,0,0:0:0:0:
192,192,81627,1,0,0:0:0:0:
64,192,81694,1,0,0:0:0:0:
448,192,81694,128,0,81962:0:0:0:0:
320,192,81962,128,0,82095:0:0:0:0:
192,192,82095,128,0,82229:0:0:0:0:
320,192,82229,128,0,82497:0:0:0:0:
448,192,82229,1,0,0:0:0:60:clap.wav
64,192,82497,128,0,82765:0:0:0:0:
192,192,82765,1,0,0:0:0:0:
448,192,82765,128,0,83033:0:0:0:0:
320,192,83033,128,0,83301:0:0:0:0:
192,192,83301,128,0,83569:0:0:0:0:
64,192,83301,1,0,0:0:0:60:clap.wav
448,192,83569,128,0,83703:0:0:0:0:
64,192,83703,128,0,83837:0:0:0:0:
192,192,83837,128,0,84104:0:0:0:0:
320,192,83837,1,0,0:0:0:0:
320,192,84104,128,0,84372:0:0:0:0:
448,192,84372,128,0,84908:0:0:0:0:
192,192,84372,1,0,0:0:0:60:clap.wav
64,192,84908,128,0,85845:0:0:0:0:
192,192,84908,1,0,0:0:0:0:
192,192,85444,1,0,0:0:0:0:
320,192,85444,1,0,0:0:0:60:clap.wav
192,192,85845,1,0,0:0:0:0:
320,192,85912,5,0,0:0:0:0:
448,192,85979,128,0,86247:0:0:0:0:
320,192,86247,128,0,86381:0:0:0:0:
192,192,86381,128,0,86515:0:0:0:0:
64,192,86515,128,0,86783:0:0:0:0:
192,192,86783,128,0,87051:0:0:0:0:
320,192,87051,1,0,0:0:0:60:finish.wav
448,192,87051,128,0,87319:0:0:0:0:
64,192,87051,1,0,0:0:0:0:
320,192,87319,128,0,87587:0:0:0:0:
192,192,87587,128,0,87854:0:0:0:0:
448,192,87587,1,0,0:0:0:60:clap.wav
64,192,87587,1,0,0:0:0:0:
448,192,87854,128,0,87988:0:0:0:0:
64,192,87988,128,0,88122:0:0:0:0:
448,192,88122,128,0,88390:0:0:0:0:
320,192,88122,1,0,0:0:0:0:
192,192,88122,1,0,0:0:0:0:
64,192,88390,128,0,88658:0:0:0:0:
320,192,88658,128,0,89194:0:0:0:0:
192,192,88658,1,0,0:0:0:0:
448,192,88658,1,0,0:0:0:60:clap.wav
64,192,89194,128,0,90131:0:0:0:0:
192,192,89194,1,0,0:0:0:0:
448,192,89194,1,0,0:0:0:0:
192,192,89729,1,0,0:0:0:0:
448,192,89729,1,0,0:0:0:0:
320,192,89729,1,0,0:0:0:60:clap.wav
192,192,90131,1,0,0:0:0:0:
320,192,90198,1,0,0:0:0:0:
448,192,90265,128,0,90533:0:0:0:0:
192,192,90265,1,0,0:0:0:0:
64,192,90265,1,0,0:0:0:0:
192,192,90533,128,0,90667:0:0:0:0:
320,192,90667,128,0,90801:0:0:0:0:
448,192,90801,128,0,91069:0:0:0:0:
64,192,90801,1,0,0:0:0:60:clap.wav
64,192,91069,128,0,91337:0:0:0:0:
448,192,91337,128,0,91604:0:0:0:0:
192,192,91337,1,0,0:0:0:0:
320,192,91337,1,0,0:0:0:0:
320,192,91604,128,0,91872:0:0:0:0:
192,192,91872,128,0,92140:0:0:0:0:
64,192,91872,1,0,0:0:0:0:
448,192,91872,1,0,0:0:0:60:clap.wav
64,192,92140,128,0,92274:0:0:0:0:
320,192,92274,128,0,92408:0:0:0:0:
192,192,92408,1,0,0:0:0:0:
64,192,92408,128,0,92676:0:0:0:0:
448,192,92408,1,0,0:0:0:0:
192,192,92676,128,0,92944:0:0:0:0:
320,192,92944,128,0,93479:0:0:0:0:
64,192,92944,1,0,0:0:0:60:clap.wav
448,192,92944,1,0,0:0:0:0:
448,192,93479,128,0,94417:0:0:0:0:
192,192,93479,1,0,0:0:0:0:
64,192,93479,1,0,0:0:0:0:
64,192,94015,1,0,0:0:0:0:
192,192,94015,1,0,0:0:0:60:clap.wav
320,192,94015,1,0,0:0:0:0:
320,192,94417,1,0,0:0:0:0:
192,192,94484,1,0,0:0:0:0:
64,192,94551,128,0,94819:0:0:0:0:
448,192,94551,1,0,0:0:0:0:
320,192,94551,1,0,0:0:0:0:
192,192,94819,128,0,94953:0:0:0:0:
320,192,94953,128,0,95087:0:0:0:0:
448,192,95087,128,0,95354:0:0:0:0:
64,192,95087,1,0,0:0:0:60:clap.wav
192,192,95354,128,0,95622:0:0:0:0:
64,192,95622,128,0,95890:0:0:0:0:
320,192,95622,1,0,0:0:0:60:finish.wav
448,192,95622,1,0,0:0:0:0:
192,192,95890,128,0,96158:0:0:0:0:
320,192,96158,128,0,96426:0:0:0:0:
64,192,96158,1,0,0:0:0:60:clap.wav
448,192,96158,1,0,0:0:0:0:
64,192,96426,128,0,96560:0:0:0:0:
448,192,96560,128,0,96694:0:0:0:0:
64,192,96694,128,0,96962:0:0:0:0:
192,192,96694,1,0,0:0:0:0:
320,192,96694,1,0,0:0:0:0:
192,192,96962,128,0,97229:0:0:0:0:
320,192,97229,128,0,97765:0:0:0:0:
448,192,97229,1,0,0:0:0:0:
64,192,97229,1,0,0:0:0:60:clap.wav
448,192,97765,128,0,98703:0:0:0:0:
192,192,97765,1,0,0:0:0:0:
64,192,97765,1,0,0:0:0:0:
320,192,98301,1,0,0:0:0:0:
192,192,98301,1,0,0:0:0:60:clap.wav
64,192,98301,1,0,0:0:0:0:
320,192,98703,1,0,0:0:0:0:
192,192,98770,1,0,0:0:0:0:
64,192,98837,128,0,99104:0:0:0:0:
448,192,98837,1,0,0:0:0:0:
320,192,98837,1,0,0:0:0:0:
320,192,99104,128,0,99238:0:0:0:0:
192,192,99238,128,0,99372:0:0:0:0:
448,192,99372,128,0,99640:0:0:0:0:
64,192,99372,1,0,0:0:0:60:clap.wav
320,192,99640,128,0,99908:0:0:0:0:
64,192,99908,128,0,100176:0:0:0:0:
448,192,99908,1,0,0:0:0:0:
192,192,99908,1,0,0:0:0:0:
192,192,100176,128,0,100444:0:0:0:0:
64,192,100444,1,0,0:0:0:0:
448,192,100444,128,0,100712:0:0:0:0:
320,192,100444,1,0,0:0:0:60:clap.wav
320,192,100712,128,0,100845:0:0:0:0:
64,192,100845,128,0,100979:0:0:0:0:
448,192,100979,1,0,0:0:0:0:
320,192,100979,128,0,101247:0:0:0:0:
192,192,100979,1,0,0:0:0:0:
192,192,101247,128,0,101515:0:0:0:0:
448,192,101515,128,0,102051:0:0:0:0:
64,192,101515,1,0,0:0:0:0:
320,192,101515,1,0,0:0:0:60:clap.wav
192,192,102051,128,0,102319:0:0:0:0:
64,192,102051,128,0,102319:0:0:0:0:
320,192,102051,1,0,0:0:0:0:
192,192,102587,128,0,102854:0:0:0:0:
320,192,102587,128,0,102854:0:0:0:0:
64,192,103122,128,0,104194:0:0:0:0:
320,192,103122,128,0,103390:0:0:0:0:
448,192,103122,128,0,103390:0:0:0:0:
448,192,104194,1,0,0:0:0:60:clap.wav
192,192,104194,1,0,0:0:0:0:
320,192,104462,1,0,0:0:0:60:clap.wav
64,192,104462,1,0,0:0:0:0:
192,192,104729,1,0,0:0:0:60:clap.wav
448,192,104729,1,0,0:0:0:0:
320,192,104997,1,0,0:0:0:60:clap.wav
192,192,104997,1,0,0:0:0:0:
448,192,105131,1,0,0:0:0:0:
64,192,105265,1,0,0:0:0:0:
320,192,105265,1,0,0:0:0:0:
192,192,105533,1,0,0:0:0:60:clap.wav
320,192,105533,1,0,0:0:0:0:
448,192,105801,1,0,0:0:0:0:
320,192,105801,1,0,0:0:0:60:clap.wav
64,192,106337,1,0,0:0:0:60:clap.wav
320,192,106337,1,0,0:0:0:0:
192,192,106470,1,0,0:0:0:60:clap.wav
448,192,106470,1,0,0:0:0:0:
320,192,106604,1,0,0:0:0:0:
64,192,106604,1,0,0:0:0:60:clap.wav
448,192,106872,1,0,0:0:0:0:
64,192,106872,1,0,0:0:0:60:clap.wav
320,192,107140,1,0,0:0:0:60:clap.wav
448,192,107140,1,0,0:0:0:0:
192,192,107274,1,0,0:0:0:0:
320,192,107341,1,0,0:0:0:0:
448,192,107408,1,0,0:0:0:0:
64,192,107676,1,0,0:0:0:60:clap.wav
448,192,107676,1,0,0:0:0:0:
192,192,107810,1,0,0:0:0:60:clap.wav
320,192,107810,1,0,0:0:0:0:
448,192,107944,1,0,0:0:0:0:
64,192,107944,1,0,0:0:0:60:clap.wav
448,192,108212,1,0,0:0:0:0:
64,192,108479,1,0,0:0:0:0:
320,192,108479,1,0,0:0:0:60:clap.wav
448,192,108747,1,0,0:0:0:60:clap.wav
320,192,108747,1,0,0:0:0:0:
64,192,109015,1,0,0:0:0:0:
192,192,109015,1,0,0:0:0:60:clap.wav
320,192,109283,1,0,0:0:0:60:clap.wav
448,192,109283,1,0,0:0:0:0:
64,192,109417,1,0,0:0:0:0:
448,192,109551,1,0,0:0:0:0:
192,192,109551,1,0,0:0:0:60:clap.wav
64,192,109685,128,0,109819:0:0:0:0:
320,192,109819,1,0,0:0:0:60:clap.wav
192,192,109819,1,0,0:0:0:0:
448,192,109953,128,0,110087:0:0:0:0:
192,192,110087,1,0,0:0:0:60:clap.wav
64,192,110087,1,0,0:0:0:0:
320,192,110354,1,0,0:0:0:60:clap.wav
192,192,110354,128,0,110488:0:0:0:0:
448,192,110622,1,0,0:0:0:60:clap.wav
64,192,110622,1,0,0:0:0:0:
320,192,110622,1,0,0:0:0:0:
64,192,110890,1,0,0:0:0:0:
64,192,111158,1,0,0:0:0:0:
448,192,111158,1,0,0:0:0:60:clap.wav
448,192,111426,1,0,0:0:0:0:
448,192,111694,1,0,0:0:0:60:clap.wav
64,192,111694,1,0,0:0:0:0:
192,192,111694,1,0,0:0:0:0:
