osu file format v14

[General]
AudioFilename: audio.mp3
AudioLeadIn: 0
PreviewTime: 39098
Countdown: 0
SampleSet: Soft
StackLeniency: 0.7
Mode: 3
LetterboxInBreaks: 0
SpecialStyle: 0
WidescreenStoryboard: 1

[Editor]
DistanceSpacing: 1
BeatDivisor: 4
GridSize: 4
TimelineZoom: 1.7

[Metadata]
Title:Hare Tokidoki Melancholic
TitleUnicode:ハレ トキドキ メランコリック
Artist:Coconatsu
ArtistUnicode:ここなつ
Creator:Shima Rin
Version:ADVANCED
Source:SOUND VOLTEX VIVID WAVE
Tags:SDVX BEMANI KONAMI Tofu1222 FAMoss ひなビタ♪ HinaBitter♪ TOMOSUKE 富士見書房 FujimiShobo 東雲心菜 Cocona Shinonome 小澤亜李 Ari Ozawa 東雲夏陽 Natsuhi Shinonome 日南結里 Yuri Hinami 栗原暁 Satoru Kurihara Jazzin'park 池田充徳 Mitsunori Ikeda Video Game Japanese
BeatmapID:2356472
BeatmapSetID:1127956

[Difficulty]
HPDrainRate:7.5
CircleSize:4
OverallDifficulty:7.5
ApproachRate:5
SliderMultiplier:1.4
SliderTickRate:1

[Events]
//Background and Video events
0,0,"BG.jpg",0,0
//Break Periods
//Storyboard Layer 0 (Background)
//Storyboard Layer 1 (Fail)
//Storyboard Layer 2 (Pass)
//Storyboard Layer 3 (Foreground)
//Storyboard Layer 4 (Overlay)
//Storyboard Sound Samples

[TimingPoints]
1598,400,4,2,1,50,1,0
52798,-100,4,2,1,50,0,1
65598,-100,4,2,1,50,0,0
66598,-100,4,2,1,50,0,1
77998,-100,4,2,1,50,0,0
78398,-100,4,2,1,50,0,1
91198,-100,4,2,1,50,0,0

[HitObjects]
320,192,1598,5,0,0:0:0:0:
448,192,1598,1,0,0:0:0:0:
64,192,2198,1,0,0:0:0:0:
192,192,2198,1,0,0:0:0:0:
192,192,4798,1,0,0:0:0:0:
448,192,4798,1,0,0:0:0:0:
64,192,5398,1,0,0:0:0:0:
320,192,5398,1,0,0:0:0:0:
192,192,5998,1,0,0:0:0:0:
320,192,5998,1,0,0:0:0:0:
64,192,6798,1,0,0:0:0:0:
64,192,7198,1,0,0:0:0:0:
192,192,7598,1,0,0:0:0:0:
320,192,7998,1,0,0:0:0:0:
448,192,7998,128,0,8598:0:0:0:0:
64,192,8598,1,0,0:0:0:0:
192,192,8598,1,0,0:0:0:0:
320,192,8998,1,0,0:0:0:0:
448,192,9198,1,0,0:0:0:0:
192,192,9998,1,0,0:0:0:0:
320,192,10598,1,0,0:0:0:0:
64,192,10998,1,0,0:0:0:0:
192,192,11198,1,0,0:0:0:0:
448,192,11198,1,0,0:0:0:0:
64,192,11798,1,0,0:0:0:0:
320,192,11798,1,0,0:0:0:0:
192,192,12398,1,0,0:0:0:0:
320,192,12398,1,0,0:0:0:0:
320,192,14398,1,2,0:0:0:0:
448,192,14398,1,0,0:0:0:0:
64,192,14998,1,2,0:0:0:0:
192,192,14998,1,0,0:0:0:0:
320,192,15198,1,0,0:0:0:0:
448,192,15398,1,0,0:0:0:0:
64,192,15798,1,0,0:0:0:0:
192,192,15998,1,0,0:0:0:0:
448,192,16198,1,0,0:0:0:0:
64,192,16398,1,0,0:0:0:50:Cymatics - Snare 3 - B.wav
192,192,16998,1,0,0:0:0:30:punchy snare 35.wav
320,192,17198,1,0,0:0:0:50:Cymatics - Snare 3 - B.wav
64,192,17598,1,2,0:0:0:0:
448,192,17598,1,0,0:0:0:0:
192,192,17798,1,0,0:0:0:0:
320,192,17998,1,0,0:0:0:0:
64,192,18198,1,2,0:0:0:0:
448,192,18198,1,0,0:0:0:0:
320,192,18398,1,0,0:0:0:0:
192,192,18598,1,0,0:0:0:0:
64,192,18798,1,2,0:0:0:0:
448,192,18798,1,0,0:0:0:0:
192,192,18998,1,0,0:0:0:0:
320,192,19198,1,0,0:0:0:0:
64,192,19398,1,0,0:0:0:30:punchy snare 35.wav
448,192,19598,1,0,0:0:0:30:punchy snare 35.wav
64,192,19798,1,0,0:0:0:30:punchy snare 35.wav
448,192,20198,1,0,0:0:0:30:punchy snare 35.wav
192,192,20498,1,0,0:0:0:30:punchy snare 35.wav
320,192,20598,1,0,0:0:0:30:punchy snare 35.wav
192,192,20698,1,0,0:0:0:30:punchy snare 35.wav
64,192,20798,1,2,0:0:0:0:
448,192,20798,1,0,0:0:0:0:
192,192,21398,1,2,0:0:0:0:
320,192,21398,1,0,0:0:0:0:
448,192,21598,1,0,0:0:0:0:
64,192,21798,1,0,0:0:0:0:
320,192,21998,1,0,0:0:0:0:
192,192,22198,1,0,0:0:0:0:
320,192,22398,1,0,0:0:0:0:
64,192,22598,1,0,0:0:0:0:
448,192,22798,1,0,0:0:0:0:
192,192,22998,1,0,0:0:0:50:Cymatics - Snare 3 - B.wav
320,192,23198,1,0,0:0:0:50:Cymatics - Snare 3 - B.wav
192,192,23398,1,0,0:0:0:50:Cymatics - Snare 3 - B.wav
320,192,23598,1,0,0:0:0:50:Cymatics - Snare 3 - B.wav
192,192,23798,1,0,0:0:0:50:Cymatics - Snare 3 - B.wav
320,192,23998,1,2,0:0:0:0:
448,192,23998,1,0,0:0:0:0:
64,192,24198,1,0,0:0:0:0:
320,192,24398,1,0,0:0:0:0:
64,192,24598,1,2,0:0:0:0:
192,192,24598,1,0,0:0:0:0:
448,192,24798,1,0,0:0:0:0:
192,192,24998,1,0,0:0:0:0:
320,192,25198,1,2,0:0:0:0:
448,192,25198,1,0,0:0:0:0:
64,192,25398,1,0,0:0:0:0:
320,192,25598,1,0,0:0:0:0:
192,192,26198,1,0,0:0:0:0:
320,192,26398,1,0,0:0:0:0:
192,192,26598,1,0,0:0:0:0:
320,192,26798,1,0,0:0:0:0:
64,192,26998,1,0,0:0:0:0:
192,192,27198,1,2,0:0:0:0:
448,192,27198,1,4,0:0:0:0:
320,192,27398,1,0,0:0:0:0:
448,192,27598,1,0,0:0:0:0:
64,192,27798,1,2,0:0:0:0:
320,192,27798,1,0,0:0:0:0:
192,192,27998,1,0,0:0:0:50:Cymatics - Snare 3 - B.wav
64,192,28198,1,0,0:0:0:0:
448,192,28398,1,0,0:0:0:0:
320,192,28998,1,0,0:0:0:0:
192,192,29298,1,0,0:0:0:0:
64,192,29598,1,0,0:0:0:50:Cymatics - Snare 3 - B.wav
320,192,29898,1,0,0:0:0:0:
192,192,30198,1,0,0:0:0:0:
64,192,30398,1,2,0:0:0:0:
448,192,30398,1,0,0:0:0:0:
320,192,30598,1,0,0:0:0:0:
192,192,30798,1,0,0:0:0:0:
64,192,30998,1,2,0:0:0:0:
448,192,30998,1,0,0:0:0:0:
192,192,31198,1,0,0:0:0:50:Cymatics - Snare 3 - B.wav
320,192,31398,1,0,0:0:0:0:
64,192,31598,1,2,0:0:0:0:
448,192,31598,1,0,0:0:0:0:
192,192,32198,1,0,0:0:0:0:
320,192,32398,1,0,0:0:0:0:
448,192,32598,1,0,0:0:0:0:
64,192,32798,1,0,0:0:0:50:Cymatics - Snare 3 - B.wav
320,192,33098,1,0,0:0:0:30:punchy snare 35.wav
192,192,33398,1,0,0:0:0:30:punchy snare 35.wav
64,192,33598,1,2,0:0:0:0:
320,192,33598,1,0,0:0:0:0:
192,192,33798,1,0,0:0:0:0:
64,192,33998,1,0,0:0:0:50:Cymatics - Snare 3 - B.wav
192,192,34198,1,2,0:0:0:0:
448,192,34198,1,0,0:0:0:0:
320,192,34398,1,0,0:0:0:50:Cymatics - Snare 3 - B.wav
448,192,34598,1,0,0:0:0:0:
320,192,34798,1,0,0:0:0:0:
192,192,34998,1,0,0:0:0:0:
64,192,35198,1,0,0:0:0:0:
448,192,35398,1,0,0:0:0:0:
320,192,35598,1,0,0:0:0:0:
192,192,35798,1,0,0:0:0:30:punchy snare 35.wav
448,192,35998,1,0,0:0:0:50:Cymatics - Snare 3 - B.wav
320,192,36598,1,0,0:0:0:0:
64,192,36798,1,2,0:0:0:0:
448,192,36798,1,0,0:0:0:0:
192,192,36998,1,0,0:0:0:0:
320,192,37198,1,0,0:0:0:0:
64,192,37398,1,2,0:0:0:0:
448,192,37398,1,0,0:0:0:0:
320,192,37598,1,0,0:0:0:0:
192,192,37798,1,0,0:0:0:0:
64,192,37998,1,2,0:0:0:0:
448,192,37998,1,0,0:0:0:0:
192,192,38198,1,0,0:0:0:0:
320,192,38398,1,0,0:0:0:0:
64,192,38598,1,0,0:0:0:0:
448,192,38798,1,0,0:0:0:0:
192,192,39198,128,0,39598:0:0:0:70:tom01.wav
320,192,39598,128,0,39998:0:0:0:0:
64,192,39998,1,4,0:0:0:0:
448,192,39998,128,0,41598:0:0:0:0:
192,192,40198,1,0,0:0:0:0:
320,192,40398,1,0,0:0:0:0:
64,192,40598,1,0,0:0:0:0:
192,192,40798,128,0,41198:0:0:0:70:clap01.wav
64,192,41598,128,0,43198:0:0:0:0:
320,192,41598,1,0,0:0:0:0:
448,192,41798,1,0,0:0:0:0:
192,192,41998,1,0,0:0:0:0:
320,192,42198,1,0,0:0:0:0:
448,192,42398,128,0,42798:0:0:0:70:clap01.wav
192,192,43198,1,0,0:0:0:0:
320,192,43198,128,0,44798:0:0:0:0:
448,192,43398,1,0,0:0:0:0:
64,192,43598,1,0,0:0:0:0:
192,192,43798,1,0,0:0:0:0:
448,192,43998,128,0,44398:0:0:0:70:clap01.wav
64,192,44398,128,0,44798:0:0:0:0:
192,192,44798,128,0,46398:0:0:0:0:
448,192,44798,128,0,45398:0:0:0:0:
64,192,45398,1,0,0:0:0:0:
320,192,45598,128,0,46398:0:0:0:70:clap01.wav
64,192,46398,1,2,0:0:0:0:
448,192,46398,1,0,0:0:0:0:
192,192,46598,1,0,0:0:0:0:
320,192,46798,1,2,0:0:0:0:
448,192,46798,1,0,0:0:0:0:
192,192,46998,1,0,0:0:0:0:
64,192,47198,1,2,0:0:0:0:
448,192,47198,1,0,0:0:0:70:clap01.wav
320,192,47398,1,0,0:0:0:0:
64,192,47598,1,2,0:0:0:0:
192,192,47598,1,0,0:0:0:0:
320,192,47798,1,0,0:0:0:0:
64,192,47998,1,2,0:0:0:0:
448,192,47998,1,0,0:0:0:0:
192,192,48198,1,0,0:0:0:0:
320,192,48398,1,2,0:0:0:0:
448,192,48398,1,0,0:0:0:0:
192,192,48598,1,0,0:0:0:0:
64,192,48798,1,2,0:0:0:0:
448,192,48798,1,0,0:0:0:70:clap01.wav
320,192,48998,1,0,0:0:0:0:
64,192,49198,1,2,0:0:0:0:
192,192,49198,1,0,0:0:0:0:
320,192,49398,1,0,0:0:0:0:
64,192,49598,1,2,0:0:0:0:
448,192,49598,1,0,0:0:0:0:
192,192,49798,1,2,0:0:0:0:
320,192,49798,1,0,0:0:0:0:
64,192,49998,1,2,0:0:0:0:
448,192,49998,1,0,0:0:0:0:
192,192,50198,1,2,0:0:0:0:
320,192,50198,1,0,0:0:0:0:
64,192,50398,1,2,0:0:0:0:
448,192,50398,1,0,0:0:0:70:clap01.wav
192,192,50598,1,2,0:0:0:0:
320,192,50598,1,0,0:0:0:0:
64,192,50798,1,2,0:0:0:0:
448,192,50798,1,0,0:0:0:0:
192,192,50998,1,2,0:0:0:0:
320,192,50998,1,0,0:0:0:0:
64,192,51198,1,0,0:0:0:70:clap01.wav
448,192,51198,1,0,0:0:0:0:
192,192,51398,1,0,0:0:0:0:
320,192,51598,1,0,0:0:0:70:tom01.wav
192,192,51798,1,0,0:0:0:70:tom03.wav
64,192,51998,1,0,0:0:0:70:clap01.wav
448,192,51998,1,0,0:0:0:0:
320,192,52198,1,0,0:0:0:70:tom04.wav
64,192,52398,1,2,0:0:0:0:
192,192,52398,1,0,0:0:0:0:
64,192,52798,1,2,0:0:0:0:
448,192,52798,128,4,53598:0:0:0:0:
192,192,53398,1,0,0:0:0:0:
320,192,53598,1,0,0:0:0:0:
64,192,53798,128,2,53998:0:0:0:0:
192,192,53798,1,0,0:0:0:0:
448,192,53998,1,0,0:0:0:0:
192,192,54198,1,2,0:0:0:0:
320,192,54198,128,0,55198:0:0:0:0:
64,192,54398,1,0,0:0:0:0:
448,192,54598,1,0,0:0:0:0:
64,192,54798,1,0,0:0:0:0:
448,192,54998,1,0,0:0:0:0:
192,192,55198,1,0,0:0:0:30:punchy snare 35.wav
64,192,55398,1,0,0:0:0:0:
448,192,55598,128,0,55998:0:0:0:0:
64,192,55998,128,2,56198:0:0:0:0:
192,192,55998,1,4,0:0:0:0:
320,192,56298,1,2,0:0:0:0:
448,192,56298,128,0,56498:0:0:0:0:
64,192,56598,128,2,56798:0:0:0:0:
192,192,56598,1,0,0:0:0:0:
448,192,56998,1,0,0:0:0:0:
192,192,57198,1,0,0:0:0:0:
320,192,57398,1,0,0:0:0:70:clap01.wav
64,192,57598,1,0,0:0:0:0:
192,192,57798,1,0,0:0:0:0:
320,192,57998,1,2,0:0:0:0:
448,192,57998,128,0,58398:0:0:0:0:
64,192,58198,1,0,0:0:0:0:
192,192,58398,1,2,0:0:0:0:
320,192,58398,128,0,59198:0:0:0:0:
448,192,58598,1,0,0:0:0:0:
64,192,58798,1,0,0:0:0:70:tom02.wav
64,192,59198,128,4,59998:0:0:0:0:
192,192,59198,1,2,0:0:0:0:
320,192,59598,1,2,0:0:0:0:
448,192,59798,1,0,0:0:0:0:
192,192,59998,1,0,0:0:0:30:punchy snare 35.wav
320,192,60198,1,0,0:0:0:0:
64,192,60398,1,0,0:0:0:0:
448,192,60598,1,0,0:0:0:0:
192,192,60798,128,2,61198:0:0:0:0:
320,192,60798,1,0,0:0:0:0:
64,192,60998,1,0,0:0:0:0:
448,192,61198,1,0,0:0:0:0:
320,192,61398,1,2,0:0:0:0:
64,192,61598,1,0,0:0:0:30:punchy snare 35.wav
192,192,61598,1,0,0:0:0:0:
320,192,61998,1,0,0:0:0:0:
448,192,61998,128,0,62198:0:0:0:0:
64,192,62198,1,0,0:0:0:0:
192,192,62398,1,2,0:0:0:0:
320,192,62398,128,4,62798:0:0:0:0:
448,192,62598,1,0,0:0:0:0:
64,192,62798,1,0,0:0:0:30:punchy snare 35.wav
192,192,62998,128,2,63398:0:0:0:0:
320,192,62998,1,0,0:0:0:0:
448,192,63198,1,0,0:0:0:0:
64,192,63598,128,2,63998:0:0:0:0:
192,192,63598,1,0,0:0:0:0:
448,192,63998,1,0,0:0:0:0:
192,192,64198,1,2,0:0:0:0:
320,192,64198,128,0,64798:0:0:0:0:
64,192,64398,1,0,0:0:0:0:
448,192,64598,1,0,0:0:0:0:
64,192,64798,1,0,0:0:0:30:punchy snare 35.wav
192,192,64798,128,0,65198:0:0:0:0:
320,192,64998,1,2,0:0:0:0:
64,192,65198,1,0,0:0:0:0:
448,192,65198,128,0,65598:0:0:0:0:
320,192,65398,1,2,0:0:0:0:
64,192,65598,1,0,0:0:0:0:
448,192,65798,1,0,0:0:0:0:
64,192,65998,1,0,0:0:0:0:
448,192,66198,1,0,0:0:0:0:
320,192,66398,1,0,0:0:0:0:
64,192,66598,128,4,66998:0:0:0:0:
192,192,66598,1,2,0:0:0:0:
448,192,66798,1,0,0:0:0:0:
192,192,66998,1,2,0:0:0:0:
320,192,66998,128,0,67998:0:0:0:0:
448,192,67198,1,0,0:0:0:0:
64,192,67398,1,0,0:0:0:0:
448,192,67598,1,0,0:0:0:0:
64,192,67798,1,0,0:0:0:0:
448,192,67998,1,0,0:0:0:30:punchy snare 35.wav
320,192,68198,1,0,0:0:0:0:
192,192,68398,1,0,0:0:0:0:
448,192,68598,1,0,0:0:0:0:
320,192,68698,1,0,0:0:0:0:
64,192,68798,128,2,70398:0:0:0:0:
192,192,68798,1,4,0:0:0:0:
448,192,69398,128,0,69798:0:0:0:0:
320,192,69798,128,0,70198:0:0:0:0:
192,192,70198,1,0,0:0:0:70:clap01.wav
320,192,70398,1,2,0:0:0:0:
448,192,70398,128,0,70798:0:0:0:0:
64,192,70598,1,0,0:0:0:0:
192,192,70798,128,2,71198:0:0:0:0:
320,192,70798,1,0,0:0:0:0:
64,192,70998,1,0,0:0:0:0:
320,192,71198,128,0,71598:0:0:0:30:punchy snare 35.wav
448,192,71398,1,0,0:0:0:0:
64,192,71598,128,0,71998:0:0:0:70:tom02.wav
192,192,71598,1,0,0:0:0:0:
320,192,71998,1,4,0:0:0:0:
448,192,71998,1,2,0:0:0:0:
64,192,72398,1,2,0:0:0:0:
192,192,72398,1,0,0:0:0:0:
320,192,72598,1,0,0:0:0:0:
64,192,72798,1,2,0:0:0:0:
448,192,72798,1,0,0:0:0:0:
192,192,72998,1,0,0:0:0:0:
320,192,73098,1,2,0:0:0:0:
448,192,73098,1,0,0:0:0:0:
64,192,73198,1,0,0:0:0:0:
320,192,73398,1,2,0:0:0:0:
448,192,73398,1,0,0:0:0:0:
64,192,73598,1,2,0:0:0:0:
192,192,73598,1,0,0:0:0:0:
320,192,73798,1,0,0:0:0:0:
64,192,73998,1,2,0:0:0:0:
448,192,73998,1,0,0:0:0:0:
192,192,74198,1,0,0:0:0:0:
320,192,74398,1,2,0:0:0:0:
448,192,74398,1,0,0:0:0:0:
64,192,74698,1,2,0:0:0:0:
448,192,74698,1,0,0:0:0:0:
192,192,74798,1,0,0:0:0:70:clap01.wav
64,192,74998,1,2,0:0:0:0:
448,192,74998,1,0,0:0:0:0:
192,192,75198,1,2,0:0:0:0:
320,192,75198,1,0,0:0:0:0:
448,192,75398,1,0,0:0:0:0:
64,192,75598,1,2,0:0:0:0:
192,192,75598,1,0,0:0:0:0:
320,192,75798,1,0,0:0:0:0:
64,192,75998,1,2,0:0:0:0:
448,192,75998,1,0,0:0:0:0:
320,192,76298,1,2,0:0:0:0:
448,192,76298,1,0,0:0:0:0:
64,192,76398,1,0,0:0:0:70:clap01.wav
320,192,76598,1,2,0:0:0:0:
448,192,76598,1,0,0:0:0:0:
64,192,76798,1,2,0:0:0:0:
192,192,76798,1,0,0:0:0:0:
320,192,76998,1,0,0:0:0:0:
64,192,77198,1,2,0:0:0:0:
448,192,77198,1,0,0:0:0:0:
192,192,77398,1,0,0:0:0:0:
448,192,77598,1,0,0:0:0:0:
320,192,77798,1,0,0:0:0:0:
64,192,77998,1,0,0:0:0:70:clap layer 2.wav
192,192,77998,1,0,0:0:0:0:
320,192,78398,1,4,0:0:0:0:
448,192,78398,128,2,79598:0:0:0:0:
192,192,78798,1,2,0:0:0:0:
64,192,79198,1,2,0:0:0:0:
320,192,79498,1,2,0:0:0:0:
64,192,79598,1,0,0:0:0:0:
192,192,79798,1,2,0:0:0:0:
448,192,79798,128,0,81198:0:0:0:0:
320,192,79998,1,2,0:0:0:0:
192,192,80398,1,2,0:0:0:0:
64,192,80798,1,2,0:0:0:0:
320,192,81098,1,2,0:0:0:0:
64,192,81198,1,0,0:0:0:0:
192,192,81398,1,2,0:0:0:0:
448,192,81398,128,0,82798:0:0:0:0:
320,192,81598,1,2,0:0:0:0:
192,192,81998,1,2,0:0:0:0:
64,192,82398,1,2,0:0:0:0:
320,192,82698,1,2,0:0:0:0:
64,192,82798,1,0,0:0:0:0:
320,192,82998,128,2,84198:0:0:0:0:
448,192,82998,1,0,0:0:0:0:
64,192,83198,1,2,0:0:0:0:
448,192,83598,1,2,0:0:0:0:
64,192,83998,1,2,0:0:0:0:
192,192,84298,1,2,0:0:0:0:
320,192,84598,1,2,0:0:0:0:
64,192,84798,1,2,0:0:0:0:
448,192,84798,128,4,85598:0:0:0:0:
192,192,85198,1,2,0:0:0:0:
64,192,85598,1,2,0:0:0:0:
320,192,85598,128,0,86398:0:0:0:0:
192,192,85898,1,2,0:0:0:0:
64,192,86198,1,2,0:0:0:0:
192,192,86398,128,2,87198:0:0:0:0:
448,192,86398,1,0,0:0:0:0:
320,192,86798,1,2,0:0:0:0:
64,192,87198,128,2,87498:0:0:0:0:
448,192,87198,1,0,0:0:0:0:
320,192,87498,1,2,0:0:0:0:
192,192,87798,1,2,0:0:0:0:
320,192,87998,128,0,88398:0:0:0:0:
448,192,87998,1,2,0:0:0:0:
192,192,88398,128,0,88798:0:0:0:0:
64,192,88598,1,2,0:0:0:0:
320,192,88798,1,2,0:0:0:0:
448,192,88798,128,0,89198:0:0:0:0:
192,192,89098,1,2,0:0:0:0:
64,192,89198,128,0,89598:0:0:0:0:
320,192,89398,1,2,0:0:0:0:
192,192,89598,1,2,0:0:0:0:
448,192,89598,128,0,89998:0:0:0:0:
64,192,89998,1,2,0:0:0:0:
320,192,89998,128,0,90398:0:0:0:0:
64,192,90398,128,0,90798:0:0:0:0:
448,192,90398,1,0,0:0:0:0:
192,192,90798,128,0,91198:0:0:0:0:
320,192,90798,1,0,0:0:0:0:
64,192,91198,128,4,92798:0:0:0:0:
448,192,91198,1,0,0:0:0:0:
192,192,91398,1,0,0:0:0:0:
448,192,91998,1,0,0:0:0:70:clap01.wav
192,192,92798,128,0,94398:0:0:0:0:
448,192,93598,1,0,0:0:0:70:clap01.wav
320,192,94398,128,0,95998:0:0:0:0:
448,192,95198,1,0,0:0:0:70:clap01.wav
64,192,95998,128,0,96798:0:0:0:0:
192,192,96798,128,0,97598:0:0:0:70:clap01.wav
448,192,96798,1,0,0:0:0:0:
64,192,97598,128,0,107198:0:0:0:0:
448,192,98398,1,0,0:0:0:70:clap01.wav
192,192,99198,128,0,107198:0:0:0:0:
448,192,99998,1,0,0:0:0:70:clap01.wav
320,192,100798,128,0,107198:0:0:0:0:
448,192,101598,1,0,0:0:0:70:clap01.wav
448,192,102398,128,0,107198:0:0:0:0:
