osu file format v14

[General]
AudioFilename: cocococoaocaoca.mp3
AudioLeadIn: 0
PreviewTime: 60874
Countdown: 0
SampleSet: Normal
StackLeniency: 0.7
Mode: 1
LetterboxInBreaks: 0
WidescreenStoryboard: 0

[Editor]
Bookmarks: 1284,6529,10300,11775,22267,30136,31447,31611,31775,31939,32267,32759,43251,51120,53743,56365,58988,59480,59972,60300,61611,82595,87841,98333,103579,104070,104562,104890,105382,105874,106202,106693,107185,107513,107677,107841,108824,110136,110792,111447,112759,114070,115382,116038,116693,117185,117513,117841,118169,118661,119316,135054,140300,150628,151939,153415,154898,155074,155250
DistanceSpacing: 0.7
BeatDivisor: 4
GridSize: 32
TimelineZoom: 1

[Metadata]
Title:Honjitsu wa Makoto ni Rarirurein
TitleUnicode:本日は誠にラリルレイン
Artist:Cocoa, Chino, Rize, Chiya, Syaro, Maya, Megu
ArtistUnicode:ココア・チノ・リゼ・千夜・シャロ・マヤ・メグ
Creator:404 AccNotFound
Version:Cocoa maji tenshi huhahuhahuhhhhhh
Source:ご注文はうさぎですか??
Tags:gochiusa gochuumon wa usagi desu ka?? season 2 is the order a rabbit?? rabbit house tea party event song white fox kirara max hoto cocoa sakura ayane kafuu chino minase inori tedeza rize taneda risa ujimatsu chiya satou satomi kirima syaro uchida maaya jouga maya tokui sora natsu megumi murakawa rie 佐倉綾音 水瀬いのり 種田梨沙 佐藤聡美 内田真礼 ココア チノ リゼ シャロ 千夜 条河 麻耶 奈津 恵 徳井青空 村川梨衣
BeatmapID:1636576
BeatmapSetID:779341

[Difficulty]
HPDrainRate:4
CircleSize:5
OverallDifficulty:5
ApproachRate:5
SliderMultiplier:1.4
SliderTickRate:1

[Events]
//Background and Video events
0,0,"cocoaaa.jpg",0,0
//Break Periods
//Storyboard Layer 0 (Background)
//Storyboard Layer 1 (Fail)
//Storyboard Layer 2 (Pass)
//Storyboard Layer 3 (Foreground)
//Storyboard Sound Samples

[TimingPoints]
1284,327.868852459016,4,1,0,100,1,0
61611,-100,4,1,0,100,0,1
82595,-100,4,1,0,100,0,0
108824,-100,4,1,0,100,0,0
119316,-100,4,1,0,100,0,1
129808,-100,4,1,0,100,0,0
153415,329.67032967033,5,1,0,100,1,0
154898,352.941176470588,4,1,0,100,1,0

[HitObjects]
192,96,1611,5,8,0:0:0:0:
192,96,2267,1,8,0:0:0:0:
224,192,2923,1,8,0:0:0:0:
224,192,3087,1,8,0:0:0:0:
224,192,3579,1,8,0:0:0:0:
224,192,4234,1,8,0:0:0:0:
224,192,4890,1,8,0:0:0:0:
224,192,5546,1,8,0:0:0:0:
224,192,5710,1,8,0:0:0:0:
224,192,6202,1,8,0:0:0:0:
224,192,6529,1,0,0:0:0:0:
352,64,6857,1,8,0:0:0:0:
352,64,7103,1,8,0:0:0:0:
352,64,7185,1,0,0:0:0:0:
160,192,7349,1,0,0:0:0:0:
192,192,7513,1,8,0:0:0:0:
192,192,7841,1,0,0:0:0:0:
192,192,8169,1,8,0:0:0:0:
192,192,8333,1,0,0:0:0:0:
192,192,8661,1,0,0:0:0:0:
192,192,8824,1,8,0:0:0:0:
224,128,8988,1,0,0:0:0:0:
224,128,9070,1,8,0:0:0:0:
192,192,9152,1,0,0:0:0:0:
288,96,9316,1,0,0:0:0:0:
128,96,9480,1,8,0:0:0:0:
256,160,9726,1,8,0:0:0:0:
64,128,9808,1,0,0:0:0:0:
128,160,9890,1,0,0:0:0:0:
192,192,9972,1,8,0:0:0:0:
192,192,10136,1,8,0:0:0:0:
192,192,10300,1,0,0:0:0:0:
96,192,11283,1,0,0:0:0:0:
96,192,11365,1,0,0:0:0:0:
96,192,11447,1,8,0:0:0:0:
192,192,11775,1,4,0:0:0:0:
224,128,12103,1,8,0:0:0:0:
224,128,12431,1,0,0:0:0:0:
224,128,12759,1,8,0:0:0:0:
224,128,12923,1,4,0:0:0:0:
224,128,13251,1,4,0:0:0:0:
224,128,13579,1,8,0:0:0:0:
224,128,13743,1,0,0:0:0:0:
192,96,13906,1,0,0:0:0:0:
224,128,14070,1,8,0:0:0:0:
224,128,14398,1,0,0:0:0:0:
128,160,14726,1,8,0:0:0:0:
128,160,15054,1,0,0:0:0:0:
128,160,15382,1,8,0:0:0:0:
160,128,15546,1,4,0:0:0:0:
160,128,15874,1,4,0:0:0:0:
160,128,16202,1,8,0:0:0:0:
160,128,16365,1,0,0:0:0:0:
256,128,16529,1,0,0:0:0:0:
256,128,16693,1,8,0:0:0:0:
256,128,17021,1,0,0:0:0:0:
256,128,17349,1,8,0:0:0:0:
256,128,17677,1,0,0:0:0:0:
256,128,18005,1,8,0:0:0:0:
256,128,18169,1,4,0:0:0:0:
256,128,18497,1,4,0:0:0:0:
256,128,18824,1,8,0:0:0:0:
256,128,18988,1,0,0:0:0:0:
256,128,19152,1,0,0:0:0:0:
256,128,19316,1,8,0:0:0:0:
256,128,19644,1,0,0:0:0:0:
256,128,19972,1,8,0:0:0:0:
256,128,20300,1,0,0:0:0:0:
256,128,20464,1,0,0:0:0:0:
256,128,20628,1,8,0:0:0:0:
256,128,20792,1,0,0:0:0:0:
256,128,21120,1,0,0:0:0:0:
256,128,21283,1,8,0:0:0:0:
256,128,21447,1,0,0:0:0:0:
256,128,21529,1,0,0:0:0:0:
256,128,21611,1,8,0:0:0:0:
256,128,21775,1,8,0:0:0:0:
256,128,22267,1,4,0:0:0:0:
224,160,22595,1,8,0:0:0:0:
224,160,22759,1,8,0:0:0:0:
224,160,22923,1,0,0:0:0:0:
224,160,23087,1,0,0:0:0:0:
224,160,23251,1,8,0:0:0:0:
224,160,23415,1,0,0:0:0:0:
224,160,23743,1,0,0:0:0:0:
224,160,23906,1,8,0:0:0:0:
224,160,24234,1,0,0:0:0:0:
224,160,24562,1,12,0:0:0:0:
224,160,24890,1,4,0:0:0:0:
224,160,25218,1,0,0:0:0:0:
224,160,25382,1,0,0:0:0:0:
224,160,25546,1,8,0:0:0:0:
224,160,25710,1,8,0:0:0:0:
224,160,25874,1,0,0:0:0:0:
224,160,26038,1,8,0:0:0:0:
224,160,26365,1,0,0:0:0:0:
224,160,26529,1,8,0:0:0:0:
224,160,26857,1,0,0:0:0:0:
288,128,27185,1,12,0:0:0:0:
288,128,27513,1,4,0:0:0:0:
288,128,27841,1,8,0:0:0:0:
288,128,28005,1,8,0:0:0:0:
288,128,28169,1,0,0:0:0:0:
288,128,28497,1,8,0:0:0:0:
288,128,28661,1,0,0:0:0:0:
288,128,28824,1,8,0:0:0:0:
288,128,29152,1,8,0:0:0:0:
128,128,29316,1,8,0:0:0:0:
288,128,29480,1,0,0:0:0:0:
160,96,29644,1,0,0:0:0:0:
288,128,29808,1,8,0:0:0:0:
288,128,30136,1,0,0:0:0:0:
288,128,30300,1,0,0:0:0:0:
288,128,30464,1,8,0:0:0:0:
288,128,30628,1,0,0:0:0:0:
288,128,30792,1,8,0:0:0:0:
288,128,30956,1,8,0:0:0:0:
288,128,31120,1,0,0:0:0:0:
192,96,31447,1,12,0:0:0:0:
192,96,31611,1,4,0:0:0:0:
192,96,31775,1,4,0:0:0:0:
192,96,31939,1,12,0:0:0:0:
192,96,32267,1,4,0:0:0:0:
192,96,32595,1,0,0:0:0:0:
160,96,32677,1,0,0:0:0:0:
192,96,32759,1,8,0:0:0:0:
224,128,33087,1,8,0:0:0:0:
224,128,33415,1,0,0:0:0:0:
224,128,33579,1,0,0:0:0:0:
224,128,33743,1,8,0:0:0:0:
224,128,33906,1,0,0:0:0:0:
224,128,34234,1,0,0:0:0:0:
224,128,34398,1,8,0:0:0:0:
224,128,34726,1,0,0:0:0:0:
224,128,35054,1,12,0:0:0:0:
256,160,35382,1,4,0:0:0:0:
256,160,35710,1,8,0:0:0:0:
256,160,35874,1,8,0:0:0:0:
256,160,36038,1,0,0:0:0:0:
256,160,36202,1,0,0:0:0:0:
256,160,36365,1,8,0:0:0:0:
256,160,36529,1,0,0:0:0:0:
256,160,36857,1,0,0:0:0:0:
256,160,37021,1,8,0:0:0:0:
256,160,37349,1,0,0:0:0:0:
256,160,37677,1,12,0:0:0:0:
256,160,38005,1,4,0:0:0:0:
224,96,38333,1,8,0:0:0:0:
224,96,38661,1,0,0:0:0:0:
224,96,38824,1,0,0:0:0:0:
224,96,38988,1,8,0:0:0:0:
224,96,39152,1,0,0:0:0:0:
224,96,39316,1,8,0:0:0:0:
224,96,39644,1,8,0:0:0:0:
224,32,39808,1,0,0:0:0:0:
224,96,40136,1,0,0:0:0:0:
224,96,40300,1,8,0:0:0:0:
192,64,40464,1,0,0:0:0:0:
192,64,40546,1,0,0:0:0:0:
192,64,40628,1,0,0:0:0:0:
192,64,40956,1,12,0:0:0:0:
192,64,41283,1,0,0:0:0:0:
192,64,41447,1,0,0:0:0:0:
192,64,41611,1,12,0:0:0:0:
192,64,41939,1,0,0:0:0:0:
192,64,42103,1,0,0:0:0:0:
192,64,42267,1,8,0:0:0:0:
192,64,42431,1,8,0:0:0:0:
192,64,42513,1,0,0:0:0:0:
192,64,42595,1,8,0:0:0:0:
192,64,42759,1,8,0:0:0:0:
192,64,42923,1,0,0:0:0:0:
192,96,43251,1,12,0:0:0:0:
128,64,43579,1,0,0:0:0:0:
256,160,43743,1,0,0:0:0:0:
256,160,43906,1,8,0:0:0:0:
128,160,44234,1,0,0:0:0:0:
288,192,44398,1,8,0:0:0:0:
288,224,44726,1,0,0:0:0:0:
288,224,45054,1,0,0:0:0:0:
288,224,45218,1,8,0:0:0:0:
288,224,45546,1,12,0:0:0:0:
288,224,45874,1,0,0:0:0:0:
288,224,46365,1,0,0:0:0:0:
288,224,46529,1,8,0:0:0:0:
288,224,46857,1,0,0:0:0:0:
288,224,47021,1,0,0:0:0:0:
288,224,47349,1,0,0:0:0:0:
288,224,47677,1,0,0:0:0:0:
288,224,47841,1,8,0:0:0:0:
288,224,48169,1,12,0:0:0:0:
288,224,48497,1,0,0:0:0:0:
288,224,48988,1,0,0:0:0:0:
288,224,49152,1,8,0:0:0:0:
160,192,49480,1,8,0:0:0:0:
128,128,49644,1,0,0:0:0:0:
288,224,49972,1,8,0:0:0:0:
64,128,50136,1,0,0:0:0:0:
96,128,50300,1,0,0:0:0:0:
160,64,50382,1,0,0:0:0:0:
288,224,50464,1,8,0:0:0:0:
160,64,50628,1,8,0:0:0:0:
288,224,50792,1,0,0:0:0:0:
288,224,51120,1,12,0:0:0:0:
128,160,51447,1,8,0:0:0:0:
128,160,51775,1,0,0:0:0:0:
128,160,51939,1,0,0:0:0:0:
128,160,52103,1,8,0:0:0:0:
128,160,52267,1,8,0:0:0:0:
128,160,52431,1,0,0:0:0:0:
128,160,52759,1,12,0:0:0:0:
192,64,53005,1,0,0:0:0:0:
128,160,53087,1,0,0:0:0:0:
192,64,53251,1,0,0:0:0:0:
128,160,53415,1,12,0:0:0:0:
192,160,53743,1,0,0:0:0:0:
224,160,54070,1,8,0:0:0:0:
224,160,54234,1,0,0:0:0:0:
160,160,54316,1,8,0:0:0:0:
224,160,54398,1,0,0:0:0:0:
224,160,54562,1,0,0:0:0:0:
224,160,54726,1,8,0:0:0:0:
0,160,54890,1,8,0:0:0:0:
224,160,55054,1,0,0:0:0:0:
224,160,55382,1,12,0:0:0:0:
192,96,55628,1,0,0:0:0:0:
224,160,55710,1,0,0:0:0:0:
192,96,55874,1,0,0:0:0:0:
224,160,56038,1,12,0:0:0:0:
224,192,56365,1,0,0:0:0:0:
224,192,56529,1,0,0:0:0:0:
224,192,56693,1,8,0:0:0:0:
224,192,56857,1,0,0:0:0:0:
224,192,56939,1,0,0:0:0:0:
224,192,57021,1,8,0:0:0:0:
224,192,57185,1,0,0:0:0:0:
224,192,57349,1,8,0:0:0:0:
224,192,57513,1,0,0:0:0:0:
128,128,57595,1,0,0:0:0:0:
224,192,57677,1,8,0:0:0:0:
128,128,57759,1,8,0:0:0:0:
224,192,57841,5,0,0:0:0:0:
224,192,58005,1,8,0:0:0:0:
224,192,58169,1,0,0:0:0:0:
224,192,58251,1,0,0:0:0:0:
224,192,58333,1,8,0:0:0:0:
160,128,58497,1,0,0:0:0:0:
224,192,58661,1,8,0:0:0:0:
224,192,58824,1,8,0:0:0:0:
192,160,58988,5,4,0:0:0:0:
192,160,59152,1,8,0:0:0:0:
192,160,59234,1,8,0:0:0:0:
192,160,59316,1,0,0:0:0:0:
192,160,59480,1,12,0:0:0:0:
192,160,59644,1,0,0:0:0:0:
192,160,59726,1,0,0:0:0:0:
192,160,59808,1,0,0:0:0:0:
192,160,59972,1,12,0:0:0:0:
224,256,60300,5,4,0:0:0:0:
224,256,60464,1,4,0:0:0:0:
224,256,60628,1,12,0:0:0:0:
128,192,60956,1,8,0:0:0:0:
128,192,61120,1,0,0:0:0:0:
128,192,61202,1,0,0:0:0:0:
128,192,61283,1,8,0:0:0:0:
224,256,61611,5,4,0:0:0:0:
192,192,61939,1,8,0:0:0:0:
224,160,62103,1,0,0:0:0:0:
224,128,62185,1,0,0:0:0:0:
192,192,62267,1,8,0:0:0:0:
256,160,62431,1,0,0:0:0:0:
256,160,62595,1,8,0:0:0:0:
256,160,62759,1,8,0:0:0:0:
256,160,62923,1,0,0:0:0:0:
256,160,63251,1,12,0:0:0:0:
224,96,63415,1,0,0:0:0:0:
224,96,63497,1,8,0:0:0:0:
256,160,63579,1,0,0:0:0:0:
256,160,63743,1,0,0:0:0:0:
256,160,63906,1,8,0:0:0:0:
256,160,64234,1,0,0:0:0:0:
256,160,64562,1,8,0:0:0:0:
256,160,64726,1,0,0:0:0:0:
224,96,64808,1,0,0:0:0:0:
256,160,64890,1,8,0:0:0:0:
256,160,65054,1,0,0:0:0:0:
256,160,65218,1,8,0:0:0:0:
256,160,65382,1,8,0:0:0:0:
256,160,65546,1,0,0:0:0:0:
256,160,65874,1,12,0:0:0:0:
96,160,66038,1,0,0:0:0:0:
256,160,66202,1,12,0:0:0:0:
160,96,66365,1,0,0:0:0:0:
256,160,66529,1,12,0:0:0:0:
256,160,66857,1,4,0:0:0:0:
256,160,67185,1,8,0:0:0:0:
256,160,67349,1,8,0:0:0:0:
256,160,67513,1,0,0:0:0:0:
256,160,67677,1,0,0:0:0:0:
96,128,67841,1,8,0:0:0:0:
256,160,68005,1,0,0:0:0:0:
96,160,68333,1,0,0:0:0:0:
256,160,68497,1,8,0:0:0:0:
160,96,68661,1,0,0:0:0:0:
192,128,68743,1,0,0:0:0:0:
256,160,68824,1,8,0:0:0:0:
192,128,68988,1,0,0:0:0:0:
256,160,69152,1,8,0:0:0:0:
256,160,69480,1,4,0:0:0:0:
256,160,69808,1,8,0:0:0:0:
256,160,69972,1,4,0:0:0:0:
256,160,70300,1,4,0:0:0:0:
96,128,70464,1,8,0:0:0:0:
256,160,70628,1,4,0:0:0:0:
256,160,70956,1,0,0:0:0:0:
224,160,71120,1,8,0:0:0:0:
256,160,71283,1,0,0:0:0:0:
224,160,71365,1,8,0:0:0:0:
256,160,71447,1,0,0:0:0:0:
192,128,71611,1,0,0:0:0:0:
192,128,71693,1,0,0:0:0:0:
256,160,71775,1,8,0:0:0:0:
192,128,71857,1,8,0:0:0:0:
192,128,71939,1,8,0:0:0:0:
160,96,72021,1,8,0:0:0:0:
160,128,72103,1,4,0:0:0:0:
256,128,72431,1,8,0:0:0:0:
256,128,72595,1,0,0:0:0:0:
256,128,72677,1,8,0:0:0:0:
256,128,72759,1,0,0:0:0:0:
256,128,72923,1,0,0:0:0:0:
256,128,73087,1,8,0:0:0:0:
256,128,73251,1,8,0:0:0:0:
256,128,73415,1,0,0:0:0:0:
256,128,73743,1,12,0:0:0:0:
160,160,74070,1,0,0:0:0:0:
160,160,74234,1,0,0:0:0:0:
160,160,74398,1,8,0:0:0:0:
160,160,74726,1,0,0:0:0:0:
160,160,75054,1,8,0:0:0:0:
160,160,75218,1,0,0:0:0:0:
96,160,75300,1,0,0:0:0:0:
160,160,75382,1,8,0:0:0:0:
160,160,75546,1,0,0:0:0:0:
160,160,75710,1,8,0:0:0:0:
160,160,75874,1,8,0:0:0:0:
160,160,76038,1,0,0:0:0:0:
160,128,76365,1,12,0:0:0:0:
160,128,76529,1,0,0:0:0:0:
160,128,76693,1,12,0:0:0:0:
160,128,76857,1,0,0:0:0:0:
160,128,77021,1,12,0:0:0:0:
160,128,77349,1,4,0:0:0:0:
224,96,77677,1,8,0:0:0:0:
224,96,77841,1,8,0:0:0:0:
224,96,78005,1,0,0:0:0:0:
224,96,78169,1,0,0:0:0:0:
224,96,78333,1,8,0:0:0:0:
224,96,78497,1,0,0:0:0:0:
224,96,78824,1,0,0:0:0:0:
224,96,78988,1,8,0:0:0:0:
224,128,79152,1,8,0:0:0:0:
224,128,79234,1,8,0:0:0:0:
224,128,79316,1,0,0:0:0:0:
224,128,79480,1,0,0:0:0:0:
224,128,79644,1,8,0:0:0:0:
224,128,79972,1,4,0:0:0:0:
224,128,80300,1,8,0:0:0:0:
224,128,80464,1,4,0:0:0:0:
224,128,80792,1,4,0:0:0:0:
160,128,80956,1,8,0:0:0:0:
224,128,81120,1,4,0:0:0:0:
224,128,81447,1,0,0:0:0:0:
224,128,81611,1,8,0:0:0:0:
224,128,81775,1,8,0:0:0:0:
128,192,81857,1,8,0:0:0:0:
224,128,81939,1,0,0:0:0:0:
224,128,82103,1,0,0:0:0:0:
224,128,82185,1,0,0:0:0:0:
224,128,82267,1,8,0:0:0:0:
224,128,82349,1,8,0:0:0:0:
224,128,82431,1,8,0:0:0:0:
224,128,82513,1,8,0:0:0:0:
224,128,82595,1,4,0:0:0:0:
224,160,82923,1,8,0:0:0:0:
224,160,83251,1,0,0:0:0:0:
224,160,83415,1,0,0:0:0:0:
224,160,83579,1,8,0:0:0:0:
224,160,83906,1,0,0:0:0:0:
224,160,84234,1,8,0:0:0:0:
224,160,84398,1,0,0:0:0:0:
224,160,84726,1,0,0:0:0:0:
224,160,84890,1,8,0:0:0:0:
224,160,85218,1,4,0:0:0:0:
224,160,85382,1,4,0:0:0:0:
224,160,85710,1,4,0:0:0:0:
224,160,85874,1,4,0:0:0:0:
224,160,86202,1,12,0:0:0:0:
224,160,86365,1,12,0:0:0:0:
224,160,86693,1,12,0:0:0:0:
224,160,86857,1,12,0:0:0:0:
224,160,87841,1,4,0:0:0:0:
256,256,88169,1,8,0:0:0:0:
256,256,88497,1,0,0:0:0:0:
256,256,88661,1,0,0:0:0:0:
256,256,88824,1,8,0:0:0:0:
256,256,88988,1,0,0:0:0:0:
128,160,89316,1,0,0:0:0:0:
128,160,89480,1,8,0:0:0:0:
224,128,89644,1,0,0:0:0:0:
224,128,89726,1,8,0:0:0:0:
128,160,89808,1,0,0:0:0:0:
160,192,89972,1,0,0:0:0:0:
160,192,90136,1,8,0:0:0:0:
160,192,90300,1,8,0:0:0:0:
160,192,90464,1,0,0:0:0:0:
160,192,90792,1,8,0:0:0:0:
288,160,91038,1,8,0:0:0:0:
160,192,91120,1,0,0:0:0:0:
160,192,91283,1,0,0:0:0:0:
160,192,91447,1,8,0:0:0:0:
160,192,91611,1,4,0:0:0:0:
160,192,91939,1,8,0:0:0:0:
160,192,92103,1,0,0:0:0:0:
160,192,92267,1,12,0:0:0:0:
160,192,92595,1,0,0:0:0:0:
160,192,92759,1,8,0:0:0:0:
224,96,93087,1,0,0:0:0:0:
224,96,93415,1,8,0:0:0:0:
224,96,93579,1,8,0:0:0:0:
192,32,93743,1,0,0:0:0:0:
224,96,93906,1,8,0:0:0:0:
0,128,93988,1,8,0:0:0:0:
224,96,94070,1,8,0:0:0:0:
224,96,94234,1,0,0:0:0:0:
224,96,94562,1,0,0:0:0:0:
224,96,94726,1,8,0:0:0:0:
192,96,94890,1,0,0:0:0:0:
160,128,94972,1,0,0:0:0:0:
192,96,95054,1,8,0:0:0:0:
224,128,95218,1,0,0:0:0:0:
192,96,95382,1,8,0:0:0:0:
288,128,95546,1,0,0:0:0:0:
288,128,95628,1,0,0:0:0:0:
192,96,95710,1,0,0:0:0:0:
192,96,96038,1,8,0:0:0:0:
128,128,96283,1,8,0:0:0:0:
352,96,96365,1,0,0:0:0:0:
192,96,96529,1,0,0:0:0:0:
192,96,96693,1,8,0:0:0:0:
192,96,96857,1,0,0:0:0:0:
384,64,97185,1,0,0:0:0:0:
384,64,97349,1,8,0:0:0:0:
384,64,97513,1,0,0:0:0:0:
224,96,97595,1,0,0:0:0:0:
384,64,97677,1,8,0:0:0:0:
384,64,97841,1,0,0:0:0:0:
384,64,98005,1,8,0:0:0:0:
224,96,98087,1,8,0:0:0:0:
224,96,98169,1,8,0:0:0:0:
224,128,98251,1,8,0:0:0:0:
224,96,98333,1,0,0:0:0:0:
192,128,98497,1,0,0:0:0:0:
192,128,98661,1,8,0:0:0:0:
160,160,98824,1,0,0:0:0:0:
160,160,98988,1,8,0:0:0:0:
224,96,99152,1,8,0:0:0:0:
224,96,99316,1,0,0:0:0:0:
224,96,99480,1,0,0:0:0:0:
224,96,99562,1,8,0:0:0:0:
224,96,99644,1,0,0:0:0:0:
224,96,99808,1,0,0:0:0:0:
224,96,99972,1,8,0:0:0:0:
224,96,100136,1,0,0:0:0:0:
224,96,100300,1,8,0:0:0:0:
224,96,100464,1,8,0:0:0:0:
224,96,100628,1,0,0:0:0:0:
224,96,100792,1,8,0:0:0:0:
224,96,100874,1,8,0:0:0:0:
224,96,100956,1,0,0:0:0:0:
224,96,101120,1,0,0:0:0:0:
224,96,101283,1,8,0:0:0:0:
224,96,101447,1,0,0:0:0:0:
224,96,101529,1,0,0:0:0:0:
224,96,101611,1,8,0:0:0:0:
224,96,101775,1,0,0:0:0:0:
224,96,101939,1,8,0:0:0:0:
96,96,102103,1,0,0:0:0:0:
192,64,102185,1,0,0:0:0:0:
256,160,102267,1,0,0:0:0:0:
256,160,102431,1,8,0:0:0:0:
256,160,102595,1,8,0:0:0:0:
256,160,102759,1,8,0:0:0:0:
256,160,102923,1,8,0:0:0:0:
256,160,103087,1,8,0:0:0:0:
256,160,103251,1,8,0:0:0:0:
192,96,103415,1,8,0:0:0:0:
256,160,103579,1,4,0:0:0:0:
256,160,103743,1,8,0:0:0:0:
256,160,103824,1,8,0:0:0:0:
256,160,103906,1,0,0:0:0:0:
256,160,104070,1,12,0:0:0:0:
256,160,104234,1,0,0:0:0:0:
256,160,104316,1,0,0:0:0:0:
256,160,104398,1,0,0:0:0:0:
256,160,104562,1,12,0:0:0:0:
256,160,104726,1,0,0:0:0:0:
256,160,104890,1,12,0:0:0:0:
256,160,105054,1,0,0:0:0:0:
256,160,105136,1,0,0:0:0:0:
256,160,105218,1,0,0:0:0:0:
256,160,105382,1,12,0:0:0:0:
256,160,105546,1,0,0:0:0:0:
256,160,105628,1,0,0:0:0:0:
256,160,105710,1,0,0:0:0:0:
256,160,105874,1,12,0:0:0:0:
256,160,106202,1,4,0:0:0:0:
256,160,106365,1,8,0:0:0:0:
256,160,106447,1,8,0:0:0:0:
256,160,106529,1,0,0:0:0:0:
256,160,106693,1,12,0:0:0:0:
256,160,106857,1,0,0:0:0:0:
256,160,106939,1,0,0:0:0:0:
256,160,107021,1,0,0:0:0:0:
256,160,107185,1,12,0:0:0:0:
256,160,107513,1,4,0:0:0:0:
256,160,107677,1,4,0:0:0:0:
256,160,107841,1,12,0:0:0:0:
256,160,108169,1,8,0:0:0:0:
256,160,108333,1,0,0:0:0:0:
256,160,108415,1,0,0:0:0:0:
256,160,108497,1,8,0:0:0:0:
256,160,108824,1,4,0:0:0:0:
224,160,109808,1,8,0:0:0:0:
224,160,110136,1,4,0:0:0:0:
224,160,110464,1,8,0:0:0:0:
224,160,110628,1,8,0:0:0:0:
224,160,110792,1,4,0:0:0:0:
224,160,111120,1,8,0:0:0:0:
224,160,111447,1,4,0:0:0:0:
224,160,111775,1,8,0:0:0:0:
224,160,112431,1,8,0:0:0:0:
224,160,112759,1,12,0:0:0:0:
224,128,113087,1,4,0:0:0:0:
224,128,113415,1,12,0:0:0:0:
224,128,113743,1,12,0:0:0:0:
224,128,114070,1,4,0:0:0:0:
288,128,114398,1,8,0:0:0:0:
288,128,115054,1,8,0:0:0:0:
288,128,115382,1,0,0:0:0:0:
256,160,115710,1,8,0:0:0:0:
256,160,115874,1,8,0:0:0:0:
288,128,116038,1,0,0:0:0:0:
256,128,116283,1,8,0:0:0:0:
256,128,116365,1,8,0:0:0:0:
256,128,116529,1,8,0:0:0:0:
224,160,116693,1,4,0:0:0:0:
224,160,117021,1,8,0:0:0:0:
224,160,117185,1,4,0:0:0:0:
224,160,117513,1,4,0:0:0:0:
224,160,117677,1,8,0:0:0:0:
224,160,117841,1,4,0:0:0:0:
224,160,118169,1,0,0:0:0:0:
224,160,118333,1,8,0:0:0:0:
224,160,118497,1,0,0:0:0:0:
224,160,118579,1,0,0:0:0:0:
224,160,118661,1,0,0:0:0:0:
224,160,118824,1,8,0:0:0:0:
224,160,118906,1,8,0:0:0:0:
224,160,118988,1,8,0:0:0:0:
224,160,119070,1,8,0:0:0:0:
224,160,119152,1,8,0:0:0:0:
224,160,119234,1,8,0:0:0:0:
160,128,119316,1,4,0:0:0:0:
256,128,119644,1,8,0:0:0:0:
256,128,119808,1,0,0:0:0:0:
256,128,119890,1,8,0:0:0:0:
256,128,119972,1,0,0:0:0:0:
256,128,120136,1,0,0:0:0:0:
256,128,120300,1,8,0:0:0:0:
256,128,120464,1,8,0:0:0:0:
256,128,120628,1,0,0:0:0:0:
256,128,120956,1,12,0:0:0:0:
160,160,121283,1,0,0:0:0:0:
160,160,121447,1,0,0:0:0:0:
160,160,121611,1,8,0:0:0:0:
160,160,121939,1,0,0:0:0:0:
160,160,122267,1,8,0:0:0:0:
160,160,122431,1,0,0:0:0:0:
96,160,122513,1,0,0:0:0:0:
160,160,122595,1,8,0:0:0:0:
160,160,122759,1,0,0:0:0:0:
160,160,122923,1,8,0:0:0:0:
160,160,123087,1,8,0:0:0:0:
160,160,123251,1,0,0:0:0:0:
160,128,123578,1,12,0:0:0:0:
160,128,123742,1,0,0:0:0:0:
160,128,123906,1,12,0:0:0:0:
160,128,124070,1,0,0:0:0:0:
160,128,124234,1,12,0:0:0:0:
160,128,124562,1,4,0:0:0:0:
224,96,124890,1,8,0:0:0:0:
224,96,125054,1,8,0:0:0:0:
224,96,125218,1,0,0:0:0:0:
224,96,125382,1,0,0:0:0:0:
224,96,125546,1,8,0:0:0:0:
224,96,125710,1,0,0:0:0:0:
224,96,126037,1,0,0:0:0:0:
224,96,126201,1,8,0:0:0:0:
224,128,126365,1,8,0:0:0:0:
224,128,126447,1,8,0:0:0:0:
224,128,126529,1,0,0:0:0:0:
224,128,126693,1,0,0:0:0:0:
224,128,126857,1,8,0:0:0:0:
224,128,127185,1,4,0:0:0:0:
224,128,127513,1,8,0:0:0:0:
224,128,127677,1,4,0:0:0:0:
224,128,128005,1,4,0:0:0:0:
160,128,128169,1,8,0:0:0:0:
224,128,128333,1,4,0:0:0:0:
224,128,128660,1,0,0:0:0:0:
224,128,128824,1,8,0:0:0:0:
224,128,128988,1,8,0:0:0:0:
128,192,129070,1,8,0:0:0:0:
224,128,129152,1,0,0:0:0:0:
224,128,129316,1,0,0:0:0:0:
224,128,129398,1,0,0:0:0:0:
224,128,129480,1,8,0:0:0:0:
224,128,129562,1,8,0:0:0:0:
224,128,129644,1,8,0:0:0:0:
224,128,129726,1,8,0:0:0:0:
224,128,129808,1,4,0:0:0:0:
224,160,130136,1,8,0:0:0:0:
224,160,130464,1,0,0:0:0:0:
224,160,130628,1,0,0:0:0:0:
224,160,130792,1,8,0:0:0:0:
224,160,131119,1,0,0:0:0:0:
224,160,131447,1,8,0:0:0:0:
224,160,131611,1,0,0:0:0:0:
224,160,131939,1,0,0:0:0:0:
224,160,132103,1,8,0:0:0:0:
224,160,132431,1,4,0:0:0:0:
224,160,132595,1,4,0:0:0:0:
224,160,132923,1,4,0:0:0:0:
224,160,133087,1,4,0:0:0:0:
224,160,133415,1,12,0:0:0:0:
224,160,133579,1,12,0:0:0:0:
224,160,133906,1,12,0:0:0:0:
224,160,134070,1,12,0:0:0:0:
256,96,135054,1,0,0:0:0:0:
192,128,135382,1,8,0:0:0:0:
192,128,135628,1,8,0:0:0:0:
192,128,135710,1,0,0:0:0:0:
192,128,135874,1,0,0:0:0:0:
192,128,136038,1,8,0:0:0:0:
128,128,136365,1,0,0:0:0:0:
128,128,136693,1,8,0:0:0:0:
128,128,136857,1,0,0:0:0:0:
192,96,137185,1,0,0:0:0:0:
128,128,137349,1,8,0:0:0:0:
320,256,137513,1,0,0:0:0:0:
320,256,137595,1,8,0:0:0:0:
128,128,137677,1,0,0:0:0:0:
192,96,137841,1,0,0:0:0:0:
128,128,138005,1,8,0:0:0:0:
128,128,138251,1,8,0:0:0:0:
128,128,138333,1,0,0:0:0:0:
224,0,138415,1,0,0:0:0:0:
128,128,138497,1,8,0:0:0:0:
128,128,138661,1,8,0:0:0:0:
128,128,138824,1,0,0:0:0:0:
128,128,139808,1,0,0:0:0:0:
128,128,139890,1,0,0:0:0:0:
128,128,139972,1,8,0:0:0:0:
192,192,140300,1,4,0:0:0:0:
224,128,140628,1,8,0:0:0:0:
224,128,140956,1,0,0:0:0:0:
224,128,141284,1,8,0:0:0:0:
224,128,141448,1,4,0:0:0:0:
224,128,141776,1,4,0:0:0:0:
224,128,142104,1,8,0:0:0:0:
224,128,142268,1,0,0:0:0:0:
192,96,142431,1,0,0:0:0:0:
224,128,142595,1,8,0:0:0:0:
224,128,142923,1,0,0:0:0:0:
128,160,143251,1,8,0:0:0:0:
128,160,143579,1,0,0:0:0:0:
128,160,143907,1,8,0:0:0:0:
160,128,144071,1,4,0:0:0:0:
160,128,144399,1,4,0:0:0:0:
160,128,144727,1,8,0:0:0:0:
160,128,144890,1,0,0:0:0:0:
256,128,145054,1,0,0:0:0:0:
256,128,145218,1,8,0:0:0:0:
256,128,145546,1,0,0:0:0:0:
256,128,145874,1,8,0:0:0:0:
256,128,146202,1,0,0:0:0:0:
256,128,146530,1,8,0:0:0:0:
256,128,146694,1,4,0:0:0:0:
256,128,147022,1,4,0:0:0:0:
256,128,147349,1,8,0:0:0:0:
256,128,147513,1,0,0:0:0:0:
256,128,147677,1,0,0:0:0:0:
256,128,147841,1,8,0:0:0:0:
256,128,148169,1,0,0:0:0:0:
256,128,148497,1,8,0:0:0:0:
256,128,148825,1,0,0:0:0:0:
256,128,148989,1,0,0:0:0:0:
256,128,149153,1,8,0:0:0:0:
256,128,149317,1,0,0:0:0:0:
256,128,149645,1,0,0:0:0:0:
256,128,149808,1,8,0:0:0:0:
256,128,149972,1,0,0:0:0:0:
256,128,150054,1,0,0:0:0:0:
256,128,150136,1,8,0:0:0:0:
256,128,150300,1,8,0:0:0:0:
160,128,150628,1,12,0:0:0:0:
128,192,151939,1,4,0:0:0:0:
192,256,152923,1,8,0:0:0:0:
192,256,153005,1,8,0:0:0:0:
192,256,153087,1,8,0:0:0:0:
192,256,153169,1,8,0:0:0:0:
192,256,153251,1,0,0:0:0:0:
128,192,153415,1,12,0:0:0:0:
256,128,153579,1,0,0:0:0:0:
256,128,153662,1,0,0:0:0:0:
256,128,153744,1,0,0:0:0:0:
256,128,153909,1,12,0:0:0:0:
256,128,154074,1,0,0:0:0:0:
256,128,154156,1,0,0:0:0:0:
256,128,154239,1,0,0:0:0:0:
256,128,154404,1,12,0:0:0:0:
256,128,154568,1,0,0:0:0:0:
128,160,154898,1,12,0:0:0:0:
128,160,155074,1,12,0:0:0:0:
128,160,155250,1,12,0:0:0:0:
