osu file format v14

[General]
AudioFilename: audio.mp3
AudioLeadIn: 0
PreviewTime: 42401
Countdown: 0
SampleSet: Soft
StackLeniency: 0.7
Mode: 0
LetterboxInBreaks: 0
WidescreenStoryboard: 1

[Editor]
Bookmarks: 72242
DistanceSpacing: 0.5
BeatDivisor: 4
GridSize: 4
TimelineZoom: 3.199998

[Metadata]
Title:Smile Maker (Cut Ver.)
TitleUnicode:スマイルメーカー (Cut Ver.)
Artist:Cocoa (CV: Sakura Ayane)
ArtistUnicode:ココア (CV: 佐倉綾音)
Creator:Evanescent-
Version:Cup of Delightfulness
Source:ご注文はうさぎですか?
Tags:gochuumon wa usagi desu ka hoto kokoa character song smile maker sakura ayane seni kurantemelodii infiwong -nanoripe- zyl agatsu cut ver
BeatmapID:1095336
BeatmapSetID:515816

[Difficulty]
HPDrainRate:6.5
CircleSize:4.3
OverallDifficulty:8.5
ApproachRate:9.2
SliderMultiplier:1.75
SliderTickRate:1

[Events]
//Background and Video events
0,0,"Cocoabait.jpg",0,0
//Break Periods
//Storyboard Layer 0 (Background)
//Storyboard Layer 1 (Fail)
//Storyboard Layer 2 (Pass)
//Storyboard Layer 3 (Foreground)
//Storyboard Sound Samples

[TimingPoints]
-431,346.820809248555,4,2,1,60,1,0
782,-100,4,2,1,60,0,0
4944,-100,4,2,1,60,0,0
17602,-117.647058823529,4,2,1,60,0,0
20031,-100,4,2,1,60,0,0
28701,-117.647058823529,4,2,1,60,0,0
35810,-117.647058823529,4,2,1,60,0,0
35984,-117.647058823529,4,2,1,60,0,0
36504,-117.647058823529,4,2,1,60,0,0
37024,-100,4,2,1,60,0,0
37112,-100,4,2,1,60,0,0
42401,-100,4,2,1,60,0,1
42748,-100,4,2,1,60,0,1
43268,-100,4,2,1,60,0,1
45175,-100,4,2,1,60,0,1
45522,-100,4,2,1,60,0,1
47430,-100,4,2,1,60,0,1
47777,-100,4,2,1,60,0,1
48123,-100,4,2,1,60,0,1
48470,-100,4,2,1,60,0,1
50898,-100,4,2,1,60,0,1
51245,-100,4,2,1,60,0,1
53499,-100,4,2,1,60,0,1
53846,-100,4,2,1,60,0,1
72921,-100,4,2,1,60,0,0
82978,-100,4,2,1,60,0,0
83151,-100,4,2,1,60,0,0
83498,-100,4,2,1,60,0,0
84279,-100,4,2,1,60,0,0

[Colours]
Combo1 : 255,215,174
Combo2 : 128,0,0
Combo3 : 128,64,64
Combo4 : 128,0,64

[HitObjects]
200,320,609,5,0,0:0:0:0:
244,216,783,2,0,B|160:192|160:252|64:208,1,175,4|0,0:0|0:0,0:0:0:0:
16,128,1303,1,0,0:0:0:0:
134,28,1649,5,0,0:0:0:0:
73,211,1822,1,0,0:0:0:0:
222,144,1996,1,0,0:0:0:0:
222,144,2082,1,0,0:0:0:0:
222,144,2169,2,0,P|280:128|256:204,1,175,4|0,0:0|0:0,0:0:0:0:
156,312,2690,1,8,0:0:0:0:
400,116,3037,5,0,0:0:0:0:
208,188,3210,1,8,0:0:0:0:
356,276,3384,1,8,0:0:0:0:
264,80,3557,2,0,B|124:68|124:68|156:112,1,175
208,188,4077,1,0,0:0:0:0:
348,56,4251,1,0,0:0:0:0:
348,56,4337,1,0,0:0:0:0:
348,56,4424,2,0,L|356:160,1,87.5
272,252,4771,1,8,0:0:0:0:
504,224,4944,6,0,L|412:212,1,87.5,4|0,0:0|0:0,0:0:0:0:
272,252,5291,1,4,0:0:0:0:
384,64,5464,1,0,0:0:0:0:
164,200,5638,5,4,0:0:0:0:
276,20,5811,1,0,0:0:0:0:
364,220,5985,1,4,0:0:0:0:
364,220,6071,1,0,0:0:0:0:
364,220,6158,1,0,0:0:0:0:
192,284,6332,6,0,B|56:272|56:272|92:312,1,175,4|0,0:0|0:0,0:0:0:0:
244,116,6852,2,0,P|252:168|244:220,1,87.5,8|0,0:0|0:0,0:0:0:0:
124,108,7199,1,0,0:0:0:0:
336,36,7372,1,0,0:0:0:0:
244,224,7545,1,8,0:0:0:0:
168,32,7719,6,0,P|96:24|36:109,1,175,4|0,0:0|0:0,0:0:0:0:
92,216,8239,1,8,0:0:0:0:
192,152,8412,1,4,0:0:0:0:
32,336,8586,1,0,0:0:0:0:
40,328,8933,5,8,0:0:0:0:
144,260,9106,2,0,B|232:228|232:292|340:240,1,175,4|0,0:0|0:0,0:0:0:0:
268,152,9626,1,8,0:0:0:0:
296,364,9800,1,0,0:0:0:0:
400,208,9973,2,0,P|412:260|408:300,1,87.5
208,256,10320,1,8,0:0:0:0:
364,132,10493,6,0,P|444:132|488:212,1,175
372,328,11014,2,0,P|420:324|476:328,1,87.5,8|0,0:0|0:0,0:0:0:0:
340,132,11360,2,0,P|296:133|252:129,1,87.5
220,128,11621,1,0,0:0:0:0:
220,128,11707,1,8,0:0:0:0:
396,56,11881,6,0,P|432:120|384:212,1,175,4|0,0:0|0:0,0:0:0:0:
284,264,12401,1,8,0:0:0:0:
428,356,12574,1,0,0:0:0:0:
316,164,12748,2,0,P|272:160|204:172,1,87.5
284,264,13095,1,8,0:0:0:0:
376,76,13268,6,0,P|284:64|196:80,1,175
132,172,13788,1,8,0:0:0:0:
76,84,13962,2,0,P|40:40|28:116,1,175
140,284,14482,1,8,0:0:0:0:
188,172,14655,6,0,B|128:152|56:176|56:176|96:212,1,175,4|0,0:0|0:0,0:0:0:0:
216,288,15175,2,0,L|316:284,1,87.5,8|0,0:0|0:0,0:0:0:0:
380,232,15522,1,0,0:0:0:0:
300,368,15696,1,0,0:0:0:0:
256,204,15869,1,8,0:0:0:0:
424,312,16042,2,0,P|468:232|428:156,1,175
328,100,16563,5,8,0:0:0:0:
328,100,16649,1,0,0:0:0:0:
328,100,16736,1,0,0:0:0:0:
328,100,16823,1,0,0:0:0:0:
328,100,16910,1,8,0:0:0:0:
176,308,17083,1,8,0:0:0:0:
151,133,17603,6,0,L|231:141,1,74.3750014185906,4|0,0:0|0:0,0:0:0:0:
148,216,17950,2,0,L|68:224,1,74.3750014185906
151,133,18297,1,0,0:0:0:0:
91,314,18470,1,0,0:0:0:0:
224,216,18644,1,0,0:0:0:0:
191,362,18817,5,8,0:0:0:0:
148,216,18990,1,0,0:0:0:0:
276,324,19164,5,8,0:0:0:0:
252,128,19337,1,0,0:0:0:0:
148,216,19511,6,0,B|228:192|228:244|308:204,1,148.750002837181,8|0,0:0|0:0,0:0:0:0:
348,148,20031,2,0,P|372:196|364:264,1,87.5
308,348,20378,6,0,B|444:344|444:344|412:296,1,175,4|8,0:0|0:0,0:0:0:0:
364,224,20898,1,0,0:0:0:0:
308,348,21071,2,0,P|264:352|208:344,1,87.5
140,224,21418,1,8,0:0:0:0:
260,144,21592,6,0,B|284:208|268:276|268:276|260:244|240:228,1,175
144,88,22112,1,8,0:0:0:0:
360,60,22285,1,0,0:0:0:0:
368,284,22632,1,0,0:0:0:0:
212,76,22805,2,0,L|216:128,1,43.75,8|0,0:0|0:0,0:0:0:0:
280,260,22978,2,0,L|283:216,1,43.75
384,120,23152,6,0,P|460:116|512:208,1,175,4|8,0:0|0:0,0:0:0:0:
292,332,23673,1,0,0:0:0:0:
424,192,23846,2,0,L|417:280,1,87.5
252,160,24193,1,8,0:0:0:0:
456,196,24366,5,0,0:0:0:0:
252,160,24540,1,0,0:0:0:0:
356,296,24713,1,0,0:0:0:0:
296,88,24886,1,8,0:0:0:0:
296,88,25060,2,0,P|216:84|168:184,1,175
216,360,25580,2,0,P|200:320|192:272,1,87.5,8|0,0:0|0:0,0:0:0:0:
21,286,25927,6,0,B|102:255|102:315|194:275,1,175,4|8,0:0|0:0,0:0:0:0:
296,184,26447,1,0,0:0:0:0:
140,120,26621,1,0,0:0:0:0:
224,332,26794,1,0,0:0:0:0:
224,332,26881,1,0,0:0:0:0:
224,332,26967,2,0,P|240:276|256:240,1,87.5,8|0,0:0|0:0,0:0:0:0:
251,249,27488,5,0,0:0:0:0:
300,172,27662,1,8,0:0:0:0:
164,276,27835,1,0,0:0:0:0:
272,96,28008,2,0,P|352:104|388:188,1,175
400,196,28441,1,0,0:0:0:0:
400,196,28528,1,0,0:0:0:0:
400,196,28615,1,0,0:0:0:0:
400,196,28701,6,0,B|412:248|412:248|396:296|396:296|412:372,1,148.750002837181,4|0,0:0|0:0,0:0:0:0:
260,376,29395,2,0,B|269:332|269:332|253:284|253:284|265:232,1,148.750002837181
212,172,29915,2,0,P|284:152|340:212,2,148.750002837181
220,244,30782,1,0,0:0:0:0:
292,268,30956,1,0,0:0:0:0:
335,196,31129,1,0,0:0:0:0:
376,124,31303,1,0,0:0:0:0:
288,132,31476,6,0,L|204:140,1,74.3750014185906,4|0,0:0|0:0,0:0:0:0:
292,268,31823,2,0,L|366:275,1,74.3750014185906
244,356,32170,1,0,0:0:0:0:
160,332,32343,1,0,0:0:0:0:
80,312,32516,1,0,0:0:0:0:
150,242,32690,2,0,B|226:234|214:290|298:266,2,148.750002837181,4|0|0,0:0|0:0|0:0,0:0:0:0:
84,180,33557,2,0,L|72:92,1,74.3750014185906
264,192,33904,2,0,L|276:104,1,74.3750014185906
476,84,34251,6,0,B|356:76|356:76|380:116,1,148.750002837181,4|0,0:0|0:0,0:0:0:0:
192,228,34944,2,0,P|252:276|324:244,1,148.750002837181
384,200,35464,1,0,0:0:0:0:
192,228,35811,5,8,0:0:0:0:
272,112,35985,1,8,0:0:0:0:
384,200,36158,2,0,P|396:268|328:328,1,148.750002837181
168,296,36678,2,0,P|208:300|248:316,1,74.3750014185906
472,136,37025,6,0,B|384:100|384:168|288:124,1,175,4|8,0:0|0:0,0:0:0:0:
348,60,37545,1,0,0:0:0:0:
448,328,37719,2,0,P|456:280|456:224,1,87.5
344,216,38066,1,8,0:0:0:0:
280,316,38239,2,0,B|228:312|228:312|168:340|168:340|92:332,1,175,8|0,0:0|0:0,0:0:0:0:
32,224,38759,2,0,L|120:232,1,87.5,8|0,0:0|0:0,0:0:0:0:
248,116,39106,2,0,L|160:120,1,87.5
104,40,39453,1,8,0:0:0:0:
256,212,39626,1,0,0:0:0:0:
120,248,39800,5,12,0:0:0:0:
320,364,39973,1,0,0:0:0:0:
304,192,40147,5,8,0:0:0:0:
144,384,40320,1,0,0:0:0:0:
388,100,40493,5,8,0:0:0:0:
472,376,40667,1,0,0:0:0:0:
240,132,40840,1,8,0:0:0:0:
512,228,41014,1,0,0:0:0:0:
312,88,41187,5,8,0:0:0:0:
208,276,41360,1,0,0:0:0:0:
332,16,41534,5,8,0:0:0:0:
372,288,41707,1,0,0:0:0:0:
376,308,41794,1,0,0:0:0:0:
380,328,41881,1,8,0:0:0:0:
220,248,42401,6,0,B|160:240|160:240|92:256|92:256|20:244,1,175,6|0,2:2|0:0,0:0:0:0:
256,168,42921,1,8,0:0:0:0:
156,324,43095,1,0,0:0:0:0:
208,100,43268,2,0,P|288:92|344:172,1,175,2|8,0:0|0:0,0:0:0:0:
276,316,43788,5,2,0:0:0:0:
160,176,43962,2,0,P|208:172|262:177,1,87.5,0|2,0:0|0:0,0:0:0:0:
276,316,44308,1,8,0:0:0:0:
380,204,44482,1,0,0:0:0:0:
512,320,44655,2,0,B|448:324|448:324|400:352|400:352|336:356,1,175,2|8,0:0|0:0,0:0:0:0:
120,260,45175,6,0,P|200:292|264:220,1,175,4|0,0:0|0:0,0:0:0:0:
192,92,45696,2,0,P|180:148|184:184,1,87.5,8|0,0:0|0:0,0:0:0:0:
368,356,46042,2,0,P|369:312|358:270,1,87.5,2|2,0:0|0:0,0:0:0:0:
232,188,46389,1,8,0:0:0:0:
440,144,46563,1,0,0:0:0:0:
280,56,46736,6,0,B|196:28|196:84|104:48,1,175,0|8,0:0|0:0,0:0:0:0:
232,188,47256,1,0,0:0:0:0:
108,49,47430,2,0,L|104:145,1,87.5,2|2,0:0|0:0,0:0:0:0:
32,332,47777,2,0,L|28:244,1,87.5,8|0,0:0|0:0,0:0:0:0:
259,307,48123,6,0,B|315:315|315:315|363:347|363:347|431:355,1,175,6|8,0:0|0:0,0:0:0:0:
512,232,48644,1,0,0:0:0:0:
288,184,48817,1,0,0:0:0:0:
424,355,48990,1,0,0:0:0:0:
408,128,49164,1,8,0:0:0:0:
260,308,49337,1,0,0:0:0:0:
360,64,49511,6,0,P|435:52|489:127,1,175,0|8,0:0|0:0,0:0:0:0:
280,268,50031,1,0,0:0:0:0:
408,128,50204,2,0,L|404:228,1,87.5
492,336,50551,1,8,0:0:0:0:
312,112,50725,1,0,0:0:0:0:
312,112,50811,1,0,0:0:0:0:
312,112,50898,6,0,B|264:104|224:116|224:116|184:104|184:104|120:120,1,175,6|8,0:0|0:0,0:0:0:0:
240,200,51418,1,0,0:0:0:0:
372,36,51592,2,0,P|408:112|360:196,1,175,0|8,0:0|0:0,0:0:0:0:
192,308,52112,6,0,L|340:300,1,131.25
323,300,52459,1,0,0:0:0:0:
260,167,52632,1,8,0:0:0:0:
196,312,52805,1,0,0:0:0:0:
196,312,52892,1,0,0:0:0:0:
196,312,52979,1,0,0:0:0:0:
260,167,53152,1,0,0:0:0:0:
328,304,53326,1,8,0:0:0:0:
172,158,53499,6,0,P|215:93|313:98,1,175,4|0,0:0|0:0,0:0:0:0:
384,224,54019,2,0,P|336:220|292:224,1,87.5,8|0,0:0|0:0,0:0:0:0:
216,112,54366,1,0,0:0:0:0:
152,348,54540,1,0,0:0:0:0:
264,232,54713,1,8,0:0:0:0:
56,172,54886,6,0,B|140:140|140:208|232:164,1,175
364,132,55407,2,0,P|408:132|468:148,1,87.5,8|0,0:0|0:0,0:0:0:0:
312,288,55753,2,0,P|264:288|208:272,1,87.5
364,132,56100,1,8,0:0:0:0:
472,244,56274,6,0,B|500:316|472:384|472:384|448:356|412:348,1,175,4|0,0:0|0:0,0:0:0:0:
312,288,56794,1,8,0:0:0:0:
352,168,56967,1,0,0:0:0:0:
244,332,57141,2,0,P|280:364|344:364,1,87.5
408,104,57488,2,0,P|436:140|432:204,1,87.5,8|0,0:0|0:0,0:0:0:0:
336,350,57834,6,0,B|340:296|340:296|320:248|320:248|324:180,1,175,0|8,0:0|0:0,0:0:0:0:
228,232,58355,1,0,0:0:0:0:
396,120,58528,2,0,P|356:88|304:84,1,87.5
200,36,58875,2,0,L|211:123,1,87.5,8|0,0:0|0:0,0:0:0:0:
164,264,59222,6,0,P|92:264|48:352,1,175,4|8,0:0|0:0,0:0:0:0:
220,176,59742,1,0,0:0:0:0:
132,344,59915,1,0,0:0:0:0:
36,180,60089,1,0,0:0:0:0:
236,336,60262,1,8,0:0:0:0:
124,104,60436,1,0,0:0:0:0:
220,176,60609,6,0,L|316:168,1,87.5
368,352,60956,2,0,L|272:344,1,87.5,8|0,0:0|0:0,0:0:0:0:
484,200,61303,2,0,P|412:192|360:284,1,175,0|8,0:0|0:0,0:0:0:0:
264,320,61823,1,0,0:0:0:0:
456,376,61996,6,0,L|448:288,1,87.5,2|0,0:0|0:0,0:0:0:0:
348,80,62343,2,0,L|340:168,1,87.5,8|0,0:0|0:0,0:0:0:0:
264,320,62690,1,0,0:0:0:0:
436,216,62863,1,0,0:0:0:0:
324,348,63037,1,8,0:0:0:0:
224,184,63210,2,0,B|168:180|168:180|112:200|112:200|32:192,1,175
136,360,63730,5,8,0:0:0:0:
136,360,63817,1,0,0:0:0:0:
136,360,63904,1,0,0:0:0:0:
228,188,64077,1,8,0:0:0:0:
228,188,64164,1,0,0:0:0:0:
228,188,64251,1,0,0:0:0:0:
352,360,64424,1,8,0:0:0:0:
352,360,64511,1,0,0:0:0:0:
352,360,64597,2,0,B|488:352|488:352|460:312,1,175,4|0,0:0|0:0,0:0:0:0:
440,124,65118,5,8,0:0:0:0:
248,320,65291,1,0,0:0:0:0:
232,64,65464,5,8,0:0:0:0:
488,352,65638,1,0,0:0:0:0:
96,160,65811,5,8,0:0:0:0:
468,200,65985,1,0,0:0:0:0:
468,200,66071,1,0,0:0:0:0:
468,200,66158,1,8,0:0:0:0:
152,316,66332,5,0,0:0:0:0:
292,20,66505,1,8,0:0:0:0:
392,380,66678,1,0,0:0:0:0:
392,380,66765,1,0,0:0:0:0:
392,380,66852,1,8,0:0:0:0:
184,204,67025,1,0,0:0:0:0:
184,204,67112,1,0,0:0:0:0:
184,204,67199,1,8,0:0:0:0:
509,149,67372,6,0,B|424:196|424:120|340:152,1,175,4|0,0:0|0:0,0:0:0:0:
384,264,67892,1,8,0:0:0:0:
280,76,68066,2,0,P|248:156|300:244,1,175,4|0,0:0|0:0,0:0:0:0:
256,344,68586,1,8,0:0:0:0:
256,344,68759,2,0,B|196:340|196:340|148:360|148:360|72:356,1,175,4|0,0:0|0:0,0:0:0:0:
116,256,69279,5,8,0:0:0:0:
116,256,69366,1,0,0:0:0:0:
116,256,69453,2,0,L|120:184,1,43.75
212,76,69626,2,0,L|214:119,3,43.75,8|0|0|0,0:0|0:0|0:0|0:0,0:0:0:0:
216,152,69973,5,8,0:0:0:0:
252,152,70060,1,0,0:0:0:0:
288,152,70147,1,8,0:0:0:0:
324,152,70233,1,0,0:0:0:0:
360,152,70320,1,8,0:0:0:0:
280,344,70667,5,0,0:0:0:0:
344,256,71014,2,0,L|432:252,2,87.5
280,344,71534,1,0,0:0:0:0:
172,216,71707,5,0,0:0:0:0:
204,200,71794,1,0,0:0:0:0:
240,196,71881,1,0,0:0:0:0:
272,208,71967,1,0,0:0:0:0:
304,224,72054,1,0,0:0:0:0:
340,224,72141,1,0,0:0:0:0:
372,208,72227,1,0,0:0:0:0:
392,80,72401,5,0,0:0:0:0:
392,80,72488,1,0,0:0:0:0:
392,80,72574,2,0,L|320:72,1,43.75
436,268,72748,2,0,L|479:263,1,43.75
300,348,72921,6,0,B|160:336|160:336|192:304,1,175,4|0,0:0|0:0,0:0:0:0:
352,160,73441,1,8,0:0:0:0:
444,368,73615,1,0,0:0:0:0:
444,368,73701,1,0,0:0:0:0:
444,368,73788,2,0,L|448:276,1,87.5
368,112,74135,1,8,0:0:0:0:
484,193,74308,6,0,B|400:161|400:220|312:177,1,175,4|0,0:0|0:0,0:0:0:0:
224,256,74829,1,8,0:0:0:0:
164,56,75002,1,4,0:0:0:0:
368,84,75175,1,0,0:0:0:0:
368,84,75522,1,8,0:0:0:0:
248,232,75696,6,0,B|104:220|104:220|128:264,1,175,4|0,0:0|0:0,0:0:0:0:
336,280,76216,2,0,P|343:236|335:193,1,87.5,8|0,0:0|0:0,0:0:0:0:
256,88,76563,1,0,0:0:0:0:
180,272,76736,1,0,0:0:0:0:
256,108,76909,1,8,0:0:0:0:
360,336,77083,6,0,P|432:344|488:260,1,175,4|0,0:0|0:0,0:0:0:0:
444,72,77603,2,0,P|456:120|460:168,1,87.5,8|0,0:0|0:0,0:0:0:0:
324,32,77950,2,0,P|312:80|308:128,1,87.5
308,152,78210,1,0,0:0:0:0:
308,152,78297,1,8,0:0:0:0:
128,220,78470,6,0,B|184:228|184:228|240:260|240:260|308:268,1,175,4|0,0:0|0:0,0:0:0:0:
416,144,78990,2,0,P|376:116|324:108,1,87.5,8|0,0:0|0:0,0:0:0:0:
292,265,79337,2,0,P|303:307|329:343,1,87.5
392,272,79684,1,8,0:0:0:0:
196,224,79858,6,0,P|204:328|248:400,1,175,4|0,0:0|0:0,0:0:0:0:
304,176,80378,1,8,0:0:0:0:
180,136,80551,2,0,B|128:128|48:140|48:140|92:152,1,175,4|0,0:0|0:0,0:0:0:0:
216,240,81071,1,8,0:0:0:0:
296,88,81245,6,0,B|352:80|352:80|412:92|412:92|488:80,1,175,4|0,0:0|0:0,0:0:0:0:
328,280,81765,2,0,P|328:232|340:192,1,87.5,8|0,0:0|0:0,0:0:0:0:
140,332,82112,2,0,P|140:288|128:244,1,87.5
116,212,82372,1,0,0:0:0:0:
116,212,82459,1,8,0:0:0:0:
244,288,82632,6,0,P|300:356|400:324,1,175
496,188,83152,1,8,0:0:0:0:
232,104,83326,1,0,0:0:0:0:
378,345,83499,1,8,0:0:0:0:
388,56,83673,1,0,0:0:0:0:
188,280,83846,1,8,0:0:0:0:
52,48,84193,5,4,0:0:0:0:
256,192,84279,12,0,88355,0:0:0:0:
