osu file format v14

[General]
AudioFilename: audio.ogg
AudioLeadIn: 0
PreviewTime: 73399
Countdown: 0
SampleSet: Normal
StackLeniency: 0.7
Mode: 1
LetterboxInBreaks: 0
WidescreenStoryboard: 0

[Editor]
Bookmarks: 1900,7900,13900,25900,36400,37900,49900,61900,67900,73900,85900,97900,109900,121900,130900,133900,145900,157900,163900,169900,181900,193900,205900,214900,217900,223900,229900,235900,247900,256900,259900,262900,274900,286900,289712
DistanceSpacing: 3.9
BeatDivisor: 4
GridSize: 32
TimelineZoom: 2

[Metadata]
Title:Happy Happy Birthday Song ~Cocoa Ver.~
TitleUnicode:ハピハピ♪バースデイソング~ココア Ver.~
Artist:Cocoa (CV: Sakura Ayane)
ArtistUnicode:ココア (CV: 佐倉綾音)
Creator:Smallwu
Version:Happy Cocoa Day!
Source:ご注文はうさぎですか??
Tags:hoto kokoa ほと ここあ 保登心愛 保登 心愛 is the order a rabbit?? gochuumon wa usagi desu ka?? season 2 S2 pyon ぴょん gochiusa ごちうさ バースデイソングシリーズ03 character song birthday song series 03 Hata Aki 畑亜貴 畑 亜貴 Okubo Kaoru 大久保薰 大久保 薰 full version female vocals singer japanese jpop j-pop pop anime
BeatmapID:3593879
BeatmapSetID:1756167

[Difficulty]
HPDrainRate:6
CircleSize:5.5
OverallDifficulty:6
ApproachRate:7
SliderMultiplier:1.4
SliderTickRate:1

[Events]
//Background and Video events
0,0,"88639208_p0.jpg",0,85
//Break Periods
//Storyboard Layer 0 (Background)
//Storyboard Layer 1 (Fail)
//Storyboard Layer 2 (Pass)
//Storyboard Layer 3 (Foreground)
//Storyboard Layer 4 (Overlay)
//Storyboard Sound Samples

[TimingPoints]
1962,375,4,1,0,50,1,0
1962,-105.263157894737,4,1,0,50,0,0
7962,-100,4,1,0,50,0,0
13774,-100,4,1,0,70,0,0
73774,-100,4,1,0,80,0,0
73962,-95.2380952380952,4,1,0,80,0,1
85587,-95.2380952380952,4,1,0,80,0,0
85962,-95.2380952380952,4,1,0,80,0,1
97587,-95.2380952380952,4,1,0,80,0,0
97962,-95.2380952380952,4,1,0,80,0,1
109774,-95.2380952380952,4,1,0,70,0,1
109962,-100,4,1,0,70,0,0
169774,-100,4,1,0,80,0,0
169962,-95.2380952380952,4,1,0,80,0,1
181587,-95.2380952380952,4,1,0,80,0,0
181962,-95.2380952380952,4,1,0,80,0,1
193587,-95.2380952380952,4,1,0,80,0,0
193962,-95.2380952380952,4,1,0,80,0,1
205774,-95.2380952380952,4,1,0,50,0,1
205962,-105.263157894737,4,1,0,50,0,0
210180,-105.263157894737,4,1,0,70,0,0
211962,-100,4,1,0,70,0,0
235774,-100,4,1,0,73,0,0
235868,-97.5609756097561,4,1,0,76,0,0
235962,-95.2380952380952,4,1,0,80,0,1
247587,-95.2380952380952,4,1,0,80,0,0
247962,-95.2380952380952,4,1,0,80,0,1
262774,-95.2380952380952,4,1,0,70,0,1
262962,-100,4,1,0,70,0,0
274868,-97.5609756097561,4,1,0,70,0,0
274962,-95.2380952380952,4,1,0,70,0,0

[HitObjects]
256,192,1962,5,0,0:0:0:0:
256,192,3462,1,0,0:0:0:0:
256,192,4962,1,2,0:0:0:0:
256,192,6462,1,2,0:0:0:0:
256,192,7962,5,4,0:0:0:0:
256,192,8712,1,0,0:0:0:0:
256,192,9462,1,6,0:0:0:0:
256,192,10212,1,0,0:0:0:0:
256,192,10962,1,6,0:0:0:0:
256,192,11899,1,0,0:0:0:0:
256,192,11993,1,0,0:0:0:0:
256,192,12087,1,0,0:0:0:0:
256,192,12274,1,6,0:0:0:0:
256,192,12649,1,6,0:0:0:0:
256,192,12837,1,6,0:0:0:0:
256,192,13587,1,2,0:0:0:0:
256,192,13962,5,4,0:0:0:0:
256,192,14337,1,2,0:0:0:0:
256,192,14712,1,0,0:0:0:0:
256,192,14899,1,0,0:0:0:0:
256,192,15087,1,2,0:0:0:0:
256,192,15274,1,0,0:0:0:0:
256,192,15649,1,0,0:0:0:0:
256,192,15837,1,2,0:0:0:0:
256,192,16024,1,0,0:0:0:0:
256,192,16212,1,0,0:0:0:0:
256,192,16399,1,2,0:0:0:0:
256,192,16493,1,2,0:0:0:0:
256,192,16587,1,0,0:0:0:0:
256,192,16774,1,2,0:0:0:0:
256,192,16962,1,0,0:0:0:0:
256,192,17337,1,2,0:0:0:0:
256,192,17524,1,0,0:0:0:0:
256,192,17618,1,0,0:0:0:0:
256,192,17712,1,0,0:0:0:0:
256,192,17899,1,0,0:0:0:0:
256,192,18087,1,2,0:0:0:0:
256,192,18274,1,0,0:0:0:0:
256,192,18649,1,0,0:0:0:0:
256,192,18837,1,2,0:0:0:0:
256,192,19024,1,0,0:0:0:0:
256,192,19212,1,0,0:0:0:0:
256,192,19305,1,0,0:0:0:0:
256,192,19399,1,2,0:0:0:0:
256,192,19587,1,0,0:0:0:0:
256,192,19774,1,2,0:0:0:0:
256,192,19868,1,2,0:0:0:0:
256,192,19962,1,0,0:0:0:0:
256,192,20337,1,2,0:0:0:0:
256,192,20712,1,0,0:0:0:0:
256,192,20899,1,0,0:0:0:0:
256,192,21087,1,2,0:0:0:0:
256,192,21274,1,0,0:0:0:0:
256,192,21649,1,0,0:0:0:0:
256,192,21837,1,2,0:0:0:0:
256,192,22024,1,0,0:0:0:0:
256,192,22212,1,0,0:0:0:0:
256,192,22399,1,2,0:0:0:0:
256,192,22493,1,2,0:0:0:0:
256,192,22587,1,0,0:0:0:0:
256,192,22774,1,2,0:0:0:0:
256,192,22962,1,0,0:0:0:0:
256,192,23243,1,2,0:0:0:0:
256,192,23337,1,0,0:0:0:0:
256,192,23524,1,2,0:0:0:0:
256,192,23712,1,0,0:0:0:0:
256,192,23805,1,0,0:0:0:0:
256,192,23899,1,2,0:0:0:0:
256,192,24087,1,2,0:0:0:0:
256,192,24274,1,4,0:0:0:0:
256,192,24649,1,0,0:0:0:0:
256,192,24743,1,0,0:0:0:0:
256,192,24837,1,0,0:0:0:0:
256,192,25024,1,6,0:0:0:0:
256,192,25399,1,0,0:0:0:0:
256,192,25587,1,2,0:0:0:0:
256,192,25774,1,2,0:0:0:0:
256,192,25868,1,2,0:0:0:0:
256,192,25962,5,4,0:0:0:0:
256,192,26337,1,2,0:0:0:0:
256,192,26524,1,2,0:0:0:0:
256,192,26712,1,0,0:0:0:0:
256,192,26899,1,0,0:0:0:0:
256,192,27274,1,2,0:0:0:0:
256,192,27649,1,0,0:0:0:0:
256,192,27837,1,2,0:0:0:0:
256,192,28212,1,2,0:0:0:0:
256,192,28399,1,0,0:0:0:0:
256,192,28587,1,2,0:0:0:0:
256,192,28962,1,0,0:0:0:0:
256,192,29337,1,2,0:0:0:0:
256,192,29524,1,2,0:0:0:0:
256,192,29899,1,0,0:0:0:0:
256,192,30087,1,0,0:0:0:0:
256,192,30274,1,2,0:0:0:0:
256,192,30649,1,0,0:0:0:0:
256,192,30837,1,2,0:0:0:0:
256,192,31024,1,0,0:0:0:0:
256,192,31212,1,0,0:0:0:0:
256,192,31305,1,0,0:0:0:0:
256,192,31399,1,0,0:0:0:0:
256,192,31587,1,2,0:0:0:0:
256,192,31774,1,2,0:0:0:0:
256,192,31962,1,0,0:0:0:0:
256,192,32337,1,2,0:0:0:0:
256,192,32524,1,2,0:0:0:0:
256,192,32899,1,0,0:0:0:0:
256,192,33087,1,0,0:0:0:0:
256,192,33274,1,2,0:0:0:0:
256,192,33649,1,0,0:0:0:0:
256,192,33837,1,2,0:0:0:0:
256,192,34024,1,0,0:0:0:0:
256,192,34212,1,0,0:0:0:0:
256,192,34399,1,2,0:0:0:0:
256,192,34493,1,2,0:0:0:0:
256,192,34587,1,2,0:0:0:0:
256,192,34774,1,2,0:0:0:0:
256,192,34962,1,0,0:0:0:0:
256,192,35337,1,2,0:0:0:0:
256,192,35712,1,0,0:0:0:0:
256,192,35899,1,0,0:0:0:0:
256,192,36087,1,2,0:0:0:0:
256,192,36462,5,4,0:0:0:0:
256,192,36649,1,2,0:0:0:0:
256,192,36837,1,2,0:0:0:0:
256,192,37024,1,4,0:0:0:0:
256,192,37399,1,6,0:0:0:0:
256,192,37774,1,0,0:0:0:0:
256,192,37962,5,6,0:0:0:0:
256,192,38337,1,2,0:0:0:0:
256,192,38712,1,2,0:0:0:0:
256,192,38899,1,0,0:0:0:0:
256,192,39087,1,0,0:0:0:0:
256,192,39274,1,2,0:0:0:0:
256,192,39649,1,0,0:0:0:0:
256,192,39837,1,2,0:0:0:0:
256,192,40024,1,0,0:0:0:0:
256,192,40118,1,0,0:0:0:0:
256,192,40212,1,2,0:0:0:0:
256,192,40399,1,0,0:0:0:0:
256,192,40587,1,2,0:0:0:0:
256,192,40962,1,0,0:0:0:0:
256,192,41337,1,2,0:0:0:0:
256,192,41524,1,0,0:0:0:0:
256,192,41712,1,2,0:0:0:0:
256,192,41899,1,0,0:0:0:0:
256,192,42087,1,0,0:0:0:0:
256,192,42274,1,2,0:0:0:0:
256,192,42649,1,0,0:0:0:0:
256,192,42837,1,2,0:0:0:0:
256,192,43024,1,0,0:0:0:0:
256,192,43118,1,0,0:0:0:0:
256,192,43212,1,0,0:0:0:0:
256,192,43399,1,0,0:0:0:0:
256,192,43587,1,2,0:0:0:0:
256,192,43962,1,0,0:0:0:0:
256,192,44337,1,2,0:0:0:0:
256,192,44524,1,2,0:0:0:0:
256,192,44712,1,0,0:0:0:0:
256,192,44899,1,0,0:0:0:0:
256,192,45274,1,2,0:0:0:0:
256,192,45649,1,0,0:0:0:0:
256,192,45837,1,2,0:0:0:0:
256,192,46024,1,2,0:0:0:0:
256,192,46118,1,2,0:0:0:0:
256,192,46212,1,0,0:0:0:0:
256,192,46399,1,0,0:0:0:0:
256,192,46587,1,2,0:0:0:0:
256,192,46962,5,4,0:0:0:0:
256,192,47337,1,2,0:0:0:0:
256,192,47712,1,0,0:0:0:0:
256,192,47899,1,0,0:0:0:0:
256,192,48274,1,6,0:0:0:0:
256,192,48649,1,0,0:0:0:0:
256,192,48837,1,2,0:0:0:0:
256,192,49024,1,2,0:0:0:0:
256,192,49212,1,0,0:0:0:0:
256,192,49399,1,2,0:0:0:0:
256,192,49587,1,0,0:0:0:0:
256,192,49680,1,0,0:0:0:0:
256,192,49774,1,0,0:0:0:0:
256,192,49962,5,4,0:0:0:0:
256,192,50337,1,2,0:0:0:0:
256,192,50618,1,2,0:0:0:0:
256,192,50712,1,0,0:0:0:0:
256,192,50899,1,0,0:0:0:0:
256,192,51274,1,2,0:0:0:0:
256,192,51649,1,0,0:0:0:0:
256,192,51837,1,2,0:0:0:0:
256,192,52024,1,0,0:0:0:0:
256,192,52118,1,0,0:0:0:0:
256,192,52212,1,0,0:0:0:0:
256,192,52399,1,0,0:0:0:0:
256,192,52587,1,2,0:0:0:0:
256,192,52962,1,0,0:0:0:0:
256,192,53337,1,2,0:0:0:0:
256,192,53712,1,0,0:0:0:0:
256,192,53899,1,0,0:0:0:0:
256,192,53993,1,2,0:0:0:0:
256,192,54087,1,0,0:0:0:0:
256,192,54274,1,2,0:0:0:0:
256,192,54649,1,0,0:0:0:0:
256,192,54837,1,2,0:0:0:0:
256,192,55024,1,2,0:0:0:0:
256,192,55118,1,2,0:0:0:0:
256,192,55212,1,0,0:0:0:0:
256,192,55399,1,0,0:0:0:0:
256,192,55587,1,2,0:0:0:0:
256,192,55962,1,0,0:0:0:0:
256,192,56337,1,2,0:0:0:0:
256,192,56618,1,2,0:0:0:0:
256,192,56712,1,0,0:0:0:0:
256,192,56899,1,0,0:0:0:0:
256,192,57274,1,2,0:0:0:0:
256,192,57649,1,0,0:0:0:0:
256,192,57837,1,2,0:0:0:0:
256,192,58024,1,0,0:0:0:0:
256,192,58118,1,0,0:0:0:0:
256,192,58212,1,2,0:0:0:0:
256,192,58399,1,0,0:0:0:0:
256,192,58587,1,2,0:0:0:0:
256,192,58962,1,0,0:0:0:0:
256,192,59337,1,2,0:0:0:0:
256,192,59524,1,0,0:0:0:0:
256,192,59618,1,2,0:0:0:0:
256,192,59712,1,0,0:0:0:0:
256,192,59899,1,0,0:0:0:0:
256,192,60274,1,6,0:0:0:0:
256,192,60649,1,2,0:0:0:0:
256,192,60837,1,2,0:0:0:0:
256,192,61024,1,0,0:0:0:0:
256,192,61212,1,2,0:0:0:0:
256,192,61399,1,2,0:0:0:0:
256,192,61493,1,2,0:0:0:0:
256,192,61587,1,0,0:0:0:0:
256,192,61680,1,0,0:0:0:0:
256,192,61774,1,0,0:0:0:0:
256,192,61962,5,4,0:0:0:0:
256,192,62337,1,2,0:0:0:0:
256,192,62712,1,0,0:0:0:0:
256,192,62899,1,0,0:0:0:0:
256,192,63274,1,6,0:0:0:0:
256,192,63649,1,0,0:0:0:0:
256,192,63837,1,2,0:0:0:0:
256,192,64212,1,0,0:0:0:0:
256,192,64399,1,0,0:0:0:0:
256,192,64587,1,2,0:0:0:0:
256,192,64962,1,4,0:0:0:0:
256,192,65337,1,2,0:0:0:0:
256,192,65712,1,0,0:0:0:0:
256,192,65899,1,0,0:0:0:0:
256,192,66087,1,2,0:0:0:0:
256,192,66274,1,6,0:0:0:0:
256,192,66649,1,2,0:0:0:0:
256,192,66837,1,0,0:0:0:0:
256,192,67212,1,2,0:0:0:0:
256,192,67399,1,0,0:0:0:0:
256,192,67587,1,2,0:0:0:0:
256,192,67962,5,0,0:0:0:0:
256,192,68149,1,2,0:0:0:0:
256,192,68337,1,0,0:0:0:0:
256,192,68524,1,2,0:0:0:0:
256,192,68618,1,2,0:0:0:0:
256,192,68712,1,0,0:0:0:0:
256,192,68899,1,0,0:0:0:0:
256,192,69087,1,2,0:0:0:0:
256,192,69274,1,2,0:0:0:0:
256,192,69462,1,0,0:0:0:0:
256,192,69649,1,2,0:0:0:0:
256,192,69837,1,0,0:0:0:0:
256,192,70024,1,0,0:0:0:0:
256,192,70118,1,0,0:0:0:0:
256,192,70212,1,2,0:0:0:0:
256,192,70399,1,0,0:0:0:0:
256,192,70587,1,2,0:0:0:0:
256,192,70962,5,2,0:0:0:0:
256,192,71149,1,0,0:0:0:0:
256,192,71243,1,0,0:0:0:0:
256,192,71337,1,2,0:0:0:0:
256,192,71524,1,0,0:0:0:0:
256,192,71712,1,2,0:0:0:0:
256,192,71805,1,2,0:0:0:0:
256,192,71899,1,0,0:0:0:0:
256,192,71993,1,0,0:0:0:0:
256,192,72087,1,2,0:0:0:0:
256,192,72274,1,0,0:0:0:0:
256,192,72462,5,6,0:0:0:0:
256,192,73024,5,0,0:0:0:0:
256,192,73118,1,0,0:0:0:0:
256,192,73212,1,2,0:0:0:0:
256,192,73399,1,0,0:0:0:0:
256,192,73587,1,2,0:0:0:0:
256,192,73962,5,4,0:0:0:0:
256,192,74149,1,2,0:0:0:0:
256,192,74337,1,0,0:0:0:0:
256,192,74524,1,2,0:0:0:0:
256,192,74618,1,2,0:0:0:0:
256,192,74712,1,0,0:0:0:0:
256,192,74899,1,0,0:0:0:0:
256,192,75087,1,2,0:0:0:0:
256,192,75462,1,2,0:0:0:0:
256,192,75649,1,0,0:0:0:0:
256,192,75837,1,2,0:0:0:0:
256,192,76024,1,2,0:0:0:0:
256,192,76118,1,0,0:0:0:0:
256,192,76212,1,2,0:0:0:0:
256,192,76399,1,0,0:0:0:0:
256,192,76587,1,2,0:0:0:0:
256,192,76680,1,2,0:0:0:0:
256,192,76774,1,0,0:0:0:0:
256,192,76868,1,0,0:0:0:0:
256,192,76962,1,2,0:0:0:0:
256,192,77243,1,0,0:0:0:0:
256,192,77337,1,2,0:0:0:0:
256,192,77524,1,2,0:0:0:0:
256,192,77712,1,0,0:0:0:0:
256,192,77805,1,0,0:0:0:0:
256,192,77899,1,2,0:0:0:0:
256,192,78087,1,0,0:0:0:0:
256,192,78274,1,2,0:0:0:0:
256,192,78462,1,0,0:0:0:0:
256,192,78649,1,2,0:0:0:0:
256,192,78743,1,2,0:0:0:0:
256,192,78837,1,0,0:0:0:0:
256,192,79024,1,2,0:0:0:0:
256,192,79212,1,0,0:0:0:0:
256,192,79305,1,0,0:0:0:0:
256,192,79399,1,0,0:0:0:0:
256,192,79587,1,2,0:0:0:0:
256,192,79774,1,2,0:0:0:0:
256,192,79962,1,0,0:0:0:0:
256,192,80337,1,2,0:0:0:0:
256,192,80524,1,0,0:0:0:0:
256,192,80618,1,0,0:0:0:0:
256,192,80712,1,2,0:0:0:0:
256,192,80899,1,2,0:0:0:0:
256,192,81087,1,0,0:0:0:0:
256,192,81274,1,2,0:0:0:0:
256,192,81462,1,0,0:0:0:0:
256,192,81649,1,2,0:0:0:0:
256,192,81743,1,2,0:0:0:0:
256,192,81837,1,0,0:0:0:0:
256,192,82024,1,2,0:0:0:0:
256,192,82212,1,0,0:0:0:0:
256,192,82305,1,0,0:0:0:0:
256,192,82399,1,0,0:0:0:0:
256,192,82493,1,0,0:0:0:0:
256,192,82587,1,2,0:0:0:0:
256,192,82774,1,2,0:0:0:0:
256,192,82962,1,0,0:0:0:0:
256,192,83149,1,0,0:0:0:0:
256,192,83337,1,2,0:0:0:0:
256,192,83524,1,0,0:0:0:0:
256,192,83712,1,2,0:0:0:0:
256,192,83899,1,2,0:0:0:0:
256,192,83993,1,2,0:0:0:0:
256,192,84087,1,2,0:0:0:0:
256,192,84274,5,4,0:0:0:0:
256,192,84649,1,0,0:0:0:0:
256,192,84837,1,0,0:0:0:0:
256,192,85024,1,6,0:0:0:0:
256,192,85399,1,0,0:0:0:0:
256,192,85587,1,2,0:0:0:0:
256,192,85962,5,4,0:0:0:0:
256,192,86149,1,2,0:0:0:0:
256,192,86337,1,0,0:0:0:0:
256,192,86524,1,2,0:0:0:0:
256,192,86618,1,2,0:0:0:0:
256,192,86712,1,0,0:0:0:0:
256,192,86899,1,0,0:0:0:0:
256,192,87087,1,2,0:0:0:0:
256,192,87462,1,2,0:0:0:0:
256,192,87649,1,0,0:0:0:0:
256,192,87837,1,2,0:0:0:0:
256,192,88024,1,2,0:0:0:0:
256,192,88118,1,0,0:0:0:0:
256,192,88212,1,2,0:0:0:0:
256,192,88399,1,0,0:0:0:0:
256,192,88587,1,2,0:0:0:0:
256,192,88680,1,2,0:0:0:0:
256,192,88774,1,0,0:0:0:0:
256,192,88868,1,0,0:0:0:0:
256,192,88962,1,2,0:0:0:0:
256,192,89243,1,0,0:0:0:0:
256,192,89337,1,2,0:0:0:0:
256,192,89524,1,2,0:0:0:0:
256,192,89712,1,0,0:0:0:0:
256,192,89805,1,0,0:0:0:0:
256,192,89899,1,2,0:0:0:0:
256,192,89993,1,2,0:0:0:0:
256,192,90087,1,0,0:0:0:0:
256,192,90274,1,2,0:0:0:0:
256,192,90462,1,0,0:0:0:0:
256,192,90649,1,2,0:0:0:0:
256,192,90743,1,2,0:0:0:0:
256,192,90837,1,2,0:0:0:0:
256,192,91024,1,0,0:0:0:0:
256,192,91212,1,2,0:0:0:0:
256,192,91305,1,2,0:0:0:0:
256,192,91399,1,0,0:0:0:0:
256,192,91587,1,2,0:0:0:0:
256,192,91774,1,0,0:0:0:0:
256,192,91868,1,2,0:0:0:0:
256,192,91962,1,0,0:0:0:0:
256,192,92337,1,2,0:0:0:0:
256,192,92524,1,0,0:0:0:0:
256,192,92712,1,2,0:0:0:0:
256,192,92805,1,0,0:0:0:0:
256,192,92899,1,2,0:0:0:0:
256,192,93087,1,0,0:0:0:0:
256,192,93274,1,2,0:0:0:0:
256,192,93462,1,0,0:0:0:0:
256,192,93649,1,0,0:0:0:0:
256,192,93743,1,0,0:0:0:0:
256,192,93837,1,2,0:0:0:0:
256,192,94024,1,2,0:0:0:0:
256,192,94212,1,0,0:0:0:0:
256,192,94305,1,0,0:0:0:0:
256,192,94399,1,2,0:0:0:0:
256,192,94493,1,0,0:0:0:0:
256,192,94587,1,2,0:0:0:0:
256,192,94774,1,2,0:0:0:0:
256,192,94962,1,0,0:0:0:0:
256,192,95149,1,0,0:0:0:0:
256,192,95337,1,2,0:0:0:0:
256,192,95524,1,0,0:0:0:0:
256,192,95712,1,2,0:0:0:0:
256,192,95899,1,2,0:0:0:0:
256,192,95993,1,0,0:0:0:0:
256,192,96087,1,2,0:0:0:0:
256,192,96274,5,4,0:0:0:0:
256,192,96649,1,0,0:0:0:0:
256,192,96837,1,0,0:0:0:0:
256,192,97024,1,6,0:0:0:0:
256,192,97399,1,0,0:0:0:0:
256,192,97587,1,2,0:0:0:0:
256,192,97680,1,2,0:0:0:0:
256,192,97774,1,2,0:0:0:0:
256,192,97868,1,2,0:0:0:0:
256,192,97962,5,0,0:0:0:0:
256,192,98337,1,2,0:0:0:0:
256,192,98524,1,0,0:0:0:0:
256,192,98618,1,0,0:0:0:0:
256,192,98712,1,2,0:0:0:0:
256,192,98899,1,0,0:0:0:0:
256,192,99087,1,2,0:0:0:0:
256,192,99180,1,2,0:0:0:0:
256,192,99274,1,0,0:0:0:0:
256,192,99368,1,0,0:0:0:0:
256,192,99462,1,2,0:0:0:0:
256,192,99649,1,0,0:0:0:0:
256,192,99743,1,0,0:0:0:0:
256,192,99837,1,2,0:0:0:0:
256,192,100024,1,2,0:0:0:0:
256,192,100212,1,0,0:0:0:0:
256,192,100305,1,0,0:0:0:0:
256,192,100399,1,0,0:0:0:0:
256,192,100587,1,2,0:0:0:0:
256,192,100774,1,0,0:0:0:0:
256,192,100962,1,2,0:0:0:0:
256,192,101337,1,2,0:0:0:0:
256,192,101524,1,0,0:0:0:0:
256,192,101712,1,2,0:0:0:0:
256,192,101805,1,0,0:0:0:0:
256,192,101899,1,2,0:0:0:0:
256,192,102087,1,0,0:0:0:0:
256,192,102274,1,2,0:0:0:0:
256,192,102462,1,0,0:0:0:0:
256,192,102649,1,2,0:0:0:0:
256,192,102743,1,2,0:0:0:0:
256,192,102837,1,0,0:0:0:0:
256,192,103024,1,2,0:0:0:0:
256,192,103212,1,0,0:0:0:0:
256,192,103305,1,0,0:0:0:0:
256,192,103399,1,0,0:0:0:0:
256,192,103587,1,2,0:0:0:0:
256,192,103680,1,2,0:0:0:0:
256,192,103774,1,2,0:0:0:0:
256,192,103868,1,2,0:0:0:0:
256,192,103962,5,0,0:0:0:0:
256,192,104337,1,2,0:0:0:0:
256,192,104524,1,0,0:0:0:0:
256,192,104618,1,0,0:0:0:0:
256,192,104712,1,2,0:0:0:0:
256,192,104899,1,0,0:0:0:0:
256,192,105087,1,2,0:0:0:0:
256,192,105180,1,0,0:0:0:0:
256,192,105274,1,2,0:0:0:0:
256,192,105368,1,0,0:0:0:0:
256,192,105462,1,2,0:0:0:0:
256,192,105649,1,0,0:0:0:0:
256,192,105743,1,0,0:0:0:0:
256,192,105837,1,2,0:0:0:0:
256,192,106024,1,0,0:0:0:0:
256,192,106212,1,2,0:0:0:0:
256,192,106305,1,2,0:0:0:0:
256,192,106399,1,0,0:0:0:0:
256,192,106493,1,0,0:0:0:0:
256,192,106587,1,2,0:0:0:0:
256,192,106774,1,0,0:0:0:0:
256,192,106962,5,2,0:0:0:0:
256,192,107149,1,0,0:0:0:0:
256,192,107243,1,0,0:0:0:0:
256,192,107337,1,2,0:0:0:0:
256,192,107524,1,0,0:0:0:0:
256,192,107618,1,0,0:0:0:0:
256,192,107712,1,2,0:0:0:0:
256,192,107805,1,2,0:0:0:0:
256,192,107899,1,0,0:0:0:0:
256,192,108087,1,2,0:0:0:0:
256,192,108274,1,0,0:0:0:0:
256,192,108462,5,6,0:0:0:0:
256,192,109024,1,0,0:0:0:0:
256,192,109118,1,0,0:0:0:0:
256,192,109212,1,0,0:0:0:0:
256,192,109399,1,0,0:0:0:0:
256,192,109587,1,2,0:0:0:0:
256,192,109962,5,4,0:0:0:0:
256,192,110337,1,2,0:0:0:0:
256,192,110618,1,2,0:0:0:0:
256,192,110712,1,0,0:0:0:0:
256,192,110899,1,0,0:0:0:0:
256,192,111087,1,2,0:0:0:0:
256,192,111274,1,0,0:0:0:0:
256,192,111649,1,0,0:0:0:0:
256,192,111837,1,2,0:0:0:0:
256,192,112024,1,0,0:0:0:0:
256,192,112212,1,0,0:0:0:0:
256,192,112305,1,2,0:0:0:0:
256,192,112399,1,0,0:0:0:0:
256,192,112587,1,2,0:0:0:0:
256,192,112774,1,2,0:0:0:0:
256,192,112868,1,2,0:0:0:0:
256,192,112962,1,0,0:0:0:0:
256,192,113149,1,0,0:0:0:0:
256,192,113337,1,2,0:0:0:0:
256,192,113524,1,2,0:0:0:0:
256,192,113618,1,2,0:0:0:0:
256,192,113712,1,0,0:0:0:0:
256,192,113805,1,2,0:0:0:0:
256,192,113899,1,0,0:0:0:0:
256,192,114087,1,2,0:0:0:0:
256,192,114274,1,0,0:0:0:0:
256,192,114649,1,0,0:0:0:0:
256,192,114837,1,2,0:0:0:0:
256,192,115024,1,0,0:0:0:0:
256,192,115212,1,0,0:0:0:0:
256,192,115305,1,0,0:0:0:0:
256,192,115399,1,2,0:0:0:0:
256,192,115493,1,2,0:0:0:0:
256,192,115587,1,0,0:0:0:0:
256,192,115774,1,2,0:0:0:0:
256,192,115868,1,2,0:0:0:0:
256,192,115962,1,0,0:0:0:0:
256,192,116337,1,2,0:0:0:0:
256,192,116618,1,2,0:0:0:0:
256,192,116712,1,0,0:0:0:0:
256,192,116899,1,0,0:0:0:0:
256,192,117087,1,2,0:0:0:0:
256,192,117274,1,0,0:0:0:0:
256,192,117649,1,0,0:0:0:0:
256,192,117837,1,2,0:0:0:0:
256,192,118024,1,0,0:0:0:0:
256,192,118212,1,0,0:0:0:0:
256,192,118305,1,2,0:0:0:0:
256,192,118399,1,0,0:0:0:0:
256,192,118587,1,2,0:0:0:0:
256,192,118774,1,2,0:0:0:0:
256,192,118868,1,2,0:0:0:0:
256,192,118962,1,0,0:0:0:0:
256,192,119337,1,2,0:0:0:0:
256,192,119524,1,0,0:0:0:0:
256,192,119712,1,0,0:0:0:0:
256,192,119805,1,0,0:0:0:0:
256,192,119899,1,2,0:0:0:0:
256,192,119993,1,0,0:0:0:0:
256,192,120087,1,2,0:0:0:0:
256,192,120274,1,4,0:0:0:0:
256,192,120649,1,0,0:0:0:0:
256,192,120743,1,0,0:0:0:0:
256,192,120837,1,0,0:0:0:0:
256,192,121024,1,6,0:0:0:0:
256,192,121399,1,0,0:0:0:0:
256,192,121587,1,2,0:0:0:0:
256,192,121774,1,2,0:0:0:0:
256,192,121868,1,2,0:0:0:0:
256,192,121962,5,4,0:0:0:0:
256,192,123274,1,4,0:0:0:0:
256,192,123649,1,4,0:0:0:0:
256,192,123837,1,6,0:0:0:0:
256,192,124118,1,0,0:0:0:0:
256,192,124212,1,2,0:0:0:0:
256,192,124399,1,0,0:0:0:0:
256,192,124587,1,6,0:0:0:0:
256,192,124962,5,4,0:0:0:0:
256,192,125337,1,2,0:0:0:0:
256,192,125524,1,0,0:0:0:0:
256,192,125618,1,0,0:0:0:0:
256,192,125712,1,0,0:0:0:0:
256,192,125899,1,0,0:0:0:0:
256,192,126274,1,2,0:0:0:0:
256,192,126649,1,0,0:0:0:0:
256,192,126837,1,2,0:0:0:0:
256,192,127024,1,0,0:0:0:0:
256,192,127118,1,2,0:0:0:0:
256,192,127212,1,0,0:0:0:0:
256,192,127399,1,0,0:0:0:0:
256,192,127587,1,2,0:0:0:0:
256,192,127774,1,2,0:0:0:0:
256,192,127962,1,0,0:0:0:0:
256,192,128337,1,2,0:0:0:0:
256,192,128524,1,2,0:0:0:0:
256,192,128618,1,2,0:0:0:0:
256,192,128712,1,0,0:0:0:0:
256,192,128899,1,0,0:0:0:0:
256,192,129274,1,2,0:0:0:0:
256,192,129649,1,0,0:0:0:0:
256,192,129837,1,2,0:0:0:0:
256,192,130024,1,0,0:0:0:0:
256,192,130118,1,0,0:0:0:0:
256,192,130212,1,2,0:0:0:0:
256,192,130399,1,0,0:0:0:0:
256,192,130587,1,2,0:0:0:0:
256,192,130774,1,2,0:0:0:0:
256,192,130962,1,0,0:0:0:0:
256,192,131337,1,2,0:0:0:0:
256,192,131524,1,0,0:0:0:0:
256,192,131618,1,0,0:0:0:0:
256,192,131712,1,0,0:0:0:0:
256,192,131899,1,0,0:0:0:0:
256,192,132087,1,2,0:0:0:0:
256,192,132462,1,4,0:0:0:0:
256,192,132649,1,2,0:0:0:0:
256,192,132743,1,2,0:0:0:0:
256,192,132837,1,2,0:0:0:0:
256,192,133024,1,4,0:0:0:0:
256,192,133399,1,6,0:0:0:0:
256,192,133774,1,0,0:0:0:0:
256,192,133962,5,6,0:0:0:0:
256,192,134337,1,2,0:0:0:0:
256,192,134712,1,0,0:0:0:0:
256,192,134899,1,2,0:0:0:0:
256,192,134993,1,2,0:0:0:0:
256,192,135087,1,0,0:0:0:0:
256,192,135274,1,2,0:0:0:0:
256,192,135649,1,0,0:0:0:0:
256,192,135837,1,2,0:0:0:0:
256,192,136024,1,0,0:0:0:0:
256,192,136118,1,0,0:0:0:0:
256,192,136212,1,2,0:0:0:0:
256,192,136399,1,0,0:0:0:0:
256,192,136587,1,2,0:0:0:0:
256,192,136962,1,0,0:0:0:0:
256,192,137337,1,2,0:0:0:0:
256,192,137524,1,0,0:0:0:0:
256,192,137618,1,2,0:0:0:0:
256,192,137712,1,0,0:0:0:0:
256,192,137899,1,2,0:0:0:0:
256,192,137993,1,2,0:0:0:0:
256,192,138087,1,0,0:0:0:0:
256,192,138274,1,2,0:0:0:0:
256,192,138649,1,0,0:0:0:0:
256,192,138837,1,2,0:0:0:0:
256,192,139024,1,0,0:0:0:0:
256,192,139118,1,2,0:0:0:0:
256,192,139212,1,2,0:0:0:0:
256,192,139305,1,2,0:0:0:0:
256,192,139399,1,0,0:0:0:0:
256,192,139587,1,2,0:0:0:0:
256,192,139962,1,0,0:0:0:0:
256,192,140337,1,2,0:0:0:0:
256,192,140524,1,2,0:0:0:0:
256,192,140618,1,2,0:0:0:0:
256,192,140712,1,0,0:0:0:0:
256,192,140899,1,0,0:0:0:0:
256,192,141274,1,2,0:0:0:0:
256,192,141649,1,0,0:0:0:0:
256,192,141837,1,2,0:0:0:0:
256,192,142024,1,0,0:0:0:0:
256,192,142118,1,0,0:0:0:0:
256,192,142212,1,2,0:0:0:0:
256,192,142305,1,2,0:0:0:0:
256,192,142399,1,0,0:0:0:0:
256,192,142587,1,2,0:0:0:0:
256,192,142962,5,4,0:0:0:0:
256,192,143337,1,2,0:0:0:0:
256,192,143524,1,0,0:0:0:0:
256,192,143618,1,0,0:0:0:0:
256,192,143712,1,0,0:0:0:0:
256,192,143899,1,2,0:0:0:0:
256,192,144087,1,0,0:0:0:0:
256,192,144274,1,6,0:0:0:0:
256,192,144649,1,0,0:0:0:0:
256,192,144837,1,2,0:0:0:0:
256,192,145024,1,2,0:0:0:0:
256,192,145212,1,0,0:0:0:0:
256,192,145305,1,0,0:0:0:0:
256,192,145399,1,2,0:0:0:0:
256,192,145587,1,0,0:0:0:0:
256,192,145680,1,0,0:0:0:0:
256,192,145774,1,0,0:0:0:0:
256,192,145962,5,4,0:0:0:0:
256,192,146337,1,2,0:0:0:0:
256,192,146524,1,0,0:0:0:0:
256,192,146712,1,0,0:0:0:0:
256,192,146899,1,2,0:0:0:0:
256,192,146993,1,2,0:0:0:0:
256,192,147087,1,0,0:0:0:0:
256,192,147274,1,2,0:0:0:0:
256,192,147649,1,0,0:0:0:0:
256,192,147837,1,2,0:0:0:0:
256,192,148024,1,0,0:0:0:0:
256,192,148118,1,0,0:0:0:0:
256,192,148212,1,2,0:0:0:0:
256,192,148399,1,0,0:0:0:0:
256,192,148587,1,2,0:0:0:0:
256,192,148680,1,0,0:0:0:0:
256,192,148774,1,2,0:0:0:0:
256,192,148868,1,2,0:0:0:0:
256,192,148962,1,0,0:0:0:0:
256,192,149337,1,2,0:0:0:0:
256,192,149524,1,0,0:0:0:0:
256,192,149618,1,0,0:0:0:0:
256,192,149712,1,0,0:0:0:0:
256,192,149899,1,2,0:0:0:0:
256,192,149993,1,2,0:0:0:0:
256,192,150087,1,0,0:0:0:0:
256,192,150274,1,2,0:0:0:0:
256,192,150649,1,0,0:0:0:0:
256,192,150837,1,2,0:0:0:0:
256,192,150930,1,2,0:0:0:0:
256,192,151024,1,2,0:0:0:0:
256,192,151118,1,2,0:0:0:0:
256,192,151212,1,0,0:0:0:0:
256,192,151399,1,2,0:0:0:0:
256,192,151493,1,2,0:0:0:0:
256,192,151587,1,0,0:0:0:0:
256,192,151774,1,2,0:0:0:0:
256,192,151962,1,0,0:0:0:0:
256,192,152337,1,2,0:0:0:0:
256,192,152524,1,0,0:0:0:0:
256,192,152618,1,2,0:0:0:0:
256,192,152712,1,0,0:0:0:0:
256,192,152899,1,0,0:0:0:0:
256,192,153274,1,2,0:0:0:0:
256,192,153649,1,0,0:0:0:0:
256,192,153837,1,2,0:0:0:0:
256,192,154024,1,0,0:0:0:0:
256,192,154118,1,0,0:0:0:0:
256,192,154212,1,2,0:0:0:0:
256,192,154305,1,2,0:0:0:0:
256,192,154399,1,0,0:0:0:0:
256,192,154587,1,2,0:0:0:0:
256,192,154774,1,0,0:0:0:0:
256,192,154868,1,0,0:0:0:0:
256,192,154962,1,2,0:0:0:0:
256,192,155337,1,2,0:0:0:0:
256,192,155524,1,0,0:0:0:0:
256,192,155618,1,2,0:0:0:0:
256,192,155712,1,0,0:0:0:0:
256,192,155899,1,0,0:0:0:0:
256,192,156274,1,6,0:0:0:0:
256,192,156649,1,2,0:0:0:0:
256,192,156837,1,2,0:0:0:0:
256,192,157024,1,0,0:0:0:0:
256,192,157118,1,0,0:0:0:0:
256,192,157212,1,2,0:0:0:0:
256,192,157399,1,2,0:0:0:0:
256,192,157493,1,2,0:0:0:0:
256,192,157587,1,0,0:0:0:0:
256,192,157680,1,2,0:0:0:0:
256,192,157774,1,0,0:0:0:0:
256,192,157962,5,4,0:0:0:0:
256,192,158337,1,2,0:0:0:0:
256,192,158712,1,0,0:0:0:0:
256,192,158899,1,0,0:0:0:0:
256,192,159274,1,6,0:0:0:0:
256,192,159649,1,0,0:0:0:0:
256,192,159837,1,2,0:0:0:0:
256,192,160024,1,0,0:0:0:0:
256,192,160118,1,2,0:0:0:0:
256,192,160212,1,0,0:0:0:0:
256,192,160399,1,0,0:0:0:0:
256,192,160587,1,2,0:0:0:0:
256,192,160962,1,4,0:0:0:0:
256,192,161337,1,2,0:0:0:0:
256,192,161712,1,2,0:0:0:0:
256,192,161899,1,0,0:0:0:0:
256,192,162087,1,0,0:0:0:0:
256,192,162274,1,6,0:0:0:0:
256,192,162649,1,0,0:0:0:0:
256,192,162837,1,2,0:0:0:0:
256,192,163024,1,2,0:0:0:0:
256,192,163118,1,2,0:0:0:0:
256,192,163212,1,2,0:0:0:0:
256,192,163399,1,0,0:0:0:0:
256,192,163587,1,2,0:0:0:0:
256,192,163962,5,0,0:0:0:0:
256,192,164149,1,2,0:0:0:0:
256,192,164243,1,2,0:0:0:0:
256,192,164337,1,0,0:0:0:0:
256,192,164524,1,2,0:0:0:0:
256,192,164712,1,0,0:0:0:0:
256,192,164899,1,0,0:0:0:0:
256,192,164993,1,2,0:0:0:0:
256,192,165087,1,0,0:0:0:0:
256,192,165274,1,2,0:0:0:0:
256,192,165462,1,0,0:0:0:0:
256,192,165555,1,0,0:0:0:0:
256,192,165649,1,2,0:0:0:0:
256,192,165743,1,0,0:0:0:0:
256,192,165837,1,2,0:0:0:0:
256,192,166024,1,0,0:0:0:0:
256,192,166212,1,2,0:0:0:0:
256,192,166399,1,0,0:0:0:0:
256,192,166587,1,2,0:0:0:0:
256,192,166962,5,2,0:0:0:0:
256,192,167149,1,0,0:0:0:0:
256,192,167243,1,0,0:0:0:0:
256,192,167337,1,2,0:0:0:0:
256,192,167524,1,0,0:0:0:0:
256,192,167618,1,0,0:0:0:0:
256,192,167712,1,2,0:0:0:0:
256,192,167805,1,2,0:0:0:0:
256,192,167899,1,0,0:0:0:0:
256,192,168087,1,2,0:0:0:0:
256,192,168180,1,2,0:0:0:0:
256,192,168274,1,0,0:0:0:0:
256,192,168462,5,6,0:0:0:0:
256,192,169024,1,0,0:0:0:0:
256,192,169118,1,0,0:0:0:0:
256,192,169212,1,2,0:0:0:0:
256,192,169399,1,0,0:0:0:0:
256,192,169587,1,2,0:0:0:0:
256,192,169962,5,4,0:0:0:0:
256,192,170149,1,2,0:0:0:0:
256,192,170337,1,0,0:0:0:0:
256,192,170524,1,2,0:0:0:0:
256,192,170618,1,2,0:0:0:0:
256,192,170712,1,0,0:0:0:0:
256,192,170899,1,2,0:0:0:0:
256,192,170993,1,0,0:0:0:0:
256,192,171087,1,2,0:0:0:0:
256,192,171274,1,2,0:0:0:0:
256,192,171462,1,0,0:0:0:0:
256,192,171649,1,2,0:0:0:0:
256,192,171837,1,0,0:0:0:0:
256,192,172024,1,2,0:0:0:0:
256,192,172118,1,2,0:0:0:0:
256,192,172212,1,0,0:0:0:0:
256,192,172399,1,2,0:0:0:0:
256,192,172587,1,2,0:0:0:0:
256,192,172680,1,2,0:0:0:0:
256,192,172774,1,0,0:0:0:0:
256,192,172868,1,0,0:0:0:0:
256,192,172962,1,2,0:0:0:0:
256,192,173149,1,0,0:0:0:0:
256,192,173243,1,0,0:0:0:0:
256,192,173337,1,0,0:0:0:0:
256,192,173524,1,2,0:0:0:0:
256,192,173712,1,0,0:0:0:0:
256,192,173805,1,0,0:0:0:0:
256,192,173899,1,2,0:0:0:0:
256,192,174087,1,0,0:0:0:0:
256,192,174274,1,2,0:0:0:0:
256,192,174462,1,0,0:0:0:0:
256,192,174649,1,2,0:0:0:0:
256,192,174743,1,2,0:0:0:0:
256,192,174837,1,0,0:0:0:0:
256,192,175024,1,2,0:0:0:0:
256,192,175212,1,0,0:0:0:0:
256,192,175305,1,0,0:0:0:0:
256,192,175399,1,0,0:0:0:0:
256,192,175587,1,2,0:0:0:0:
256,192,175774,1,0,0:0:0:0:
256,192,175868,1,2,0:0:0:0:
256,192,175962,1,0,0:0:0:0:
256,192,176337,1,2,0:0:0:0:
256,192,176524,1,0,0:0:0:0:
256,192,176712,1,2,0:0:0:0:
256,192,176805,1,0,0:0:0:0:
256,192,176899,1,2,0:0:0:0:
256,192,177087,1,0,0:0:0:0:
256,192,177274,1,2,0:0:0:0:
256,192,177462,1,0,0:0:0:0:
256,192,177649,1,0,0:0:0:0:
256,192,177743,1,0,0:0:0:0:
256,192,177837,1,2,0:0:0:0:
256,192,178024,1,2,0:0:0:0:
256,192,178212,1,0,0:0:0:0:
256,192,178305,1,0,0:0:0:0:
256,192,178399,1,2,0:0:0:0:
256,192,178493,1,0,0:0:0:0:
256,192,178587,1,2,0:0:0:0:
256,192,178774,1,2,0:0:0:0:
256,192,178868,1,2,0:0:0:0:
256,192,178962,1,0,0:0:0:0:
256,192,179149,1,0,0:0:0:0:
256,192,179337,1,2,0:0:0:0:
256,192,179524,1,0,0:0:0:0:
256,192,179712,1,2,0:0:0:0:
256,192,179805,1,0,0:0:0:0:
256,192,179899,1,2,0:0:0:0:
256,192,179993,1,0,0:0:0:0:
256,192,180087,1,2,0:0:0:0:
256,192,180274,5,4,0:0:0:0:
256,192,180649,1,0,0:0:0:0:
256,192,180837,1,0,0:0:0:0:
256,192,181024,1,6,0:0:0:0:
256,192,181399,1,0,0:0:0:0:
256,192,181587,1,2,0:0:0:0:
256,192,181962,5,4,0:0:0:0:
256,192,182149,1,2,0:0:0:0:
256,192,182337,1,0,0:0:0:0:
256,192,182524,1,2,0:0:0:0:
256,192,182618,1,2,0:0:0:0:
256,192,182712,1,0,0:0:0:0:
256,192,182899,1,2,0:0:0:0:
256,192,182993,1,0,0:0:0:0:
256,192,183087,1,2,0:0:0:0:
256,192,183274,1,2,0:0:0:0:
256,192,183462,1,0,0:0:0:0:
256,192,183649,1,2,0:0:0:0:
256,192,183837,1,0,0:0:0:0:
256,192,184024,1,2,0:0:0:0:
256,192,184118,1,2,0:0:0:0:
256,192,184212,1,0,0:0:0:0:
256,192,184399,1,2,0:0:0:0:
256,192,184587,1,2,0:0:0:0:
256,192,184680,1,2,0:0:0:0:
256,192,184774,1,0,0:0:0:0:
256,192,184868,1,0,0:0:0:0:
256,192,184962,1,2,0:0:0:0:
256,192,185149,1,0,0:0:0:0:
256,192,185243,1,0,0:0:0:0:
256,192,185337,1,2,0:0:0:0:
256,192,185524,1,2,0:0:0:0:
256,192,185712,1,0,0:0:0:0:
256,192,185805,1,0,0:0:0:0:
256,192,185899,1,2,0:0:0:0:
256,192,185993,1,2,0:0:0:0:
256,192,186087,1,0,0:0:0:0:
256,192,186274,1,2,0:0:0:0:
256,192,186462,1,0,0:0:0:0:
256,192,186649,1,0,0:0:0:0:
256,192,186743,1,0,0:0:0:0:
256,192,186837,1,2,0:0:0:0:
256,192,187024,1,0,0:0:0:0:
256,192,187212,1,2,0:0:0:0:
256,192,187305,1,2,0:0:0:0:
256,192,187399,1,0,0:0:0:0:
256,192,187587,1,2,0:0:0:0:
256,192,187680,1,2,0:0:0:0:
256,192,187774,1,0,0:0:0:0:
256,192,187868,1,2,0:0:0:0:
256,192,187962,1,0,0:0:0:0:
256,192,188337,1,2,0:0:0:0:
256,192,188524,1,0,0:0:0:0:
256,192,188712,1,0,0:0:0:0:
256,192,188805,1,0,0:0:0:0:
256,192,188899,1,2,0:0:0:0:
256,192,189087,1,0,0:0:0:0:
256,192,189274,1,2,0:0:0:0:
256,192,189462,1,0,0:0:0:0:
256,192,189649,1,0,0:0:0:0:
256,192,189743,1,2,0:0:0:0:
256,192,189837,1,0,0:0:0:0:
256,192,190024,1,2,0:0:0:0:
256,192,190212,1,0,0:0:0:0:
256,192,190305,1,0,0:0:0:0:
256,192,190399,1,2,0:0:0:0:
256,192,190493,1,0,0:0:0:0:
256,192,190587,1,2,0:0:0:0:
256,192,190774,1,0,0:0:0:0:
256,192,190868,1,0,0:0:0:0:
256,192,190962,1,2,0:0:0:0:
256,192,191149,1,0,0:0:0:0:
256,192,191337,1,2,0:0:0:0:
256,192,191524,1,0,0:0:0:0:
256,192,191712,1,2,0:0:0:0:
256,192,191805,1,2,0:0:0:0:
256,192,191899,1,0,0:0:0:0:
256,192,191993,1,0,0:0:0:0:
256,192,192087,1,2,0:0:0:0:
256,192,192274,5,4,0:0:0:0:
256,192,192649,1,0,0:0:0:0:
256,192,192837,1,0,0:0:0:0:
256,192,193024,1,6,0:0:0:0:
256,192,193399,1,0,0:0:0:0:
256,192,193493,1,0,0:0:0:0:
256,192,193587,1,2,0:0:0:0:
256,192,193774,1,2,0:0:0:0:
256,192,193868,1,2,0:0:0:0:
256,192,193962,5,0,0:0:0:0:
256,192,194337,1,2,0:0:0:0:
256,192,194524,1,2,0:0:0:0:
256,192,194618,1,0,0:0:0:0:
256,192,194712,1,2,0:0:0:0:
256,192,194899,1,0,0:0:0:0:
256,192,195087,1,2,0:0:0:0:
256,192,195274,1,0,0:0:0:0:
256,192,195368,1,0,0:0:0:0:
256,192,195462,1,2,0:0:0:0:
256,192,195649,1,0,0:0:0:0:
256,192,195837,1,2,0:0:0:0:
256,192,196024,1,2,0:0:0:0:
256,192,196212,1,0,0:0:0:0:
256,192,196399,1,2,0:0:0:0:
256,192,196493,1,2,0:0:0:0:
256,192,196587,1,0,0:0:0:0:
256,192,196774,1,2,0:0:0:0:
256,192,196962,1,0,0:0:0:0:
256,192,197337,1,2,0:0:0:0:
256,192,197524,1,0,0:0:0:0:
256,192,197712,1,2,0:0:0:0:
256,192,197805,1,2,0:0:0:0:
256,192,197899,1,0,0:0:0:0:
256,192,197993,1,2,0:0:0:0:
256,192,198087,1,0,0:0:0:0:
256,192,198274,1,2,0:0:0:0:
256,192,198462,1,0,0:0:0:0:
256,192,198649,1,2,0:0:0:0:
256,192,198743,1,2,0:0:0:0:
256,192,198837,1,0,0:0:0:0:
256,192,199024,1,2,0:0:0:0:
256,192,199212,1,0,0:0:0:0:
256,192,199399,1,0,0:0:0:0:
256,192,199493,1,0,0:0:0:0:
256,192,199587,1,2,0:0:0:0:
256,192,199774,1,2,0:0:0:0:
256,192,199868,1,2,0:0:0:0:
256,192,199962,5,0,0:0:0:0:
256,192,200337,1,2,0:0:0:0:
256,192,200524,1,2,0:0:0:0:
256,192,200618,1,0,0:0:0:0:
256,192,200712,1,2,0:0:0:0:
256,192,200899,1,0,0:0:0:0:
256,192,201087,1,2,0:0:0:0:
256,192,201274,1,0,0:0:0:0:
256,192,201368,1,0,0:0:0:0:
256,192,201462,1,2,0:0:0:0:
256,192,201649,1,0,0:0:0:0:
256,192,201743,1,0,0:0:0:0:
256,192,201837,1,0,0:0:0:0:
256,192,202024,1,0,0:0:0:0:
256,192,202212,1,2,0:0:0:0:
256,192,202305,1,0,0:0:0:0:
256,192,202399,1,2,0:0:0:0:
256,192,202493,1,2,0:0:0:0:
256,192,202587,1,0,0:0:0:0:
256,192,202774,1,2,0:0:0:0:
256,192,202868,1,0,0:0:0:0:
256,192,202962,1,2,0:0:0:0:
256,192,203149,1,0,0:0:0:0:
256,192,203337,1,2,0:0:0:0:
256,192,203524,1,0,0:0:0:0:
256,192,203618,1,0,0:0:0:0:
256,192,203712,1,2,0:0:0:0:
256,192,203805,1,2,0:0:0:0:
256,192,203899,1,0,0:0:0:0:
256,192,203993,1,0,0:0:0:0:
256,192,204087,1,2,0:0:0:0:
256,192,204274,1,0,0:0:0:0:
256,192,204462,5,6,0:0:0:0:
256,192,205399,1,0,0:0:0:0:
256,192,205587,1,2,0:0:0:0:
256,192,205962,5,4,0:0:0:0:
256,192,206524,1,0,0:0:0:0:
256,192,206712,1,2,0:0:0:0:
256,192,207087,1,0,0:0:0:0:
256,192,207274,1,0,0:0:0:0:
256,192,207649,1,2,0:0:0:0:
256,192,207837,1,0,0:0:0:0:
256,192,208024,1,0,0:0:0:0:
256,192,208212,1,2,0:0:0:0:
256,192,208587,1,0,0:0:0:0:
256,192,208774,1,2,0:0:0:0:
256,192,208962,1,0,0:0:0:0:
256,192,209149,1,0,0:0:0:0:
256,192,209524,1,0,0:0:0:0:
256,192,209712,1,2,0:0:0:0:
256,192,210087,1,0,0:0:0:0:
256,192,210274,5,6,0:0:0:0:
256,192,210649,1,2,0:0:0:0:
256,192,210837,1,0,0:0:0:0:
256,192,211024,1,2,0:0:0:0:
256,192,211118,1,2,0:0:0:0:
256,192,211212,1,0,0:0:0:0:
256,192,211399,1,0,0:0:0:0:
256,192,211587,1,2,0:0:0:0:
256,192,211962,5,4,0:0:0:0:
256,192,212337,1,2,0:0:0:0:
256,192,212524,1,0,0:0:0:0:
256,192,212712,1,2,0:0:0:0:
256,192,212899,1,2,0:0:0:0:
256,192,213274,1,4,0:0:0:0:
256,192,213649,1,0,0:0:0:0:
256,192,213837,1,2,0:0:0:0:
256,192,214024,1,2,0:0:0:0:
256,192,214118,1,2,0:0:0:0:
256,192,214212,1,0,0:0:0:0:
256,192,214399,1,0,0:0:0:0:
256,192,214587,1,2,0:0:0:0:
256,192,214774,1,0,0:0:0:0:
256,192,214962,5,6,0:0:0:0:
256,192,215243,1,0,0:0:0:0:
256,192,215337,1,0,0:0:0:0:
256,192,215524,1,2,0:0:0:0:
256,192,215712,1,0,0:0:0:0:
256,192,215805,1,0,0:0:0:0:
256,192,215899,1,0,0:0:0:0:
256,192,216087,1,2,0:0:0:0:
256,192,216274,1,0,0:0:0:0:
256,192,216462,1,6,0:0:0:0:
256,192,216743,1,2,0:0:0:0:
256,192,216837,1,0,0:0:0:0:
256,192,217024,1,2,0:0:0:0:
256,192,217212,1,0,0:0:0:0:
256,192,217305,1,2,0:0:0:0:
256,192,217399,1,0,0:0:0:0:
256,192,217587,1,2,0:0:0:0:
256,192,217774,1,0,0:0:0:0:
256,192,217962,5,6,0:0:0:0:
256,192,218337,1,2,0:0:0:0:
256,192,218524,1,0,0:0:0:0:
256,192,218712,1,2,0:0:0:0:
256,192,218899,1,2,0:0:0:0:
256,192,219087,1,0,0:0:0:0:
256,192,219274,1,0,0:0:0:0:
256,192,219462,1,2,0:0:0:0:
256,192,219649,1,0,0:0:0:0:
256,192,219743,1,0,0:0:0:0:
256,192,219837,1,2,0:0:0:0:
256,192,220024,1,0,0:0:0:0:
256,192,220212,1,2,0:0:0:0:
256,192,220399,1,2,0:0:0:0:
256,192,220493,1,0,0:0:0:0:
256,192,220587,1,2,0:0:0:0:
256,192,220774,1,0,0:0:0:0:
256,192,220962,1,2,0:0:0:0:
256,192,221055,1,2,0:0:0:0:
256,192,221149,1,0,0:0:0:0:
256,192,221243,1,0,0:0:0:0:
256,192,221337,1,2,0:0:0:0:
256,192,221524,1,0,0:0:0:0:
256,192,221712,1,2,0:0:0:0:
256,192,221805,1,2,0:0:0:0:
256,192,221899,1,2,0:0:0:0:
256,192,221993,1,2,0:0:0:0:
256,192,222087,1,0,0:0:0:0:
256,192,222180,1,0,0:0:0:0:
256,192,222274,1,0,0:0:0:0:
256,192,222368,1,0,0:0:0:0:
256,192,222462,5,2,0:0:0:0:
256,192,223024,1,0,0:0:0:0:
256,192,223118,1,0,0:0:0:0:
256,192,223212,1,2,0:0:0:0:
256,192,223399,1,0,0:0:0:0:
256,192,223587,1,2,0:0:0:0:
256,192,223962,5,4,0:0:0:0:
256,192,225462,1,4,0:0:0:0:
256,192,226962,1,6,0:0:0:0:
256,192,227899,1,0,0:0:0:0:
256,192,227993,1,0,0:0:0:0:
256,192,228087,1,0,0:0:0:0:
256,192,228274,1,6,0:0:0:0:
256,192,228649,1,0,0:0:0:0:
256,192,228837,1,2,0:0:0:0:
256,192,229024,1,2,0:0:0:0:
256,192,229118,1,2,0:0:0:0:
256,192,229212,1,0,0:0:0:0:
256,192,229399,1,0,0:0:0:0:
256,192,229587,1,2,0:0:0:0:
256,192,229774,1,0,0:0:0:0:
256,192,229868,1,0,0:0:0:0:
256,192,229962,5,0,0:0:0:0:
256,192,230337,1,2,0:0:0:0:
256,192,230524,1,0,0:0:0:0:
256,192,230712,1,0,0:0:0:0:
256,192,230899,1,0,0:0:0:0:
256,192,231087,1,2,0:0:0:0:
256,192,231274,1,0,0:0:0:0:
256,192,231649,1,0,0:0:0:0:
256,192,231836,1,2,0:0:0:0:
256,192,232024,1,0,0:0:0:0:
256,192,232212,1,0,0:0:0:0:
256,192,232399,1,0,0:0:0:0:
256,192,232587,1,2,0:0:0:0:
256,192,232774,1,0,0:0:0:0:
256,192,232868,1,0,0:0:0:0:
256,192,232962,5,2,0:0:0:0:
256,192,233149,1,0,0:0:0:0:
256,192,233337,1,2,0:0:0:0:
256,192,233524,1,0,0:0:0:0:
256,192,233712,1,2,0:0:0:0:
256,192,233899,1,2,0:0:0:0:
256,192,233993,1,2,0:0:0:0:
256,192,234087,1,2,0:0:0:0:
256,192,234274,1,4,0:0:0:0:
256,192,234649,1,0,0:0:0:0:
256,192,234837,1,0,0:0:0:0:
256,192,235024,1,6,0:0:0:0:
256,192,235399,1,0,0:0:0:0:
256,192,235587,1,2,0:0:0:0:
256,192,235774,1,2,0:0:0:0:
256,192,235868,1,2,0:0:0:0:
256,192,235962,5,4,0:0:0:0:
256,192,236149,1,2,0:0:0:0:
256,192,236337,1,0,0:0:0:0:
256,192,236430,1,0,0:0:0:0:
256,192,236524,1,2,0:0:0:0:
256,192,236618,1,2,0:0:0:0:
256,192,236712,1,0,0:0:0:0:
256,192,236899,1,2,0:0:0:0:
256,192,236993,1,2,0:0:0:0:
256,192,237087,1,0,0:0:0:0:
256,192,237274,1,2,0:0:0:0:
256,192,237462,1,0,0:0:0:0:
256,192,237649,1,2,0:0:0:0:
256,192,237837,1,0,0:0:0:0:
256,192,237930,1,0,0:0:0:0:
256,192,238024,1,2,0:0:0:0:
256,192,238118,1,0,0:0:0:0:
256,192,238212,1,2,0:0:0:0:
256,192,238399,1,0,0:0:0:0:
256,192,238587,1,2,0:0:0:0:
256,192,238680,1,2,0:0:0:0:
256,192,238774,1,0,0:0:0:0:
256,192,238868,1,0,0:0:0:0:
256,192,238962,1,2,0:0:0:0:
256,192,239149,1,0,0:0:0:0:
256,192,239243,1,0,0:0:0:0:
256,192,239337,1,2,0:0:0:0:
256,192,239524,1,2,0:0:0:0:
256,192,239712,1,0,0:0:0:0:
256,192,239899,1,2,0:0:0:0:
256,192,239993,1,2,0:0:0:0:
256,192,240087,1,0,0:0:0:0:
256,192,240274,1,2,0:0:0:0:
256,192,240462,1,0,0:0:0:0:
256,192,240555,1,0,0:0:0:0:
256,192,240649,1,0,0:0:0:0:
256,192,240743,1,0,0:0:0:0:
256,192,240837,1,2,0:0:0:0:
256,192,241024,1,2,0:0:0:0:
256,192,241118,1,2,0:0:0:0:
256,192,241212,1,0,0:0:0:0:
256,192,241399,1,0,0:0:0:0:
256,192,241587,1,2,0:0:0:0:
256,192,241680,1,2,0:0:0:0:
256,192,241774,1,0,0:0:0:0:
256,192,241868,1,2,0:0:0:0:
256,192,241962,1,0,0:0:0:0:
256,192,242337,1,2,0:0:0:0:
256,192,242524,1,0,0:0:0:0:
256,192,242618,1,0,0:0:0:0:
256,192,242712,1,2,0:0:0:0:
256,192,242899,1,2,0:0:0:0:
256,192,243087,1,0,0:0:0:0:
256,192,243274,1,2,0:0:0:0:
256,192,243462,1,0,0:0:0:0:
256,192,243649,1,2,0:0:0:0:
256,192,243743,1,2,0:0:0:0:
256,192,243837,1,0,0:0:0:0:
256,192,244024,1,2,0:0:0:0:
256,192,244212,1,0,0:0:0:0:
256,192,244305,1,0,0:0:0:0:
256,192,244399,1,2,0:0:0:0:
256,192,244493,1,0,0:0:0:0:
256,192,244587,1,2,0:0:0:0:
256,192,244774,1,2,0:0:0:0:
256,192,244962,1,0,0:0:0:0:
256,192,245149,1,0,0:0:0:0:
256,192,245337,1,2,0:0:0:0:
256,192,245524,1,0,0:0:0:0:
256,192,245712,1,2,0:0:0:0:
256,192,245805,1,2,0:0:0:0:
256,192,245899,1,0,0:0:0:0:
256,192,245993,1,0,0:0:0:0:
256,192,246087,1,2,0:0:0:0:
256,192,246274,5,4,0:0:0:0:
256,192,246649,1,0,0:0:0:0:
256,192,246837,1,0,0:0:0:0:
256,192,247024,1,6,0:0:0:0:
256,192,247399,1,2,0:0:0:0:
256,192,247493,1,0,0:0:0:0:
256,192,247587,1,2,0:0:0:0:
256,192,247774,1,2,0:0:0:0:
256,192,247868,1,2,0:0:0:0:
256,192,247962,5,0,0:0:0:0:
256,192,248149,1,0,0:0:0:0:
256,192,248337,1,2,0:0:0:0:
256,192,248524,1,0,0:0:0:0:
256,192,248618,1,0,0:0:0:0:
256,192,248712,1,2,0:0:0:0:
256,192,248899,1,0,0:0:0:0:
256,192,249087,1,2,0:0:0:0:
256,192,249180,1,2,0:0:0:0:
256,192,249274,1,0,0:0:0:0:
256,192,249368,1,2,0:0:0:0:
256,192,249462,1,0,0:0:0:0:
256,192,249649,1,0,0:0:0:0:
256,192,249743,1,0,0:0:0:0:
256,192,249837,1,2,0:0:0:0:
256,192,250024,1,2,0:0:0:0:
256,192,250212,1,0,0:0:0:0:
256,192,250399,1,2,0:0:0:0:
256,192,250493,1,0,0:0:0:0:
256,192,250587,1,2,0:0:0:0:
256,192,250774,1,2,0:0:0:0:
256,192,250962,1,0,0:0:0:0:
256,192,251337,1,0,0:0:0:0:
256,192,251524,1,2,0:0:0:0:
256,192,251712,1,0,0:0:0:0:
256,192,251805,1,0,0:0:0:0:
256,192,251899,1,2,0:0:0:0:
256,192,251993,1,0,0:0:0:0:
256,192,252087,1,2,0:0:0:0:
256,192,252274,1,2,0:0:0:0:
256,192,252462,1,0,0:0:0:0:
256,192,252649,1,2,0:0:0:0:
256,192,252743,1,2,0:0:0:0:
256,192,252837,1,0,0:0:0:0:
256,192,253024,1,2,0:0:0:0:
256,192,253212,1,0,0:0:0:0:
256,192,253305,1,0,0:0:0:0:
256,192,253399,1,0,0:0:0:0:
256,192,253493,1,0,0:0:0:0:
256,192,253587,1,2,0:0:0:0:
256,192,253774,1,2,0:0:0:0:
256,192,253868,1,2,0:0:0:0:
256,192,253962,5,0,0:0:0:0:
256,192,254149,1,0,0:0:0:0:
256,192,254337,1,2,0:0:0:0:
256,192,254524,1,0,0:0:0:0:
256,192,254618,1,0,0:0:0:0:
256,192,254712,1,2,0:0:0:0:
256,192,254899,1,0,0:0:0:0:
256,192,255087,1,2,0:0:0:0:
256,192,255180,1,0,0:0:0:0:
256,192,255274,1,2,0:0:0:0:
256,192,255368,1,0,0:0:0:0:
256,192,255462,1,2,0:0:0:0:
256,192,255649,1,0,0:0:0:0:
256,192,255743,1,0,0:0:0:0:
256,192,255837,1,2,0:0:0:0:
256,192,256024,1,0,0:0:0:0:
256,192,256212,1,2,0:0:0:0:
256,192,256305,1,2,0:0:0:0:
256,192,256399,1,0,0:0:0:0:
256,192,256587,1,2,0:0:0:0:
256,192,256774,1,0,0:0:0:0:
256,192,256868,1,0,0:0:0:0:
256,192,256962,5,2,0:0:0:0:
256,192,257337,1,2,0:0:0:0:
256,192,257524,1,0,0:0:0:0:
256,192,257712,1,2,0:0:0:0:
256,192,257805,1,2,0:0:0:0:
256,192,257899,1,0,0:0:0:0:
256,192,257993,1,0,0:0:0:0:
256,192,258087,1,2,0:0:0:0:
256,192,258274,1,0,0:0:0:0:
256,192,258462,1,2,0:0:0:0:
256,192,258649,1,2,0:0:0:0:
256,192,258743,1,0,0:0:0:0:
256,192,258837,1,2,0:0:0:0:
256,192,259024,1,0,0:0:0:0:
256,192,259212,1,2,0:0:0:0:
256,192,259305,1,2,0:0:0:0:
256,192,259399,1,2,0:0:0:0:
256,192,259493,1,2,0:0:0:0:
256,192,259586,1,0,0:0:0:0:
256,192,259680,1,0,0:0:0:0:
256,192,259774,1,0,0:0:0:0:
256,192,259868,1,0,0:0:0:0:
256,192,259962,5,2,0:0:0:0:
256,192,260149,12,4,261274,0:0:0:0:
256,192,261462,5,2,0:0:0:0:
256,192,261649,1,0,0:0:0:0:
256,192,262024,1,0,0:0:0:0:
256,192,262118,1,0,0:0:0:0:
256,192,262212,1,2,0:0:0:0:
256,192,262399,1,0,0:0:0:0:
256,192,262587,1,2,0:0:0:0:
256,192,262962,5,4,0:0:0:0:
256,192,263337,1,2,0:0:0:0:
256,192,263712,1,0,0:0:0:0:
256,192,263899,1,0,0:0:0:0:
256,192,264087,1,2,0:0:0:0:
256,192,264274,1,0,0:0:0:0:
256,192,264649,1,0,0:0:0:0:
256,192,264837,1,2,0:0:0:0:
256,192,265024,1,0,0:0:0:0:
256,192,265212,1,0,0:0:0:0:
256,192,265399,1,2,0:0:0:0:
256,192,265493,1,2,0:0:0:0:
256,192,265587,1,0,0:0:0:0:
256,192,265774,1,2,0:0:0:0:
256,192,265962,1,0,0:0:0:0:
256,192,266337,1,2,0:0:0:0:
256,192,266524,1,0,0:0:0:0:
256,192,266618,1,0,0:0:0:0:
256,192,266712,1,0,0:0:0:0:
256,192,266899,1,0,0:0:0:0:
256,192,267087,1,2,0:0:0:0:
256,192,267274,1,0,0:0:0:0:
256,192,267649,1,0,0:0:0:0:
256,192,267837,1,2,0:0:0:0:
256,192,268024,1,0,0:0:0:0:
256,192,268212,1,0,0:0:0:0:
256,192,268305,1,0,0:0:0:0:
256,192,268399,1,2,0:0:0:0:
256,192,268587,1,0,0:0:0:0:
256,192,268774,1,2,0:0:0:0:
256,192,268868,1,2,0:0:0:0:
256,192,268962,1,0,0:0:0:0:
256,192,269337,1,2,0:0:0:0:
256,192,269712,1,0,0:0:0:0:
256,192,269899,1,0,0:0:0:0:
256,192,270087,1,2,0:0:0:0:
256,192,270274,1,0,0:0:0:0:
256,192,270649,1,0,0:0:0:0:
256,192,270837,1,2,0:0:0:0:
256,192,271024,1,0,0:0:0:0:
256,192,271212,1,0,0:0:0:0:
256,192,271399,1,2,0:0:0:0:
256,192,271493,1,2,0:0:0:0:
256,192,271587,1,0,0:0:0:0:
256,192,271774,1,2,0:0:0:0:
256,192,271962,1,0,0:0:0:0:
256,192,272243,1,2,0:0:0:0:
256,192,272337,1,0,0:0:0:0:
256,192,272524,1,2,0:0:0:0:
256,192,272712,1,0,0:0:0:0:
256,192,272805,1,0,0:0:0:0:
256,192,272899,1,2,0:0:0:0:
256,192,273087,1,2,0:0:0:0:
256,192,273274,5,4,0:0:0:0:
256,192,273649,1,0,0:0:0:0:
256,192,273743,1,0,0:0:0:0:
256,192,273837,1,0,0:0:0:0:
256,192,274024,1,6,0:0:0:0:
256,192,274399,1,0,0:0:0:0:
256,192,274587,1,2,0:0:0:0:
256,192,274774,1,2,0:0:0:0:
256,192,274868,1,2,0:0:0:0:
256,192,274962,5,4,0:0:0:0:
256,192,275337,1,2,0:0:0:0:
256,192,275618,1,2,0:0:0:0:
256,192,275712,1,0,0:0:0:0:
256,192,275899,1,0,0:0:0:0:
256,192,276087,1,2,0:0:0:0:
256,192,276274,1,0,0:0:0:0:
256,192,276649,1,0,0:0:0:0:
256,192,276837,1,2,0:0:0:0:
256,192,277024,1,0,0:0:0:0:
256,192,277212,1,0,0:0:0:0:
256,192,277305,1,2,0:0:0:0:
256,192,277399,1,0,0:0:0:0:
256,192,277587,1,2,0:0:0:0:
256,192,277774,1,2,0:0:0:0:
256,192,277868,1,2,0:0:0:0:
256,192,277962,1,0,0:0:0:0:
256,192,278149,1,0,0:0:0:0:
256,192,278337,1,2,0:0:0:0:
256,192,278524,1,2,0:0:0:0:
256,192,278618,1,2,0:0:0:0:
256,192,278712,1,0,0:0:0:0:
256,192,278805,1,2,0:0:0:0:
256,192,278899,1,0,0:0:0:0:
256,192,279087,1,2,0:0:0:0:
256,192,279274,1,0,0:0:0:0:
256,192,279649,1,0,0:0:0:0:
256,192,279837,1,2,0:0:0:0:
256,192,280024,1,0,0:0:0:0:
256,192,280212,1,0,0:0:0:0:
256,192,280305,1,0,0:0:0:0:
256,192,280399,1,2,0:0:0:0:
256,192,280493,1,0,0:0:0:0:
256,192,280587,1,2,0:0:0:0:
256,192,280774,1,2,0:0:0:0:
256,192,280868,1,2,0:0:0:0:
256,192,280962,1,0,0:0:0:0:
256,192,281337,1,2,0:0:0:0:
256,192,281618,1,2,0:0:0:0:
256,192,281712,1,0,0:0:0:0:
256,192,281899,1,0,0:0:0:0:
256,192,282087,1,2,0:0:0:0:
256,192,282274,1,0,0:0:0:0:
256,192,282649,1,0,0:0:0:0:
256,192,282837,1,2,0:0:0:0:
256,192,283024,1,0,0:0:0:0:
256,192,283212,1,0,0:0:0:0:
256,192,283305,1,2,0:0:0:0:
256,192,283399,1,0,0:0:0:0:
256,192,283587,1,2,0:0:0:0:
256,192,283774,1,0,0:0:0:0:
256,192,283962,5,0,0:0:0:0:
256,192,284055,1,2,0:0:0:0:
256,192,284243,1,0,0:0:0:0:
256,192,284337,1,2,0:0:0:0:
256,192,284524,1,2,0:0:0:0:
256,192,284712,1,0,0:0:0:0:
256,192,284805,1,2,0:0:0:0:
256,192,284899,1,0,0:0:0:0:
256,192,285087,1,2,0:0:0:0:
256,192,285274,1,4,0:0:0:0:
256,192,285649,1,0,0:0:0:0:
256,192,285743,1,0,0:0:0:0:
256,192,285837,1,0,0:0:0:0:
256,192,286024,1,6,0:0:0:0:
256,192,286399,1,0,0:0:0:0:
256,192,286587,1,2,0:0:0:0:
256,192,286774,1,0,0:0:0:0:
256,192,286962,5,4,0:0:0:0:
256,192,287149,1,2,0:0:0:0:
256,192,287337,1,2,0:0:0:0:
256,192,287524,1,4,0:0:0:0:
256,192,287899,1,0,0:0:0:0:
256,192,288087,1,0,0:0:0:0:
256,192,288274,1,6,0:0:0:0:
256,192,288649,1,2,0:0:0:0:
256,192,288743,1,2,0:0:0:0:
256,192,288837,1,0,0:0:0:0:
256,192,288930,1,0,0:0:0:0:
256,192,289024,1,2,0:0:0:0:
256,192,289118,1,2,0:0:0:0:
256,192,289212,1,2,0:0:0:0:
256,192,289587,5,6,0:0:0:0:
256,192,289774,1,4,0:0:0:0:
