osu file format v14

[General]
AudioFilename: Choco Rhythm Choco Rule.mp3
AudioLeadIn: 0
PreviewTime: 72837
Countdown: 0
SampleSet: Normal
StackLeniency: 0.7
Mode: 1
LetterboxInBreaks: 0
WidescreenStoryboard: 1

[Editor]
DistanceSpacing: 0.8
BeatDivisor: 4
GridSize: 32
TimelineZoom: 2.2

[Metadata]
Title:Choco Rhythm Choco Rule
TitleUnicode:チョコリズムチョコルール
Artist:Cocoa (CV: Sakura Ayane)
ArtistUnicode:ココア (CV:佐倉綾音)
Creator:komasy
Version:butter's Muzukashii
Source:ご注文はうさぎですか?
Tags:保登心愛 Hoto gochiusa ごちうさ キャラクターソング Character Song 宝箱のジェットコースター Takarabako no Jet Coaster 畑亜貴 Hata Aki 木村有希 Kimura Yuuki 園田健太郎 Sonoda Kentarou _yu68 butter0414
BeatmapID:1486543
BeatmapSetID:702521

[Difficulty]
HPDrainRate:5
CircleSize:5
OverallDifficulty:5
ApproachRate:5
SliderMultiplier:1.4
SliderTickRate:1

[Events]
//Background and Video events
0,0,"i10208537318.jpg",0,60
//Break Periods
//Storyboard Layer 0 (Background)
//Storyboard Layer 1 (Fail)
//Storyboard Layer 2 (Pass)
//Storyboard Layer 3 (Foreground)
//Storyboard Sound Samples

[TimingPoints]
660,322.58064516129,4,1,0,90,1,0
3240,-100,4,1,0,100,0,1
21305,-100,4,1,0,100,0,0
26466,-100,4,1,0,90,0,0
48724,-100,4,1,0,75,0,0
49692,-100,4,1,0,90,0,0
51305,-100,4,1,0,75,0,0
52272,-100,4,1,0,90,0,0
72918,-100,4,1,0,100,0,1
96143,-100,4,1,0,95,0,0
101789,-100,4,1,0,50,0,0
102272,-100,4,1,0,40,0,0
102918,-100,4,1,0,30,0,0
103563,-100,4,1,0,20,0,0
104208,-100,4,1,0,10,0,0

[HitObjects]
352,136,660,5,0,0:0:0:0:
300,148,821,1,6,0:0:0:0:
196,148,1143,1,0,0:0:0:0:
352,136,1305,1,6,0:0:0:0:
364,236,1627,1,0,0:0:0:0:
296,132,1950,1,6,0:0:0:0:
360,228,2272,1,6,0:0:0:0:
380,248,2837,1,2,0:0:0:0:
408,260,2918,1,2,0:0:0:0:
368,224,3079,1,2,0:0:0:0:
344,180,3240,1,4,0:0:0:0:
232,144,3563,1,2,0:0:0:0:
284,152,3724,1,2,0:0:0:0:
344,176,3885,1,0,0:0:0:0:
448,168,4208,1,2,0:0:0:0:
396,168,4369,1,0,0:0:0:0:
392,196,4692,1,0,0:0:0:0:
448,168,4853,1,2,0:0:0:0:
448,168,5014,1,0,0:0:0:0:
448,168,5337,1,0,0:0:0:0:
392,272,5659,1,6,0:0:0:0:
288,336,5982,1,0,0:0:0:0:
336,316,6143,1,2,0:0:0:0:
392,272,6466,1,0,0:0:0:0:
392,272,6627,1,0,0:0:0:0:
344,232,6789,1,2,0:0:0:0:
344,128,7111,1,0,0:0:0:0:
344,128,7272,1,0,0:0:0:0:
344,128,7434,1,2,0:0:0:0:
344,128,7595,1,0,0:0:0:0:
316,160,7918,1,2,0:0:0:0:
344,128,8079,1,2,0:0:0:0:
344,180,8401,1,4,0:0:0:0:
232,144,8724,1,2,0:0:0:0:
284,152,8885,1,0,0:0:0:0:
344,176,9046,1,0,0:0:0:0:
448,168,9369,1,2,0:0:0:0:
396,168,9530,1,0,0:0:0:0:
392,196,9853,1,0,0:0:0:0:
448,168,10014,1,2,0:0:0:0:
448,168,10175,1,0,0:0:0:0:
448,168,10498,1,2,0:0:0:0:
392,272,10820,1,4,0:0:0:0:
288,336,11143,1,0,0:0:0:0:
336,316,11304,1,2,0:0:0:0:
392,272,11627,1,0,0:0:0:0:
392,272,11788,1,0,0:0:0:0:
344,232,11950,1,2,0:0:0:0:
344,128,12272,1,0,0:0:0:0:
344,128,12433,1,0,0:0:0:0:
344,128,12595,1,2,0:0:0:0:
360,188,12756,1,0,0:0:0:0:
432,140,12918,1,0,0:0:0:0:
336,100,13159,1,2,0:0:0:0:
344,128,13240,1,2,0:0:0:0:
292,168,13401,1,2,0:0:0:0:
344,180,13563,1,0,0:0:0:0:
452,184,13885,1,2,0:0:0:0:
348,224,14208,1,2,0:0:0:0:
348,224,14369,1,0,0:0:0:0:
344,184,14530,1,2,0:0:0:0:
344,184,14853,1,0,0:0:0:0:
344,184,15014,1,0,0:0:0:0:
436,244,15176,1,2,0:0:0:0:
388,216,15337,1,0,0:0:0:0:
300,148,15498,1,0,0:0:0:0:
344,180,15821,1,2,0:0:0:0:
440,220,16143,1,0,0:0:0:0:
336,176,16466,1,2,0:0:0:0:
444,220,16789,1,0,0:0:0:0:
396,200,16950,1,0,0:0:0:0:
344,184,17111,1,2,0:0:0:0:
392,96,17434,1,0,0:0:0:0:
360,180,17595,1,0,0:0:0:0:
336,188,17756,1,2,0:0:0:0:
364,144,17918,1,2,0:0:0:0:
364,144,18079,1,0,0:0:0:0:
364,144,18240,1,10,0:0:0:0:
364,144,18321,1,10,0:0:0:0:
364,144,18401,1,10,0:0:0:0:
332,180,18563,1,2,0:0:0:0:
304,212,18724,1,0,0:0:0:0:
380,152,19047,1,2,0:0:0:0:
364,144,19208,1,0,0:0:0:0:
436,220,19369,1,2,0:0:0:0:
436,220,19530,1,0,0:0:0:0:
392,184,19692,1,2,0:0:0:0:
344,152,19853,1,2,0:0:0:0:
368,108,20014,1,4,0:0:0:0:
356,124,20337,1,6,0:0:0:0:
444,60,20901,1,2,0:0:0:0:
428,72,20982,1,2,0:0:0:0:
392,100,21143,1,0,0:0:0:0:
356,124,21305,1,4,0:0:0:0:
296,208,21627,1,2,0:0:0:0:
316,144,21950,1,0,0:0:0:0:
276,164,22111,1,0,0:0:0:0:
276,164,22272,1,2,0:0:0:0:
320,152,22434,1,0,0:0:0:0:
344,140,22756,1,0,0:0:0:0:
372,184,22918,1,2,0:0:0:0:
424,204,23079,1,0,0:0:0:0:
372,108,23401,1,0,0:0:0:0:
340,52,23563,1,2,0:0:0:0:
340,112,23885,1,4,0:0:0:0:
452,144,24208,1,2,0:0:0:0:
256,192,24369,1,0,0:0:0:0:
340,112,24530,1,2,0:0:0:0:
452,144,24853,1,2,0:0:0:0:
256,192,25176,1,0,0:0:0:0:
392,184,25337,1,0,0:0:0:0:
296,224,25659,1,6,0:0:0:0:
280,120,26466,1,4,0:0:0:0:
388,120,26789,1,2,0:0:0:0:
268,124,27111,1,0,0:0:0:0:
324,116,27272,1,0,0:0:0:0:
324,116,27434,1,2,0:0:0:0:
324,116,27756,1,0,0:0:0:0:
428,100,28079,1,2,0:0:0:0:
428,100,28401,1,0,0:0:0:0:
428,100,28724,1,2,0:0:0:0:
428,100,28885,1,0,0:0:0:0:
428,100,29208,1,0,0:0:0:0:
428,100,29369,1,2,0:0:0:0:
428,100,29692,1,0,0:0:0:0:
428,100,30014,1,2,0:0:0:0:
364,112,30176,1,2,0:0:0:0:
428,100,30498,1,0,0:0:0:0:
428,100,30659,1,2,0:0:0:0:
428,100,30821,1,2,0:0:0:0:
428,100,31143,1,2,0:0:0:0:
428,100,31305,1,2,0:0:0:0:
428,100,31627,1,0,0:0:0:0:
428,100,31950,1,2,0:0:0:0:
428,100,32272,1,0,0:0:0:0:
428,100,32434,1,0,0:0:0:0:
428,100,32595,1,2,0:0:0:0:
428,100,32918,1,0,0:0:0:0:
428,100,33240,1,2,0:0:0:0:
428,100,33563,1,0,0:0:0:0:
428,100,33885,1,2,0:0:0:0:
256,160,34047,1,2,0:0:0:0:
428,100,34208,1,0,0:0:0:0:
428,100,34530,1,2,0:0:0:0:
372,108,34692,1,0,0:0:0:0:
428,100,34853,1,0,0:0:0:0:
380,120,35176,1,2,0:0:0:0:
380,88,35337,1,0,0:0:0:0:
380,96,35659,1,2,0:0:0:0:
328,92,35821,1,0,0:0:0:0:
280,88,35982,1,2,0:0:0:0:
324,160,36305,1,2,0:0:0:0:
344,168,36789,1,4,0:0:0:0:
328,268,37111,1,2,0:0:0:0:
408,176,37434,1,0,0:0:0:0:
372,216,37595,1,0,0:0:0:0:
320,224,37756,1,2,0:0:0:0:
436,256,38079,1,0,0:0:0:0:
348,232,38401,1,2,0:0:0:0:
340,320,38643,1,2,0:0:0:0:
364,308,38724,1,2,0:0:0:0:
412,288,38885,1,0,0:0:0:0:
416,204,39208,1,6,0:0:0:0:
376,100,39530,1,0,0:0:0:0:
392,156,39692,1,2,0:0:0:0:
392,52,40014,1,0,0:0:0:0:
392,100,40176,1,0,0:0:0:0:
392,100,40337,1,2,0:0:0:0:
392,100,40659,1,0,0:0:0:0:
392,100,40821,1,0,0:0:0:0:
392,100,40982,1,2,0:0:0:0:
256,192,41224,1,2,0:0:0:0:
392,100,41466,1,0,0:0:0:0:
392,100,41627,1,2,0:0:0:0:
504,88,41950,1,0,0:0:0:0:
396,100,42272,1,2,0:0:0:0:
444,84,42434,1,2,0:0:0:0:
508,88,42595,1,0,0:0:0:0:
456,92,42756,1,0,0:0:0:0:
392,104,42918,1,2,0:0:0:0:
500,124,43240,1,0,0:0:0:0:
392,104,43563,1,2,0:0:0:0:
468,116,43885,1,0,0:0:0:0:
424,108,44047,1,0,0:0:0:0:
424,108,44208,1,2,0:0:0:0:
480,116,44369,1,2,0:0:0:0:
320,164,44530,1,4,0:0:0:0:
384,252,44853,1,2,0:0:0:0:
344,196,45014,1,0,0:0:0:0:
308,144,45176,1,2,0:0:0:0:
396,164,45337,1,2,0:0:0:0:
416,36,45659,1,2,0:0:0:0:
292,124,45821,1,0,0:0:0:0:
388,220,45982,1,2,0:0:0:0:
372,176,46305,1,2,0:0:0:0:
388,220,46466,1,0,0:0:0:0:
376,180,46789,1,2,0:0:0:0:
360,128,46950,1,2,0:0:0:0:
320,148,47111,1,4,0:0:0:0:
288,168,47434,1,2,0:0:0:0:
340,176,47595,1,2,0:0:0:0:
364,180,47676,1,2,0:0:0:0:
388,184,47756,1,2,0:0:0:0:
360,144,47918,1,4,0:0:0:0:
452,200,48240,1,4,0:0:0:0:
360,136,48563,1,6,0:0:0:0:
308,136,49047,1,2,0:0:0:0:
256,196,49369,1,2,0:0:0:0:
316,128,49692,1,4,0:0:0:0:
412,172,50014,1,2,0:0:0:0:
464,196,50176,1,2,0:0:0:0:
464,196,50256,1,2,0:0:0:0:
464,196,50337,1,2,0:0:0:0:
464,196,50498,1,4,0:0:0:0:
408,292,50821,1,4,0:0:0:0:
464,200,51143,1,6,0:0:0:0:
352,164,51466,1,2,0:0:0:0:
340,144,51547,1,2,0:0:0:0:
308,148,51627,1,2,0:0:0:0:
360,132,51789,1,0,0:0:0:0:
360,132,51950,1,2,0:0:0:0:
360,132,52272,1,0,0:0:0:0:
440,56,52595,1,2,0:0:0:0:
340,100,52918,1,0,0:0:0:0:
388,72,53079,1,0,0:0:0:0:
336,104,53240,1,2,0:0:0:0:
432,44,53563,1,0,0:0:0:0:
336,104,53885,1,2,0:0:0:0:
384,60,54047,1,0,0:0:0:0:
308,132,54369,1,0,0:0:0:0:
348,92,54530,1,2,0:0:0:0:
348,92,54853,1,0,0:0:0:0:
348,92,55176,1,2,0:0:0:0:
348,92,55498,1,0,0:0:0:0:
348,92,55659,1,0,0:0:0:0:
348,92,55821,1,2,0:0:0:0:
388,124,55982,1,4,0:0:0:0:
300,200,56305,1,0,0:0:0:0:
340,160,56466,1,2,0:0:0:0:
340,160,56627,1,4,0:0:0:0:
340,160,56950,1,0,0:0:0:0:
340,160,57111,1,2,0:0:0:0:
340,160,57434,1,4,0:0:0:0:
280,240,57756,1,2,0:0:0:0:
244,288,57918,1,2,0:0:0:0:
320,116,58079,1,0,0:0:0:0:
324,224,58240,1,0,0:0:0:0:
372,212,58401,1,2,0:0:0:0:
416,180,58563,1,0,0:0:0:0:
252,80,58885,1,0,0:0:0:0:
280,240,59046,1,2,0:0:0:0:
244,288,59208,1,2,0:0:0:0:
324,224,59530,1,0,0:0:0:0:
372,212,59692,1,2,0:0:0:0:
340,160,60014,1,0,0:0:0:0:
280,240,60337,1,2,0:0:0:0:
244,288,60498,1,2,0:0:0:0:
292,260,60659,1,0,0:0:0:0:
324,224,60820,1,0,0:0:0:0:
372,212,60982,1,2,0:0:0:0:
340,160,61305,1,0,0:0:0:0:
280,240,61627,1,2,0:0:0:0:
244,288,61789,1,2,0:0:0:0:
324,224,62111,1,2,0:0:0:0:
372,212,62272,1,2,0:0:0:0:
336,168,62434,1,2,0:0:0:0:
332,148,62595,1,0,0:0:0:0:
428,196,62918,1,2,0:0:0:0:
308,200,63240,1,0,0:0:0:0:
372,200,63401,1,0,0:0:0:0:
372,200,63563,1,2,0:0:0:0:
372,200,63724,1,0,0:0:0:0:
372,200,64047,1,0,0:0:0:0:
372,200,64208,1,2,0:0:0:0:
428,184,64369,1,0,0:0:0:0:
324,156,64692,1,2,0:0:0:0:
372,168,64853,1,2,0:0:0:0:
412,204,65014,1,4,0:0:0:0:
448,212,65337,1,0,0:0:0:0:
448,212,65498,1,2,0:0:0:0:
328,172,65821,1,0,0:0:0:0:
268,156,65982,1,0,0:0:0:0:
268,156,66143,1,2,0:0:0:0:
268,156,66466,1,0,0:0:0:0:
268,156,66627,1,0,0:0:0:0:
268,156,66789,1,2,0:0:0:0:
284,212,66950,1,0,0:0:0:0:
316,164,67111,1,2,0:0:0:0:
256,108,67272,1,2,0:0:0:0:
316,164,67353,1,2,0:0:0:0:
272,164,67434,1,2,0:0:0:0:
316,164,67595,1,2,0:0:0:0:
316,164,67756,1,4,0:0:0:0:
316,164,67918,1,4,0:0:0:0:
404,100,68240,1,4,0:0:0:0:
356,136,68401,1,4,0:0:0:0:
248,136,68724,1,6,0:0:0:0:
296,148,68885,1,6,0:0:0:0:
356,136,69208,1,6,0:0:0:0:
356,136,69369,1,6,0:0:0:0:
356,136,69692,1,4,0:0:0:0:
356,136,69853,1,4,0:0:0:0:
356,136,70176,1,6,0:0:0:0:
356,136,70337,1,6,0:0:0:0:
356,136,70659,1,4,0:0:0:0:
356,136,70821,1,4,0:0:0:0:
356,136,71143,1,6,0:0:0:0:
356,136,71305,1,6,0:0:0:0:
356,136,71627,1,6,0:0:0:0:
356,136,71950,1,6,0:0:0:0:
356,136,72918,1,4,0:0:0:0:
272,184,73240,1,2,0:0:0:0:
340,200,73401,1,2,0:0:0:0:
360,212,73563,1,0,0:0:0:0:
404,236,73724,1,0,0:0:0:0:
384,284,73885,1,2,0:0:0:0:
352,244,74047,1,0,0:0:0:0:
360,212,74369,1,0,0:0:0:0:
360,212,74530,1,2,0:0:0:0:
356,196,74692,1,0,0:0:0:0:
340,132,75014,1,0,0:0:0:0:
340,132,75176,1,0,0:0:0:0:
340,132,75337,1,6,0:0:0:0:
236,152,75659,1,0,0:0:0:0:
212,184,75821,1,2,0:0:0:0:
212,184,76143,1,0,0:0:0:0:
180,220,76305,1,0,0:0:0:0:
224,236,76466,1,2,0:0:0:0:
268,232,76627,1,2,0:0:0:0:
268,232,76789,1,0,0:0:0:0:
308,248,76950,1,0,0:0:0:0:
368,248,77111,1,2,0:0:0:0:
368,248,77272,1,0,0:0:0:0:
368,248,77595,1,0,0:0:0:0:
368,248,77756,1,2,0:0:0:0:
280,196,78079,1,4,0:0:0:0:
344,272,78401,1,2,0:0:0:0:
296,208,78563,1,0,0:0:0:0:
296,208,78724,1,0,0:0:0:0:
344,240,78885,1,2,0:0:0:0:
344,272,79047,1,2,0:0:0:0:
344,272,79208,1,0,0:0:0:0:
352,256,79530,1,2,0:0:0:0:
320,192,79611,1,2,0:0:0:0:
336,212,79692,1,2,0:0:0:0:
332,196,79853,1,0,0:0:0:0:
288,192,80014,1,0,0:0:0:0:
320,160,80176,1,2,0:0:0:0:
256,192,80337,1,0,0:0:0:0:
352,256,80498,1,6,0:0:0:0:
288,172,80821,1,0,0:0:0:0:
288,172,80982,1,2,0:0:0:0:
352,200,81305,1,0,0:0:0:0:
388,232,81466,1,0,0:0:0:0:
392,284,81627,1,2,0:0:0:0:
412,312,81789,1,2,0:0:0:0:
440,356,81950,1,0,0:0:0:0:
452,312,82111,1,2,0:0:0:0:
444,256,82272,1,2,0:0:0:0:
432,204,82434,1,0,0:0:0:0:
408,160,82595,1,0,0:0:0:0:
364,148,82837,1,2,0:0:0:0:
428,176,82918,1,2,0:0:0:0:
428,176,83079,1,2,0:0:0:0:
392,144,83240,1,0,0:0:0:0:
376,264,83563,1,2,0:0:0:0:
344,316,83885,1,2,0:0:0:0:
340,356,84047,1,0,0:0:0:0:
340,356,84208,1,2,0:0:0:0:
332,328,84369,1,2,0:0:0:0:
252,292,84530,1,0,0:0:0:0:
200,284,84692,1,0,0:0:0:0:
248,288,84853,1,2,0:0:0:0:
228,324,85014,1,2,0:0:0:0:
204,316,85176,1,0,0:0:0:0:
336,380,85498,1,2,0:0:0:0:
328,328,85821,1,0,0:0:0:0:
384,236,86143,1,2,0:0:0:0:
332,188,86305,1,0,0:0:0:0:
352,168,86466,1,0,0:0:0:0:
396,148,86627,1,0,0:0:0:0:
352,168,86789,1,2,0:0:0:0:
352,168,87111,1,0,0:0:0:0:
288,164,87272,1,0,0:0:0:0:
444,124,87434,1,2,0:0:0:0:
400,168,87595,1,2,0:0:0:0:
436,144,87756,1,0,0:0:0:0:
436,144,87918,1,0,0:0:0:0:
392,124,88079,1,2,0:0:0:0:
304,212,88401,1,0,0:0:0:0:
380,152,88724,1,2,0:0:0:0:
364,144,88885,1,0,0:0:0:0:
436,220,89046,1,2,0:0:0:0:
436,220,89207,1,0,0:0:0:0:
392,184,89369,1,2,0:0:0:0:
344,152,89530,1,2,0:0:0:0:
368,108,89692,1,4,0:0:0:0:
248,144,90014,1,6,0:0:0:0:
360,128,90337,1,0,0:0:0:0:
316,344,90579,1,2,0:0:0:0:
324,324,90659,1,2,0:0:0:0:
248,144,90821,1,2,0:0:0:0:
304,212,90982,1,0,0:0:0:0:
380,152,91305,1,2,0:0:0:0:
364,144,91466,1,0,0:0:0:0:
436,220,91627,1,2,0:0:0:0:
416,196,91789,1,2,0:0:0:0:
436,240,91950,1,0,0:0:0:0:
344,152,92111,1,0,0:0:0:0:
368,108,92272,1,6,0:0:0:0:
408,216,92595,1,6,0:0:0:0:
448,324,92918,1,0,0:0:0:0:
256,192,93240,1,8,0:0:0:0:
256,192,93563,1,0,0:0:0:0:
336,144,93724,1,0,0:0:0:0:
304,60,93885,1,2,0:0:0:0:
292,12,94047,1,0,0:0:0:0:
304,60,94208,1,2,0:0:0:0:
296,64,94369,1,0,0:0:0:0:
256,32,94530,1,2,0:0:0:0:
284,64,94692,1,2,0:0:0:0:
276,36,94853,1,4,0:0:0:0:
324,24,95176,1,6,0:0:0:0:
320,132,95498,1,0,0:0:0:0:
364,68,95740,1,2,0:0:0:0:
344,100,95821,1,2,0:0:0:0:
344,100,95982,1,2,0:0:0:0:
344,100,96143,1,4,0:0:0:0:
388,196,96466,1,2,0:0:0:0:
388,304,96789,1,0,0:0:0:0:
388,264,96950,1,0,0:0:0:0:
352,244,97111,1,2,0:0:0:0:
396,232,97272,1,4,0:0:0:0:
464,248,97595,1,0,0:0:0:0:
420,256,97756,1,2,0:0:0:0:
420,216,98079,1,2,0:0:0:0:
420,216,98240,1,0,0:0:0:0:
420,216,98401,1,2,0:0:0:0:
420,216,98563,1,4,0:0:0:0:
476,216,98885,1,0,0:0:0:0:
476,216,99047,1,2,0:0:0:0:
484,228,99369,1,0,0:0:0:0:
452,172,99530,1,2,0:0:0:0:
488,208,99692,1,2,0:0:0:0:
448,240,99853,1,4,0:0:0:0:
332,232,100176,1,0,0:0:0:0:
392,232,100337,1,2,0:0:0:0:
448,240,100498,1,4,0:0:0:0:
372,180,100821,1,2,0:0:0:0:
340,152,100982,1,2,0:0:0:0:
300,128,101143,1,2,0:0:0:0:
284,288,101627,1,4,0:0:0:0:
256,192,101789,12,0,106466,0:0:0:0:
