osu file format v14

[General]
AudioFilename: Choco Rhythm Choco Rule.mp3
AudioLeadIn: 0
PreviewTime: 72837
Countdown: 0
SampleSet: Normal
StackLeniency: 0.7
Mode: 1
LetterboxInBreaks: 0
WidescreenStoryboard: 1

[Editor]
Bookmarks: 1563,7854,20273,23176,23337,54789,55434,55757,55918,56725,57047,57370,57692,57854,58337,58660,58983,59628,59950,60273,60434,60595,60918,61241,61563,61725,62208,62531,62854,63015,63337,63660,63983,64305,64628,64789,64950,77531,79466,79789,80112,80434,89950,92531,92854,93499,93821,94144,94305,94466,94789,95112
DistanceSpacing: 0.8
BeatDivisor: 4
GridSize: 32
TimelineZoom: 1.5

[Metadata]
Title:Choco Rhythm Choco Rule
TitleUnicode:チョコリズムチョコルール
Artist:Cocoa (CV: Sakura Ayane)
ArtistUnicode:ココア (CV:佐倉綾音)
Creator:komasy
Version:_yu68's Futsuu
Source:ご注文はうさぎですか?
Tags:保登心愛 Hoto gochiusa ごちうさ キャラクターソング Character Song 宝箱のジェットコースター Takarabako no Jet Coaster 畑亜貴 Hata Aki 木村有希 Kimura Yuuki 園田健太郎 Sonoda Kentarou _yu68 butter0414
BeatmapID:1486546
BeatmapSetID:702521

[Difficulty]
HPDrainRate:7
CircleSize:7
OverallDifficulty:4
ApproachRate:4
SliderMultiplier:1.4
SliderTickRate:1

[Events]
//Background and Video events
0,0,"i10208537318.jpg",0,60
//Break Periods
//Storyboard Layer 0 (Background)
//Storyboard Layer 1 (Fail)
//Storyboard Layer 2 (Pass)
//Storyboard Layer 3 (Foreground)
//Storyboard Sound Samples

[TimingPoints]
660,322.58064516129,4,1,0,85,1,0
3240,-100,4,1,0,95,0,1
21305,-100,4,1,0,95,0,0
26466,-100,4,1,0,85,0,0
48724,-100,4,1,0,70,0,0
49692,-100,4,1,0,85,0,0
51305,-100,4,1,0,70,0,0
52272,-100,4,1,0,85,0,0
72918,-100,4,1,0,95,0,1
96143,-100,4,1,0,90,0,0
101789,-100,4,1,0,50,0,0
102272,-100,4,1,0,40,0,0
102918,-100,4,1,0,30,0,0
103563,-100,4,1,0,20,0,0
104208,-100,4,1,0,10,0,0

[HitObjects]
256,192,660,5,0,0:0:0:0:
256,192,821,5,8,0:0:0:0:
256,192,1143,5,0,0:0:0:0:
256,192,1305,5,8,0:0:0:0:
256,192,1950,5,12,0:0:0:0:
256,192,2272,5,12,0:0:0:0:
256,192,3240,5,4,0:0:0:0:
256,192,3563,5,8,0:0:0:0:
256,192,3724,5,8,0:0:0:0:
256,192,3885,5,0,0:0:0:0:
256,192,4208,5,8,0:0:0:0:
256,192,4369,5,0,0:0:0:0:
256,192,4692,5,0,0:0:0:0:
256,192,5014,5,8,0:0:0:0:
256,192,5337,5,8,0:0:0:0:
256,192,5659,5,0,0:0:0:0:
256,192,6466,5,8,0:0:0:0:
256,192,7111,5,0,0:0:0:0:
256,192,7434,5,8,0:0:0:0:
256,192,7595,5,0,0:0:0:0:
256,192,7918,5,0,0:0:0:0:
256,192,8079,5,8,0:0:0:0:
256,192,8401,5,0,0:0:0:0:
256,192,8724,5,8,0:0:0:0:
256,192,8885,5,8,0:0:0:0:
256,192,9047,5,0,0:0:0:0:
256,192,9369,5,8,0:0:0:0:
256,192,9530,5,0,0:0:0:0:
256,192,9853,5,0,0:0:0:0:
256,192,10176,5,8,0:0:0:0:
256,192,10498,5,8,0:0:0:0:
256,192,10821,5,0,0:0:0:0:
256,192,11627,5,8,0:0:0:0:
256,192,12272,5,0,0:0:0:0:
256,192,12918,5,8,0:0:0:0:
256,192,13240,5,8,0:0:0:0:
256,192,13563,5,0,0:0:0:0:
256,192,13885,5,8,0:0:0:0:
256,192,14208,5,0,0:0:0:0:
256,192,14369,5,0,0:0:0:0:
256,192,14530,5,8,0:0:0:0:
256,192,14853,5,0,0:0:0:0:
256,192,15176,5,8,0:0:0:0:
256,192,15498,5,0,0:0:0:0:
256,192,16143,5,0,0:0:0:0:
256,192,16466,5,8,0:0:0:0:
256,192,16789,5,0,0:0:0:0:
256,192,16950,5,0,0:0:0:0:
256,192,17111,5,8,0:0:0:0:
256,192,17434,5,0,0:0:0:0:
256,192,17756,5,8,0:0:0:0:
256,192,18079,5,8,0:0:0:0:
256,192,18724,5,4,0:0:0:0:
256,192,19047,5,4,0:0:0:0:
256,192,19369,5,4,0:0:0:0:
256,192,19692,5,4,0:0:0:0:
256,192,20014,5,4,0:0:0:0:
256,192,20659,1,8,0:0:0:0:
256,192,21305,5,0,0:0:0:0:
256,192,21627,5,8,0:0:0:0:
256,192,21950,5,0,0:0:0:0:
256,192,22272,5,8,0:0:0:0:
256,192,22434,5,0,0:0:0:0:
256,192,22918,5,8,0:0:0:0:
256,192,23079,5,0,0:0:0:0:
224,192,23401,1,8,0:0:0:0:
256,192,23885,5,4,0:0:0:0:
256,192,24208,5,4,0:0:0:0:
256,192,24530,5,12,0:0:0:0:
256,192,24853,5,12,0:0:0:0:
256,192,25176,5,4,0:0:0:0:
256,192,25337,5,4,0:0:0:0:
256,192,25659,5,12,0:0:0:0:
256,192,26466,5,0,0:0:0:0:
256,192,26789,5,0,0:0:0:0:
256,192,27111,5,8,0:0:0:0:
256,192,27756,5,0,0:0:0:0:
256,192,28079,5,0,0:0:0:0:
256,192,28401,5,8,0:0:0:0:
256,192,28563,5,8,0:0:0:0:
256,192,28885,5,0,0:0:0:0:
256,192,29369,5,0,0:0:0:0:
256,192,29692,5,8,0:0:0:0:
256,192,30337,5,0,0:0:0:0:
256,192,30659,5,8,0:0:0:0:
256,192,30982,5,8,0:0:0:0:
256,192,31627,5,0,0:0:0:0:
256,192,31950,5,0,0:0:0:0:
256,192,32272,5,8,0:0:0:0:
256,192,32918,5,0,0:0:0:0:
256,192,33240,5,0,0:0:0:0:
256,192,33563,5,8,0:0:0:0:
256,192,33885,5,8,0:0:0:0:
256,192,34208,5,0,0:0:0:0:
256,192,34853,5,8,0:0:0:0:
256,192,35176,5,0,0:0:0:0:
256,192,35498,5,0,0:0:0:0:
256,192,35659,5,8,0:0:0:0:
256,192,35821,5,0,0:0:0:0:
256,192,36143,5,8,0:0:0:0:
256,192,36789,5,0,0:0:0:0:
256,192,37111,5,0,0:0:0:0:
256,192,37434,5,8,0:0:0:0:
256,192,38079,5,0,0:0:0:0:
256,192,38401,5,0,0:0:0:0:
256,192,38724,5,8,0:0:0:0:
256,192,38885,5,8,0:0:0:0:
256,192,39208,5,0,0:0:0:0:
256,192,39692,5,0,0:0:0:0:
256,192,40014,5,8,0:0:0:0:
256,192,40659,5,0,0:0:0:0:
256,192,40982,5,8,0:0:0:0:
256,192,41305,5,8,0:0:0:0:
256,192,41950,5,0,0:0:0:0:
256,192,42272,5,0,0:0:0:0:
256,192,42595,5,8,0:0:0:0:
256,192,43240,5,0,0:0:0:0:
256,192,43563,5,0,0:0:0:0:
256,192,43885,5,8,0:0:0:0:
256,192,44047,5,8,0:0:0:0:
256,192,44208,5,8,0:0:0:0:
256,192,44530,5,4,0:0:0:0:
256,192,44853,5,4,0:0:0:0:
256,192,45176,5,12,0:0:0:0:
256,192,45337,5,12,0:0:0:0:
256,192,45659,5,4,0:0:0:0:
256,192,45982,5,4,0:0:0:0:
256,192,46305,5,12,0:0:0:0:
256,192,47111,5,4,0:0:0:0:
256,192,47434,5,8,0:0:0:0:
256,192,47595,5,8,0:0:0:0:
256,192,47918,5,0,0:0:0:0:
256,192,48240,5,4,0:0:0:0:
256,192,48563,5,4,0:0:0:0:
256,192,49692,5,4,0:0:0:0:
256,192,50014,5,8,0:0:0:0:
256,192,50176,5,8,0:0:0:0:
256,192,50498,5,0,0:0:0:0:
256,192,50821,5,12,0:0:0:0:
256,192,51143,5,12,0:0:0:0:
256,192,52272,5,0,0:0:0:0:
256,192,52595,5,8,0:0:0:0:
256,192,52918,5,0,0:0:0:0:
256,192,53563,5,0,0:0:0:0:
256,192,53885,5,0,0:0:0:0:
256,192,54208,5,8,0:0:0:0:
256,192,54530,5,8,0:0:0:0:
256,192,54853,5,0,0:0:0:0:
256,192,55498,5,8,0:0:0:0:
256,192,55821,5,0,0:0:0:0:
256,192,55982,5,8,0:0:0:0:
256,192,56789,5,0,0:0:0:0:
256,192,57111,5,8,0:0:0:0:
256,192,57434,5,0,0:0:0:0:
256,192,57918,5,8,0:0:0:0:
256,192,58240,5,8,0:0:0:0:
256,192,58563,5,0,0:0:0:0:
192,160,58885,1,0,0:0:0:0:
224,160,59047,1,0,0:0:0:0:
256,192,59208,5,8,0:0:0:0:
256,192,59692,5,8,0:0:0:0:
256,192,60014,5,0,0:0:0:0:
256,192,60337,5,8,0:0:0:0:
256,192,60498,5,8,0:0:0:0:
256,192,60659,5,0,0:0:0:0:
256,192,60982,5,8,0:0:0:0:
256,192,61305,5,0,0:0:0:0:
256,192,61627,5,8,0:0:0:0:
256,192,61789,5,8,0:0:0:0:
256,192,62272,5,8,0:0:0:0:
256,192,62595,5,0,0:0:0:0:
256,192,62918,5,8,0:0:0:0:
256,192,63079,5,0,0:0:0:0:
256,192,63401,5,8,0:0:0:0:
256,192,63724,5,0,0:0:0:0:
256,192,64047,5,0,0:0:0:0:
256,192,64369,5,8,0:0:0:0:
256,192,64692,5,8,0:0:0:0:
256,192,64853,5,8,0:0:0:0:
256,192,65014,5,0,0:0:0:0:
256,192,65821,5,8,0:0:0:0:
256,192,66143,5,0,0:0:0:0:
256,192,66305,5,8,0:0:0:0:
256,192,66466,5,0,0:0:0:0:
256,192,66789,5,8,0:0:0:0:
256,192,67111,5,0,0:0:0:0:
256,192,67272,5,8,0:0:0:0:
256,192,67434,5,8,0:0:0:0:
256,192,67756,5,4,0:0:0:0:
256,192,68240,5,4,0:0:0:0:
256,192,68724,5,4,0:0:0:0:
256,192,69208,5,4,0:0:0:0:
256,192,69692,5,4,0:0:0:0:
256,192,70176,5,12,0:0:0:0:
256,192,70659,5,12,0:0:0:0:
256,192,71143,5,12,0:0:0:0:
256,192,71627,5,12,0:0:0:0:
256,192,71950,5,12,0:0:0:0:
256,192,72918,5,4,0:0:0:0:
256,192,73240,5,8,0:0:0:0:
256,192,73401,5,8,0:0:0:0:
256,192,73563,5,0,0:0:0:0:
256,192,73885,5,8,0:0:0:0:
256,192,74047,5,0,0:0:0:0:
256,192,74369,5,0,0:0:0:0:
256,192,74692,5,8,0:0:0:0:
256,192,75014,5,8,0:0:0:0:
256,192,75337,5,0,0:0:0:0:
256,192,76143,5,8,0:0:0:0:
256,192,76789,5,0,0:0:0:0:
256,192,77111,5,8,0:0:0:0:
256,192,77272,5,0,0:0:0:0:
256,192,77595,5,0,0:0:0:0:
256,192,77756,5,8,0:0:0:0:
256,192,78079,5,0,0:0:0:0:
256,192,78401,5,8,0:0:0:0:
256,192,78563,5,8,0:0:0:0:
256,192,78724,5,0,0:0:0:0:
256,192,79047,5,8,0:0:0:0:
256,192,79208,5,0,0:0:0:0:
256,192,79530,5,8,0:0:0:0:
256,192,79853,5,8,0:0:0:0:
256,192,80176,5,0,0:0:0:0:
256,192,80498,5,12,0:0:0:0:
256,192,81305,5,8,0:0:0:0:
256,192,81950,5,0,0:0:0:0:
256,192,82595,5,8,0:0:0:0:
256,192,82918,5,8,0:0:0:0:
256,192,83240,5,0,0:0:0:0:
256,192,83563,5,8,0:0:0:0:
256,192,83885,5,0,0:0:0:0:
256,192,84047,5,0,0:0:0:0:
256,192,84208,5,8,0:0:0:0:
256,192,84530,5,0,0:0:0:0:
256,192,84853,5,8,0:0:0:0:
256,192,85176,5,0,0:0:0:0:
256,192,85821,5,0,0:0:0:0:
256,192,86143,5,8,0:0:0:0:
256,192,86466,5,0,0:0:0:0:
256,192,86627,5,0,0:0:0:0:
256,192,86789,5,8,0:0:0:0:
256,192,87111,5,0,0:0:0:0:
256,192,87434,5,8,0:0:0:0:
256,192,87756,5,8,0:0:0:0:
256,192,88401,5,4,0:0:0:0:
256,192,88724,5,4,0:0:0:0:
256,192,89047,5,4,0:0:0:0:
256,192,89369,5,4,0:0:0:0:
256,192,89692,5,4,0:0:0:0:
256,192,90337,5,8,0:0:0:0:
256,192,90982,5,4,0:0:0:0:
256,192,91305,5,4,0:0:0:0:
256,192,91627,5,12,0:0:0:0:
256,192,91950,5,12,0:0:0:0:
256,192,92272,5,4,0:0:0:0:
256,192,92918,5,8,0:0:0:0:
256,192,93563,5,0,0:0:0:0:
256,192,93885,5,8,0:0:0:0:
256,192,94208,5,8,0:0:0:0:
256,192,94369,5,0,0:0:0:0:
256,192,94530,5,0,0:0:0:0:
256,192,94853,5,0,0:0:0:0:
224,224,95498,1,8,0:0:0:0:
256,192,96143,5,0,0:0:0:0:
256,192,96466,5,0,0:0:0:0:
256,192,96789,5,8,0:0:0:0:
256,192,97111,5,8,0:0:0:0:
256,192,97272,5,0,0:0:0:0:
256,192,97756,5,0,0:0:0:0:
256,192,98079,5,8,0:0:0:0:
256,192,98563,5,0,0:0:0:0:
256,192,99047,5,0,0:0:0:0:
256,192,99369,5,8,0:0:0:0:
256,192,99692,5,8,0:0:0:0:
256,192,99853,5,0,0:0:0:0:
256,192,100176,5,0,0:0:0:0:
256,192,100498,5,8,0:0:0:0:
256,192,100821,5,8,0:0:0:0:
256,192,101627,12,0,106466,0:0:0:0:
