osu file format v14

[General]
AudioFilename: Choco Rhythm Choco Rule.mp3
AudioLeadIn: 0
PreviewTime: 72837
Countdown: 0
SampleSet: Normal
StackLeniency: 0.7
Mode: 1
LetterboxInBreaks: 0
WidescreenStoryboard: 0

[Editor]
Bookmarks: 757,1241,1886,2208,22370
DistanceSpacing: 0.8
BeatDivisor: 4
GridSize: 4
TimelineZoom: 0.6999999

[Metadata]
Title:Choco Rhythm Choco Rule
TitleUnicode:チョコリズムチョコルール
Artist:Cocoa (CV: Sakura Ayane)
ArtistUnicode:ココア (CV:佐倉綾音)
Creator:komasy
Version:Kantan
Source:ご注文はうさぎですか?
Tags:保登心愛 Hoto gochiusa ごちうさ キャラクターソング Character Song 宝箱のジェットコースター Takarabako no Jet Coaster 畑亜貴 Hata Aki 木村有希 Kimura Yuuki 園田健太郎 Sonoda Kentarou _yu68 butter0414
BeatmapID:1486544
BeatmapSetID:702521

[Difficulty]
HPDrainRate:8
CircleSize:3
OverallDifficulty:3
ApproachRate:8
SliderMultiplier:1.4
SliderTickRate:1

[Events]
//Background and Video events
0,0,"i10208537318.jpg",0,60
//Break Periods
//Storyboard Layer 0 (Background)
//Storyboard Layer 1 (Fail)
//Storyboard Layer 2 (Pass)
//Storyboard Layer 3 (Foreground)
//Storyboard Sound Samples

[TimingPoints]
660,322.58064516129,4,1,0,90,1,0
3240,-100,4,1,0,100,0,1
21305,-100,4,1,0,100,0,0
26466,-100,4,1,0,90,0,0
48724,-100,4,1,0,75,0,0
49692,-100,4,1,0,90,0,0
51305,-100,4,1,0,75,0,0
52272,-100,4,1,0,90,0,0
72918,-100,4,1,0,100,0,1
96143,-100,4,1,0,95,0,0
101789,-100,4,1,0,50,0,0
102272,-100,4,1,0,40,0,0
102918,-100,4,1,0,30,0,0
103563,-100,4,1,0,20,0,0
104208,-100,4,1,0,10,0,0

[HitObjects]
328,176,821,5,4,0:0:0:0:
336,192,1305,1,4,0:0:0:0:
328,176,1950,1,12,0:0:0:0:
352,212,3240,1,4,0:0:0:0:
132,180,3885,1,8,0:0:0:0:
344,204,4530,1,0,0:0:0:0:
240,192,4853,1,0,0:0:0:0:
132,180,5176,1,8,0:0:0:0:
300,160,5659,1,0,0:0:0:0:
300,160,6466,1,0,0:0:0:0:
300,160,7111,1,8,0:0:0:0:
292,160,8401,1,0,0:0:0:0:
484,68,9047,1,8,0:0:0:0:
284,164,9692,1,0,0:0:0:0:
372,124,10014,1,8,0:0:0:0:
280,164,10337,1,8,0:0:0:0:
428,100,10821,1,0,0:0:0:0:
200,224,11627,1,0,0:0:0:0:
404,112,12272,1,8,0:0:0:0:
452,172,13563,1,0,0:0:0:0:
452,172,14208,1,0,0:0:0:0:
452,172,14853,1,8,0:0:0:0:
500,180,15176,1,8,0:0:0:0:
500,180,15498,1,8,0:0:0:0:
312,68,16143,1,0,0:0:0:0:
500,176,16789,1,8,0:0:0:0:
312,68,17111,1,0,0:0:0:0:
312,68,17434,1,8,0:0:0:0:
316,132,18724,1,0,0:0:0:0:
236,144,19369,1,0,0:0:0:0:
312,132,20014,1,0,0:0:0:0:
312,132,20337,1,8,0:0:0:0:
328,128,21305,1,4,0:0:0:0:
512,240,21950,1,8,0:0:0:0:
324,128,22434,1,0,0:0:0:0:
332,168,23885,1,8,0:0:0:0:
332,168,24530,1,8,0:0:0:0:
216,216,24853,1,8,0:0:0:0:
332,168,25176,1,8,0:0:0:0:
332,168,26466,1,4,0:0:0:0:
368,152,27111,1,8,0:0:0:0:
368,152,27756,1,0,0:0:0:0:
368,152,28885,1,8,0:0:0:0:
368,152,29692,1,0,0:0:0:0:
368,152,30337,1,8,0:0:0:0:
392,176,31627,1,0,0:0:0:0:
392,176,32272,1,0,0:0:0:0:
392,176,32918,1,0,0:0:0:0:
396,180,34208,1,8,0:0:0:0:
380,300,34853,1,0,0:0:0:0:
124,100,35337,1,0,0:0:0:0:
272,92,36789,1,4,0:0:0:0:
272,92,37434,1,8,0:0:0:0:
484,132,38079,1,0,0:0:0:0:
416,140,39208,1,8,0:0:0:0:
144,144,40014,1,0,0:0:0:0:
368,152,40659,1,8,0:0:0:0:
280,144,41950,1,0,0:0:0:0:
476,180,42595,1,0,0:0:0:0:
280,144,43240,1,8,0:0:0:0:
280,144,44530,1,12,0:0:0:0:
280,144,45659,1,12,0:0:0:0:
388,168,46466,1,8,0:0:0:0:
352,152,47111,1,4,0:0:0:0:
352,152,48240,1,4,0:0:0:0:
352,152,49692,1,12,0:0:0:0:
352,152,50821,1,12,0:0:0:0:
256,116,52272,1,0,0:0:0:0:
444,20,52918,1,0,0:0:0:0:
252,120,53563,1,8,0:0:0:0:
260,116,54853,1,0,0:0:0:0:
468,56,55498,1,8,0:0:0:0:
332,156,55982,1,4,0:0:0:0:
332,156,56627,1,12,0:0:0:0:
332,156,57434,1,0,0:0:0:0:
332,156,58724,1,0,0:0:0:0:
180,136,59369,1,0,0:0:0:0:
320,300,60014,1,8,0:0:0:0:
344,148,61305,1,8,0:0:0:0:
344,148,61950,1,8,0:0:0:0:
296,36,62595,1,0,0:0:0:0:
472,192,63885,1,0,0:0:0:0:
308,40,64530,1,8,0:0:0:0:
428,148,65014,1,12,0:0:0:0:
408,76,66466,1,0,0:0:0:0:
408,76,67111,1,8,0:0:0:0:
256,192,67756,12,0,71627,0:0:0:0:
208,168,72918,5,4,0:0:0:0:
292,188,73563,1,8,0:0:0:0:
188,164,73886,1,8,0:0:0:0:
404,216,74208,1,0,0:0:0:0:
364,208,74853,1,8,0:0:0:0:
196,164,75337,1,0,0:0:0:0:
116,136,76143,1,0,0:0:0:0:
324,200,76789,1,8,0:0:0:0:
208,160,77111,1,8,0:0:0:0:
316,200,77434,1,8,0:0:0:0:
116,128,78079,1,0,0:0:0:0:
316,200,78724,1,8,0:0:0:0:
208,120,79047,1,8,0:0:0:0:
120,128,79369,1,0,0:0:0:0:
328,188,80014,1,8,0:0:0:0:
268,32,80498,1,0,0:0:0:0:
388,276,81305,1,0,0:0:0:0:
288,68,81950,1,8,0:0:0:0:
288,68,83240,1,0,0:0:0:0:
368,276,83885,1,0,0:0:0:0:
288,64,84530,1,8,0:0:0:0:
328,172,84853,1,8,0:0:0:0:
292,76,85176,1,8,0:0:0:0:
364,280,85821,1,0,0:0:0:0:
288,68,86466,1,8,0:0:0:0:
368,280,86789,1,0,0:0:0:0:
332,188,87111,1,8,0:0:0:0:
296,84,87756,1,8,0:0:0:0:
248,228,88079,1,8,0:0:0:0:
284,64,88401,1,0,0:0:0:0:
152,192,89047,1,0,0:0:0:0:
88,160,89692,1,12,0:0:0:0:
284,64,90014,1,12,0:0:0:0:
68,312,90982,1,0,0:0:0:0:
248,220,91627,1,0,0:0:0:0:
216,144,92272,1,12,0:0:0:0:
216,144,92595,1,12,0:0:0:0:
500,316,93563,1,0,0:0:0:0:
348,212,94208,1,0,0:0:0:0:
508,316,94853,1,12,0:0:0:0:
416,264,95176,1,12,0:0:0:0:
400,240,96143,1,0,0:0:0:0:
412,272,97272,1,0,0:0:0:0:
432,252,98079,1,8,0:0:0:0:
432,252,98563,1,0,0:0:0:0:
432,252,99369,1,0,0:0:0:0:
432,252,99853,1,8,0:0:0:0:
204,188,100498,1,0,0:0:0:0:
256,192,101627,12,0,106466,0:0:0:0:
