osu file format v14

[General]
AudioFilename: audio.mp3
AudioLeadIn: 0
PreviewTime: 52162
Countdown: 0
SampleSet: Soft
StackLeniency: 0.2
Mode: 0
LetterboxInBreaks: 0
WidescreenStoryboard: 0

[Editor]
Bookmarks: 1871,76434,86822
DistanceSpacing: 1.5
BeatDivisor: 3
GridSize: 32
TimelineZoom: 2.399999

[Metadata]
Title:Popcorn Happening!
TitleUnicode:ポップコーンはぷにんぐ!
Artist:Cocoa (CV: Sakura Ayane) & Syaro (CV: Uchida Maaya)
ArtistUnicode:ココア(CV: 佐倉綾音)& シャロ(CV: 内田真礼)
Creator:UjiMatcha
Version:papple's Popcorn
Source:ご注文はうさぎですか?? ~Dear My Sister~
Tags:-ClariS- Pata-Mon wyrio pappl_e_104 papple gochiusa ごちうさ gochuumon wa usagi desu ka?? is the order a rabbit?? rabbit house 保登 心愛 hoto kokoa 桐間 紗路 kirima sharo Character Song album manga time kirara fantasia
BeatmapID:2009327
BeatmapSetID:955239

[Difficulty]
HPDrainRate:4
CircleSize:4
OverallDifficulty:8
ApproachRate:9.4
SliderMultiplier:2.2
SliderTickRate:1

[Events]
//Background and Video events
0,0,"tumblr_p6f5hyMSvh1u0xk60o1_1280.png",0,0
//Break Periods
//Storyboard Layer 0 (Background)
//Storyboard Layer 1 (Fail)
//Storyboard Layer 2 (Pass)
//Storyboard Layer 3 (Foreground)
//Storyboard Sound Samples

[TimingPoints]
-7449,291.26213592233,4,2,1,30,1,0
560,-125,4,2,1,30,0,0
1871,-200,4,2,1,60,0,0
2356,-200,4,2,1,5,0,0
2453,-125,4,2,1,60,0,0
2939,-200,4,2,1,60,0,0
3521,-200,4,2,1,5,0,0
3618,-200,4,2,1,60,0,0
4395,-200,4,2,1,5,0,0
4492,-200,4,2,1,60,0,0
5851,-200,4,2,1,5,0,0
5949,-125,4,2,1,60,0,0
6240,-166.666666666667,4,2,1,60,0,0
6434,-166.666666666667,4,2,1,5,0,0
6531,-125,4,2,1,60,0,0
8861,-99.9999999999999,4,2,1,60,0,0
11774,-250.000000000001,4,2,1,40,0,0
12745,-250.000000000001,4,2,1,5,0,0
12842,-250.000000000001,4,2,1,40,0,0
13521,-125,4,2,1,40,0,0
14104,-250,4,2,1,40,0,0
14686,-100,4,2,1,40,0,0
15512,-100,4,2,1,5,0,0
15560,-100,4,2,1,40,0,0
15609,-100,4,2,1,5,0,0
15851,-125,4,2,1,55,0,0
28958,-66.6666666666667,4,2,1,55,0,0
29250,-125,4,2,1,55,0,0
34492,-166.666666666667,4,2,1,45,0,0
41483,-166.666666666667,4,2,1,55,0,0
43813,-250,4,2,1,55,0,0
44686,-83.3333333333333,4,2,1,55,0,0
44978,-250,4,2,1,55,0,0
45851,-83.3333333333333,4,2,1,55,0,0
46143,-200,4,2,1,55,0,0
47017,-66.6666666666667,4,2,1,55,0,0
47308,-125,4,2,1,55,0,0
52259,-142.857142857143,4,2,1,55,0,0
53133,-76.9230769230769,4,2,1,70,0,1
53424,-100,4,2,1,70,0,1
53716,-76.9230769230769,4,2,1,70,0,1
54007,-100,4,2,1,70,0,1
54298,-76.9230769230769,4,2,1,70,0,1
54589,-100,4,2,1,70,0,1
54881,-76.9230769230769,4,2,1,70,0,1
55172,-111.111111111111,4,2,1,70,0,1
55463,-76.9230769230769,4,2,1,70,0,1
55754,-100,4,2,1,70,0,1
56046,-76.9230769230769,4,2,1,70,0,1
56337,-100,4,2,1,70,0,1
56628,-76.9230769230769,4,2,1,70,0,1
56919,-100,4,2,1,70,0,1
57793,-83.3333333333333,4,2,1,70,0,1
58084,-111.111111111111,4,2,1,70,0,1
58376,-83.3333333333333,4,2,1,70,0,1
58667,-111.111111111111,4,2,1,70,0,1
58958,-83.3333333333333,4,2,1,70,0,1
59250,-111.111111111111,4,2,1,70,0,1
59541,-142.857142857143,4,2,1,70,0,1
59832,-100,4,2,1,70,0,1
62162,-200,4,2,1,70,0,1
62453,-76.9230769230769,4,2,1,70,0,1
62744,-100,4,2,1,70,0,1
63036,-76.9230769230769,4,2,1,70,0,1
63327,-100,4,2,1,70,0,1
63618,-76.9230769230769,4,2,1,70,0,1
63910,-100,4,2,1,70,0,1
64201,-76.9230769230769,4,2,1,70,0,1
64492,-100,4,2,1,70,0,1
64783,-76.9230769230769,4,2,1,70,0,1
65074,-100,4,2,1,70,0,1
65366,-76.9230769230769,4,2,1,70,0,1
65657,-100,4,2,1,70,0,1
65949,-76.9230769230769,4,2,1,70,0,1
66434,-100,4,2,1,70,0,1
66822,-111.111111111111,4,2,1,70,0,1
67114,-100,4,2,1,70,0,1
67696,-125,4,2,1,70,0,1
68279,-90.9090909090909,4,2,1,70,0,1
68861,-111.111111111111,4,2,1,70,0,1
69444,-83.3333333333333,4,2,1,70,0,1
70026,-100,4,2,1,70,0,1
71483,-142.857142857143,4,2,1,70,0,1
71774,-142.857142857143,4,2,1,50,0,0
72939,-66.6666666666667,4,2,1,50,0,0
74104,-142.857142857143,4,2,1,50,0,0
76434,-200,4,2,1,60,0,0
76919,-200,4,2,1,5,0,0
77017,-125,4,2,1,60,0,0
77502,-200,4,2,1,60,0,0
78084,-200,4,2,1,5,0,0
78182,-200,4,2,1,60,0,0
78958,-200,4,2,1,5,0,0
79055,-200,4,2,1,60,0,0
80512,-125,4,2,1,60,0,0
83424,-100,4,2,1,60,0,0
85754,-117.647058823529,4,2,1,60,0,0
86919,-125,4,2,1,60,0,0

[Colours]
Combo1 : 252,97,108
Combo2 : 255,238,83
Combo3 : 187,132,133
Combo4 : 255,128,80

[HitObjects]
501,93,560,6,0,L|457:98,1,44,2|2,3:0|3:0,0:0:0:0:
333,63,706,1,0,1:0:0:0:
324,54,900,1,2,1:3:0:0:
365,190,1191,5,0,3:0:0:0:
333,63,1288,1,0,1:0:0:0:
324,54,1483,5,0,1:0:0:0:
292,181,1580,1,0,3:0:0:0:
108,238,1871,6,0,P|58:163|75:75,1,183.333333333333,4|0,1:2|0:0,0:0:0:0:
202,18,2453,2,0,P|174:28|145:33,1,58.6666666666667,4|0,3:3|0:0,0:0:0:0:
254,83,2648,1,8,3:3:0:0:
333,63,2745,1,0,3:3:0:0:
399,268,2939,6,0,P|451:175|407:78,1,220,4|0,1:2|0:0,0:0:0:0:
333,63,3618,1,2,0:0:0:0:
234,203,3910,1,2,0:0:0:0:
222,220,4201,6,0,L|149:211,1,73.3333333333333,4|0,1:2|0:0,0:0:0:0:
271,280,4492,1,2,0:0:0:0:
271,280,4784,1,4,3:3:0:0:
144,312,4978,1,8,3:3:0:0:
46,54,5269,6,0,L|72:272,1,220,2|0,1:2|0:0,0:0:0:0:
144,312,5949,2,0,L|136:370,1,58.6666666666667,8|0,3:3|0:0,0:0:0:0:
227,359,6143,1,0,3:3:0:0:
305,318,6240,2,0,L|315:230,1,87.9999973144532,4|0,3:3|0:0,0:0:0:0:
319,198,6531,6,0,P|369:226|427:232,1,117.333333333333,4|0,3:2|0:0,0:0:0:0:
477,72,6822,2,0,P|426:43|368:37,1,117.333333333333,0|0,1:0|0:0,0:0:0:0:
281,98,7114,6,0,P|230:126|172:133,1,117.333333333333,0|0,3:0|0:0,0:0:0:0:
46,54,7405,2,0,L|59:170,1,117.333333333333,0|0,1:0|0:0,0:0:0:0:
181,307,7696,6,0,P|130:278|72:271,1,117.333333333333,4|0,3:2|0:0,0:0:0:0:
180,211,7988,1,4,1:3:0:0:
175,159,8085,1,0,1:0:0:0:
170,107,8182,1,0,1:0:0:0:
165,55,8279,6,0,L|223:48,2,58.6666666666667,2|0|2,3:0|0:0|0:0,0:0:0:0:
91,123,8570,1,2,1:0:0:0:
80,197,8667,1,0,1:0:0:0:
72,271,8764,1,0,1:0:0:0:
59,370,8861,6,0,P|130:357|181:306,1,146.666666666667,6|0,3:1|0:0,0:0:0:0:
315,230,9152,1,0,1:0:0:0:
331,228,9347,5,0,1:0:0:0:
430,331,9444,1,2,3:1:0:0:
414,333,9638,5,0,1:0:0:0:
472,203,9735,1,0,3:0:0:0:
474,219,9929,5,0,1:0:0:0:
393,74,10026,2,0,P|322:58|253:80,1,146.666666666667,6|0,3:1|0:0,0:0:0:0:
179,201,10317,1,0,1:0:0:0:
177,185,10512,5,0,1:0:0:0:
93,319,10609,1,2,3:1:0:0:
95,303,10803,5,0,1:0:0:0:
256,336,10900,2,0,P|309:288|311:217,1,146.666666666667,0|0,3:0|0:0,0:0:0:0:
156,104,11191,6,0,B|120:100|98:141|155:191|196:131|196:131|213:108|282:22|393:74,1,366.666666666667,2|0,3:1|0:0,0:0:0:0:
472,203,11774,6,0,L|488:57,1,146.666666666667,6|0,0:3|0:0,0:0:0:0:
448,138,12356,2,0,L|434:254,1,117.333333333333,6|0,0:3|0:0,0:0:0:0:
418,348,12842,5,6,0:3:0:0:
424,354,12939,1,0,0:0:0:0:
238,299,13133,5,0,0:0:0:0:
337,288,13230,1,2,0:0:0:0:
163,231,13424,5,0,0:0:0:0:
64,220,13521,2,0,P|30:98|156:104,1,293.333333333333,4|0,0:1|0:0,0:0:0:0:
124,125,14104,6,0,P|61:122|77:183,1,146.666666666667,6|0,0:3|0:0,0:0:0:0:
121,171,14686,1,6,0:3:0:0:
100,341,15172,5,6,0:3:0:0:
106,347,15269,1,0,3:1:0:0:
258,275,15463,2,0,L|294:270,1,36.6666666666667,2|0,0:0|0:0,0:0:0:0:
191,220,15560,2,0,P|180:235|174:252,1,36.6666666666667,2|0,0:0|0:0,0:0:0:0:
390,345,15851,6,0,B|450:337|450:337|498:251|448:173,1,234.666666666667,6|0,3:1|0:0,0:0:0:0:
372,126,16337,1,2,0:0:0:0:
288,152,16434,2,0,P|231:140|185:104,1,117.333333333333,2|0,1:0|0:0,0:0:0:0:
169,18,16725,1,2,0:0:0:0:
27,35,16919,6,0,L|13:151,1,117.333333333333,8|0,3:2|0:0,0:0:0:0:
82,207,17211,1,8,3:2:0:0:
85,210,17308,2,0,L|99:326,1,117.333333333333,2|0,0:3|0:0,0:0:0:0:
184,256,17599,2,0,P|241:247|298:260,1,117.333333333333,2|2,1:2|0:0,0:0:0:0:
238,346,17890,1,2,0:0:0:0:
446,90,18182,5,2,3:2:0:0:
121,38,18473,1,2,0:0:0:0:
446,90,18764,1,2,1:2:0:0:
308,203,18958,2,0,P|299:231|298:260,1,58.6666666666667,2|2,0:0|0:3,0:0:0:0:
170,139,19250,5,10,3:2:0:0:
180,226,19347,1,2,0:3:0:0:
318,116,19541,1,8,3:2:0:0:
308,203,19638,1,2,0:3:0:0:
207,59,19832,1,0,0:0:0:0:
170,139,19929,2,0,P|114:151|64:122,1,117.333333333333,2|0,1:2|0:0,0:0:0:0:
48,17,20220,2,0,P|77:66|64:122,1,117.333333333333,2|0,0:0|0:0,0:0:0:0:
46,267,20512,5,2,3:2:0:0:
207,59,20803,1,2,0:0:0:0:
415,220,21094,1,0,1:0:0:0:
154,253,21385,1,2,0:0:0:0:
259,111,21580,1,2,3:2:0:0:
314,179,21677,6,0,P|328:235|323:293,1,117.333333333333,2|2,0:3|3:2,0:0:0:0:
245,333,21968,2,0,P|230:276|235:218,1,117.333333333333,2|2,0:3|0:0,0:0:0:0:
314,179,22259,1,0,1:0:0:0:
147,269,22453,1,2,0:2:0:0:
158,356,22550,1,2,0:2:0:0:
488,179,22842,6,0,B|372:165|372:165|314:179,1,176,2|2,3:2|0:3,0:0:0:0:
58,114,23424,2,0,B|174:100|174:100|232:114,1,176,2|2,1:2|0:3,0:0:0:0:
147,269,23910,1,0,1:0:0:0:
113,350,24007,6,0,P|69:312|60:255,1,117.333333333333,2|0,3:2|1:0,0:0:0:0:
115,187,24298,1,2,3:2:0:0:
275,258,24492,1,2,0:0:0:0:
314,179,24589,1,8,1:2:0:0:
218,29,24784,1,0,3:0:0:0:
266,105,24881,2,0,P|321:90|373:114,1,117.333333333333,2|0,0:3|0:0,0:0:0:0:
423,222,25172,6,0,P|472:134|373:114,1,234.666666666667,4|0,3:1|0:0,0:0:0:0:
314,179,25657,1,2,0:0:0:0:
226,187,25754,2,0,P|235:244|239:303,1,117.333333333333,2|0,1:2|0:0,0:0:0:0:
187,375,26046,1,2,0:0:0:0:
24,354,26240,6,0,L|38:238,1,117.333333333333,8|0,3:2|0:0,0:0:0:0:
112,190,26531,1,8,3:2:0:0:
115,187,26628,2,0,L|101:71,1,117.333333333333,2|0,0:3|0:0,0:0:0:0:
168,14,26919,2,0,P|222:33|281:32,1,117.333333333333,2|2,1:2|0:0,0:0:0:0:
207,113,27211,1,2,0:0:0:0:
455,23,27502,5,2,3:2:0:0:
344,262,27793,1,2,0:0:0:0:
110,139,28084,1,2,1:2:0:0:
31,297,28279,2,0,P|23:238|31:180,1,117.333333333333,2|0,0:0|0:0,0:0:0:0:
110,139,28570,2,0,P|166:127|204:84,1,117.333333333333,10|0,3:2|0:0,0:0:0:0:
123,50,28861,1,8,3:2:0:0:
110,139,28958,6,0,B|126:180|104:225|104:225|134:205|168:209|168:209|143:232|140:266,1,220.000008392334,2|0,0:3|0:0,0:0:0:0:
229,275,29250,6,0,P|287:277|343:262,1,117.333333333333,2|0,1:2|0:0,0:0:0:0:
404,198,29541,1,2,0:0:0:0:
176,345,29832,5,2,3:2:0:0:
292,109,30124,1,2,0:0:0:0:
439,327,30415,2,0,P|385:303|344:262,1,117.333333333333,0|0,1:0|0:0,0:0:0:0:
318,177,30706,1,2,0:0:0:0:
438,49,30900,6,0,L|431:106,1,58.6666666666667,2|2,3:2|0:3,0:0:0:0:
272,10,31191,1,2,0:2:0:0:
282,97,31288,1,2,3:3:0:0:
120,52,31483,1,2,0:0:0:0:
110,139,31580,2,0,P|161:164|219:158,1,117.333333333333,0|2,1:0|0:2,0:0:0:0:
282,97,31871,1,2,0:2:0:0:
258,359,32162,5,10,3:2:0:0:
43,207,32453,1,2,3:2:0:0:
306,232,32745,1,10,1:2:0:0:
159,329,32939,2,0,P|175:273|217:233,1,117.333333333333,2|0,0:0|0:0,0:0:0:0:
306,232,33230,1,2,3:2:0:0:
369,291,33327,6,0,P|426:289|476:258,1,117.333333333333,2|0,0:3|3:0,0:0:0:0:
473,169,33618,2,0,L|469:139,1,29.3333333333333,2|0,3:0|0:0,0:0:0:0:
452,135,33716,2,0,L|434:111,1,29.3333333333333,0|0,0:0|0:0,0:0:0:0:
411,112,33813,2,0,L|383:100,1,29.3333333333333,4|0,0:3|0:0,0:0:0:0:
353,109,33910,1,4,1:1:0:0:
171,65,34104,1,0,1:0:0:0:
168,68,34201,1,4,3:3:0:0:
32,360,34492,6,0,P|93:333|158:328,1,131.99999597168,4|0,3:1|0:0,0:0:0:0:
351,370,35075,2,0,P|365:341|370:309,2,65.9999979858399,2|0|0,1:2|0:0|3:0,0:0:0:0:
313,245,35560,1,2,3:2:0:0:
331,168,35657,6,0,P|311:128|281:96,1,87.9999973144532,0|0,1:2|0:0,0:0:0:0:
176,65,35949,2,0,P|215:45|247:15,1,87.9999973144532,0|0,3:2|0:0,0:0:0:0:
287,92,36240,2,0,P|316:124|336:163,1,87.9999973144532,0|0,1:2|0:0,0:0:0:0:
387,76,36531,2,0,P|419:46|458:26,1,87.9999973144532,0|2,3:2|0:3,0:0:0:0:
478,131,36822,5,0,1:2:0:0:
282,97,37114,1,0,3:2:0:0:
248,293,37405,1,0,1:2:0:0:
52,259,37696,2,0,P|27:223|24:180,1,87.9999973144532,0|2,3:2|0:0,0:0:0:0:
101,198,37987,5,0,1:2:0:0:
199,354,38279,1,0,3:2:0:0:
344,240,38570,2,0,P|387:237|429:250,1,87.9999973144532,0|0,1:2|3:0,0:0:0:0:
376,313,38861,2,0,P|332:315|290:302,1,87.9999973144532,2|2,0:0|3:3,0:0:0:0:
262,215,39152,5,0,3:0:0:0:
96,324,39444,1,2,0:2:0:0:
78,126,39735,1,0,1:2:0:0:
244,17,40026,2,0,P|287:16|329:28,1,87.9999973144532,0|0,3:2|0:0,0:0:0:0:
381,88,40317,5,0,1:2:0:0:
183,62,40609,1,0,3:2:0:0:
151,283,40900,1,0,1:2:0:0:
376,313,41191,2,0,P|418:324|458:341,1,87.9999973144532,0|0,3:2|1:2,0:0:0:0:
502,274,41483,5,4,3:1:0:0:
460,80,41774,1,0,0:0:0:0:
301,325,42065,1,4,1:1:0:0:
315,127,42356,1,0,3:2:0:0:
122,131,42550,5,0,1:0:0:0:
119,128,42648,1,0,0:0:0:0:
295,228,42842,1,0,3:2:0:0:
292,231,42939,1,4,0:3:0:0:
133,209,43133,1,2,0:0:0:0:
122,131,43230,1,0,1:0:0:0:
306,150,43424,1,0,1:0:0:0:
295,228,43521,1,4,0:3:0:0:
111,53,43813,5,4,3:1:0:0:
111,52,44104,2,0,P|139:47|169:46,1,58.6666666666667,8|0,0:1|0:0,0:0:0:0:
242,78,44395,2,0,P|271:76|300:71,1,58.6666666666667,2|0,0:3|0:0,0:0:0:0:
386,38,44686,6,0,P|375:128|391:217,1,175.999994628906,0|2,1:0|0:3,0:0:0:0:
460,297,44978,5,4,3:1:0:0:
460,297,45269,2,0,L|401:289,1,58.6666666666667,8|8,0:1|0:1,0:0:0:0:
329,339,45560,2,0,L|270:346,1,58.6666666666667,2|0,0:3|0:0,0:0:0:0:
193,305,45851,6,0,P|106:302|35:352,1,175.999994628906,0|2,1:0|0:3,0:0:0:0:
49,234,46143,5,4,3:1:0:0:
49,234,46434,2,0,L|57:162,1,73.3333333333333,8|2,0:1|0:0,0:0:0:0:
155,191,46725,2,0,L|146:119,1,73.3333333333333,2|0,0:3|0:0,0:0:0:0:
70,49,47017,6,0,P|174:71|265:14,1,220.000008392334,0|2,1:0|0:3,0:0:0:0:
281,142,47308,6,0,L|295:258,1,117.333333333333,4|0,3:1|0:0,0:0:0:0:
329,339,47599,1,0,1:0:0:0:
461,170,47793,1,4,3:1:0:0:
391,115,47890,2,0,P|333:116|280:142,1,117.333333333333,2|0,0:0|0:2,0:0:0:0:
207,191,48182,2,0,P|148:189|96:164,1,117.333333333333,8|0,1:1|0:0,0:0:0:0:
70,49,48473,5,2,3:1:0:0:
348,113,48764,1,0,1:0:0:0:
153,321,48958,1,0,1:0:0:0:
154,317,49055,1,2,3:1:0:0:
274,84,49250,1,0,0:0:0:0:
275,88,49347,1,0,0:0:0:0:
450,257,49541,1,0,1:0:0:0:
461,170,49638,5,2,3:1:0:0:
159,263,49929,1,0,1:0:0:0:
348,113,50123,1,0,1:0:0:0:
337,200,50220,1,2,3:1:0:0:
137,98,50415,1,0,1:0:0:0:
126,11,50512,1,0,3:0:0:0:
159,263,50803,5,8,0:0:0:0:
162,266,51094,1,8,0:0:0:0:
165,269,51385,1,8,0:0:0:0:
72,341,51580,1,8,0:0:0:0:
93,166,51871,1,8,0:0:0:0:
165,269,52259,6,0,P|215:274|261:297,1,102.666663533529,0|0,3:0|0:0,0:0:0:0:
329,373,52550,5,2,1:1:0:0:
333,321,52647,1,0,1:0:0:0:
339,271,52744,1,0,1:0:0:0:
420,238,52842,5,8,1:3:0:0:
410,159,52939,1,0,1:0:0:0:
402,82,53036,1,0,1:0:0:0:
317,38,53133,6,0,P|222:34|130:59,1,190.66665793864,4|0,3:1|0:0,0:0:0:0:
190,120,53424,2,0,P|125:123|130:59,1,146.666666666667,0|0,1:2|0:0,0:0:0:0:
245,204,53716,6,0,P|219:293|139:340,1,190.66665793864,2|0,3:2|0:0,0:0:0:0:
131,256,54007,2,0,P|85:302|138:340,1,146.666666666667,0|0,1:2|0:0,0:0:0:0:
293,339,54298,6,0,P|383:360|464:314,1,190.66665793864,2|0,3:2|0:0,0:0:0:0:
399,270,54589,1,0,1:2:0:0:
482,97,54784,6,0,L|478:60,1,36.6666666666667,2|0,3:2|0:0,0:0:0:0:
482,97,54881,6,0,P|397:100|317:38,1,190.66665793864,2|0,0:3|3:0,0:0:0:0:
267,130,55172,6,0,P|321:100|317:38,1,131.99999597168,2|0,1:2|0:0,0:0:0:0:
130,59,55463,6,0,P|46:95|36:186,1,190.66665793864,2|0,3:2|0:0,0:0:0:0:
122,151,55754,2,0,P|97:212|36:186,1,146.666666666667,0|0,1:2|0:0,0:0:0:0:
225,204,56046,6,0,P|318:220|398:270,1,190.66665793864,2|0,3:2|0:0,0:0:0:0:
325,319,56337,2,0,P|388:334|399:269,1,146.666666666667,0|0,1:2|0:0,0:0:0:0:
349,113,56628,6,0,P|422:161|482:96,1,190.66665793864,2|0,3:2|3:0,0:0:0:0:
408,40,56919,1,2,1:2:0:0:
294,212,57114,1,2,3:2:0:0:
265,121,57211,1,2,0:3:0:0:
137,348,57405,1,0,3:0:0:0:
166,257,57502,1,2,1:2:0:0:
91,45,57696,1,2,3:2:0:0:
174,91,57793,6,0,P|259:80|324:23,1,175.999994628906,2|0,3:2|0:0,0:0:0:0:
408,40,58084,2,0,P|357:72|324:22,1,131.99999597168,0|0,1:2|0:0,0:0:0:0:
482,96,58376,6,0,P|508:178|483:262,1,175.999994628906,2|0,3:2|0:0,0:0:0:0:
399,269,58667,1,0,1:2:0:0:
166,257,58861,1,2,0:2:0:0:
73,278,58958,6,0,P|92:195|170:161,1,175.999994628906,2|0,3:2|0:0,0:0:0:0:
258,153,59250,2,0,P|218:198|170:161,1,131.99999597168,2|0,1:2|3:2,0:0:0:0:
208,92,59541,6,0,P|255:74|303:87,1,102.666663533529,2|0,0:3|3:0,0:0:0:0:
338,159,59832,1,2,1:2:0:0:
448,338,60123,5,2,3:2:0:0:
340,368,60317,5,2,0:0:0:0:
443,347,60415,1,0,3:2:0:0:
510,222,60609,5,2,1:2:0:0:
454,347,60706,1,2,3:2:0:0:
208,92,60997,5,2,1:2:0:0:
77,69,61191,5,2,0:0:0:0:
190,56,61288,1,2,3:2:0:0:
59,33,61483,5,2,1:2:0:0:
42,189,61580,1,2,1:2:0:0:
196,365,61774,5,0,1:2:0:0:
199,368,61871,1,2,3:2:0:0:
396,272,62065,5,2,1:2:0:0:
393,275,62162,2,0,P|356:268|320:267,1,73.3333333333333,2|0,3:2|0:0,0:0:0:0:
264,322,62453,6,0,P|248:233|326:190,1,190.66665793864,12|0,3:1|0:0,0:0:0:0:
264,322,62745,2,0,P|327:330|319:266,1,146.666666666667,0|0,1:2|0:0,0:0:0:0:
178,191,63036,6,0,P|86:194|31:267,1,190.66665793864,2|0,3:2|0:0,0:0:0:0:
179,191,63327,2,0,P|198:128|135:109,1,146.666666666667,0|0,1:2|0:0,0:0:0:0:
220,33,63618,6,0,P|280:104|281:198,1,190.66665793864,2|0,3:2|0:0,0:0:0:0:
357,75,63910,1,0,1:2:0:0:
502,275,64104,6,0,L|505:238,1,36.6666666666667,2|0,3:2|0:0,0:0:0:0:
502,275,64201,6,0,P|411:247|318:266,1,190.66665793864,2|0,0:3|3:0,0:0:0:0:
502,275,64492,6,0,P|490:340|425:328,1,146.666666666667,2|0,1:2|0:0,0:0:0:0:
370,167,64784,6,0,P|381:77|467:48,1,190.66665793864,2|0,3:2|0:0,0:0:0:0:
370,167,65075,2,0,P|302:172|281:107,1,146.666666666667,0|0,1:2|0:0,0:0:0:0:
226,255,65366,6,0,P|132:266|50:221,1,190.66665793864,2|0,3:2|0:0,0:0:0:0:
226,255,65657,2,0,P|212:189|145:192,1,146.666666666667,0|0,1:2|0:0,0:0:0:0:
146,42,65949,6,0,P|235:30|281:107,1,190.66665793864,2|0,3:2|3:0,0:0:0:0:
200,103,66240,1,2,1:2:0:0:
467,48,66434,1,2,3:2:0:0:
462,143,66531,1,2,0:3:0:0:
354,328,66725,1,0,3:0:0:0:
259,323,66822,2,0,P|193:330|130:351,1,131.99999597168,2|0,1:2|0:0,0:0:0:0:
92,376,67114,6,0,P|10:315|50:221,1,220,4|0,3:1|1:2,0:0:0:0:
14,77,67599,1,2,0:0:0:0:
18,77,67696,2,0,P|73:140|49:221,1,176,2|2,3:0|1:2,0:0:0:0:
146,42,68279,6,0,P|262:18|371:67,1,242.000007385254,4|0,3:1|1:2,0:0:0:0:
465,140,68764,1,2,3:2:0:0:
462,143,68861,2,0,P|408:176|352:146,1,131.99999597168,2|0,0:3|3:0,0:0:0:0:
371,67,69152,1,2,1:2:0:0:
492,307,69444,6,0,P|365:329|254:263,1,263.99999194336,4|0,3:1|3:2,0:0:0:0:
45,223,69929,1,0,1:2:0:0:
49,221,70026,2,0,P|157:213|254:262,1,220,2|2,3:3|1:2,0:0:0:0:
197,16,70609,5,2,3:2:0:0:
49,221,70900,1,2,1:2:0:0:
151,358,71094,1,2,0:0:0:0:
254,369,71191,1,0,1:2:0:0:
359,154,71385,1,2,0:3:0:0:
462,143,71483,2,0,P|494:103|503:54,1,102.666663533529,4|0,0:3|0:0,0:0:0:0:
401,60,71774,5,4,0:1:0:0:
401,60,72939,6,0,L|182:86,1,220.000008392334,2|8,1:0|0:3,0:0:0:0:
66,54,73230,1,4,0:3:0:0:
198,206,73424,1,0,1:0:0:0:
135,261,74104,5,2,0:0:0:0:
168,337,74395,1,2,0:0:0:0:
250,329,74686,1,2,0:0:0:0:
269,248,74978,1,2,0:0:0:0:
198,206,75269,6,0,L|96:193,1,102.666663533529,10|0,0:0|0:0,0:0:0:0:
9,184,75560,1,2,0:0:0:0:
108,107,75754,1,10,0:0:0:0:
250,329,76434,6,0,P|332:301|345:215,1,183.333333333333,4|0,1:2|0:0,0:0:0:0:
218,222,77017,2,0,P|241:239|269:247,1,58.6666666666667,4|0,3:3|0:0,0:0:0:0:
198,143,77211,1,8,3:3:0:0:
119,120,77308,1,0,3:3:0:0:
374,40,77502,6,0,P|266:20|161:50,1,220,4|0,1:2|0:0,0:0:0:0:
119,120,78182,1,2,0:0:0:0:
162,285,78473,1,2,0:0:0:0:
218,222,78764,6,0,L|290:212,1,73.3333333333333,4|0,1:2|0:0,0:0:0:0:
162,285,79055,1,2,0:0:0:0:
162,285,79347,1,4,3:3:0:0:
198,143,79541,1,8,3:3:0:0:
490,129,79832,6,0,L|271:103,1,220.000008392334,2|0,1:2|0:0,0:0:0:0:
198,143,80512,2,0,L|139:149,1,58.6666666666667,8|0,3:3|0:0,0:0:0:0:
52,159,80706,1,0,3:3:0:0:
103,230,80803,2,0,L|116:346,1,117.333333333333,4|0,3:3|0:0,0:0:0:0:
120,375,81094,6,0,P|171:347|229:343,1,117.333333333333,4|0,3:2|0:0,0:0:0:0:
310,266,81385,2,0,P|251:262|200:234,1,117.333333333333,0|0,1:0|0:0,0:0:0:0:
332,186,81677,6,0,P|378:219|392:275,1,117.333333333333,0|0,3:0|0:0,0:0:0:0:
468,366,81968,2,0,L|481:249,1,117.333333333333,0|0,1:0|0:0,0:0:0:0:
501,87,82259,6,0,P|451:56|394:46,1,117.333333333333,4|0,3:2|0:0,0:0:0:0:
311,15,82550,1,4,1:3:0:0:
264,20,82647,1,0,1:0:0:0:
217,26,82744,1,0,1:0:0:0:
170,32,82842,6,0,P|120:62|63:72,1,117.333333333333,2|2,3:0|0:0,0:0:0:0:
105,148,83133,1,2,1:0:0:0:
114,223,83230,1,0,1:0:0:0:
123,298,83327,1,0,1:0:0:0:
132,373,83424,6,0,L|351:347,1,220,6|0,3:1|1:0,0:0:0:0:
502,166,83910,1,0,1:0:0:0:
387,160,84007,2,0,P|322:244|350:347,1,220,2|0,3:1|0:0,0:0:0:0:
449,63,84589,6,0,L|230:37,1,220,6|0,3:1|1:0,0:0:0:0:
32,85,85075,1,0,1:0:0:0:
44,194,85172,1,2,3:1:0:0:
218,146,85366,1,0,1:0:0:0:
230,37,85463,1,0,3:0:0:0:
64,366,85754,6,0,B|10:357|9:266|82:252|120:286|120:286|143:306|220:354|396:346|465:194|449:63,1,685.666679744721,2|0,3:1|0:0,0:0:0:0:
294,18,86919,6,0,P|363:69|449:63,1,176,8|0,1:3|0:0,0:0:0:0:
