osu file format v14

[General]
AudioFilename: audio.mp3
AudioLeadIn: 0
PreviewTime: 52162
Countdown: 0
SampleSet: Soft
StackLeniency: 0.3
Mode: 0
LetterboxInBreaks: 0
WidescreenStoryboard: 0

[Editor]
Bookmarks: 11191,15851,34492,43813,53133,71774,76434,85754
DistanceSpacing: 1.6
BeatDivisor: 3
GridSize: 32
TimelineZoom: 1.8

[Metadata]
Title:Popcorn Happening!
TitleUnicode:ポップコーンはぷにんぐ!
Artist:Cocoa (CV: Sakura Ayane) & Syaro (CV: Uchida Maaya)
ArtistUnicode:ココア(CV: 佐倉綾音)& シャロ(CV: 内田真礼)
Creator:UjiMatcha
Version:Pata-Mon's Insane
Source:ご注文はうさぎですか?? ~Dear My Sister~
Tags:-ClariS- Pata-Mon wyrio pappl_e_104 papple gochiusa ごちうさ gochuumon wa usagi desu ka?? is the order a rabbit?? rabbit house 保登 心愛 hoto kokoa 桐間 紗路 kirima sharo Character Song album manga time kirara fantasia
BeatmapID:2011456
BeatmapSetID:955239

[Difficulty]
HPDrainRate:5
CircleSize:4.4
OverallDifficulty:6.5
ApproachRate:8
SliderMultiplier:1.4
SliderTickRate:1

[Events]
//Background and Video events
0,0,"tumblr_p6f5hyMSvh1u0xk60o1_1280.png",0,0
//Break Periods
//Storyboard Layer 0 (Background)
//Storyboard Layer 1 (Fail)
//Storyboard Layer 2 (Pass)
//Storyboard Layer 3 (Foreground)
//Storyboard Sound Samples

[TimingPoints]
-7449,291.26213592233,4,2,23,30,1,0
1871,-100,4,2,23,60,0,0
11191,-125,4,2,23,40,0,0
11871,-125,4,2,23,5,0,0
12356,-125,4,2,23,40,0,0
14201,-125,4,2,23,5,0,0
14686,-125,4,2,23,40,0,0
15657,-125,4,2,23,5,0,0
15851,-100,4,2,23,50,0,0
34492,-125,4,2,23,50,0,0
41483,-100,4,2,23,60,0,0
43813,-125,4,2,23,50,0,0
47308,-83.3333333333333,4,2,23,60,0,0
48473,-125,4,2,23,60,0,0
49055,-83.3333333333333,4,2,23,60,0,0
49638,-125,4,2,23,60,0,0
49929,-83.3333333333333,4,2,23,60,0,0
50803,-125,4,2,23,60,0,0
52259,-100,4,2,23,60,0,0
52648,-100,4,2,23,45,0,0
52842,-100,4,2,23,60,0,0
52939,-100,4,2,23,45,0,0
53133,-66.6666666666667,4,2,23,70,0,1
54881,-100,4,2,23,70,0,1
55463,-66.6666666666667,4,2,23,70,0,1
56919,-83.3333333333333,4,2,23,70,0,1
60123,-66.6666666666667,4,2,23,70,0,1
64201,-100,4,2,23,70,0,1
64784,-66.6666666666667,4,2,23,70,0,1
67114,-100,4,2,23,70,0,1
68279,-83.3333333333333,4,2,23,70,0,1
69444,-66.6666666666667,4,2,23,70,0,1
70609,-83.3333333333333,4,2,23,70,0,1
71774,-83.3333333333333,4,2,23,60,0,0
74104,-125,4,2,23,50,0,0
75851,-125,4,2,23,5,0,0
76434,-100,4,2,23,60,0,0

[Colours]
Combo1 : 252,97,108
Combo2 : 255,238,83
Combo3 : 187,132,133
Combo4 : 255,128,80

[HitObjects]
102,164,706,6,0,P|132:168|167:196,1,46.6666666666667,0|0,1:2|0:2,0:2:0:0:
170,246,900,2,0,L|217:244,1,46.6666666666667,0|0,1:2|0:2,0:2:0:0:
380,93,1191,1,0,3:2:0:0:
380,93,1288,2,0,P|349:97|315:125,1,46.6666666666667,0|0,1:2|0:2,0:2:0:0:
312,175,1483,1,0,1:2:0:0:
312,175,1580,2,0,L|218:171,1,93.3333333333333,0|0,3:2|0:2,0:2:0:0:
166,330,1871,6,0,B|194:299|194:255|166:224|166:224|138:193|138:149|166:118,1,233.333333333333,6|0,3:2|0:2,0:2:0:0:
113,277,2453,2,0,L|66:279,1,46.6666666666667,2|0,1:2|0:2,0:2:0:0:
20,218,2648,1,2,3:2:0:0:
20,218,2745,1,2,3:2:0:0:
219,171,2939,6,0,B|261:210|263:278|263:278|357:268|357:268|356:223|334:171,1,280,6|0,3:2|0:2,0:2:0:0:
311,136,3618,1,2,0:2:0:0:
113,277,3910,1,2,0:2:0:0:
205,34,4201,6,0,P|223:101|219:171,1,140,6|0,3:2|0:2,0:2:0:0:
81,348,4784,2,0,L|128:346,1,46.6666666666667,2|0,1:2|0:2,0:2:0:0:
187,301,4978,2,0,L|234:303,1,46.6666666666667,2|0,3:2|0:2,0:2:0:0:
505,322,5269,6,0,P|379:330|373:205,1,280,6|0,3:2|0:2,0:2:0:0:
430,105,5949,2,0,P|431:128|425:151,1,46.6666666666667,2|0,1:2|0:2,0:2:0:0:
488,190,6143,1,0,1:2:0:0:
488,190,6240,2,0,P|494:212|493:235,1,46.6666666666667,2|0,3:2|0:2,0:2:0:0:
264,124,6531,6,0,L|358:120,1,93.3333333333333,6|0,3:2|0:2,0:2:0:0:
209,174,6822,2,0,P|136:149|118:98,1,93.3333333333333,2|0,1:2|0:2,0:2:0:0:
280,197,7114,2,0,L|276:291,1,93.3333333333333,2|0,3:2|0:2,0:2:0:0:
209,174,7405,2,0,P|194:99|229:58,1,93.3333333333333,2|0,1:2|0:2,0:2:0:0:
310,122,7696,6,0,L|263:124,5,46.6666666666667,6|0|0|0|0|0,3:2|0:2|0:2|0:2|0:2|0:2,0:2:0:0:
366,172,8279,2,0,P|372:194|371:217,2,46.6666666666667,2|0|0,3:2|0:2|0:2,0:2:0:0:
417,117,8570,2,0,P|423:95|422:72,2,46.6666666666667,2|0|0,1:2|0:2|0:2,0:2:0:0:
298,202,8861,6,0,L|204:198,1,93.3333333333333,6|0,1:2|0:2,0:2:0:0:
127,154,9152,2,0,L|129:201,1,46.6666666666667,0|0,1:2|0:2,0:2:0:0:
170,264,9347,1,0,1:2:0:0:
170,264,9444,2,0,P|123:349|95:267,1,233.333333333333,6|0,3:2|0:2,0:2:0:0:
257,322,10026,6,0,P|312:318|365:294,1,93.3333333333333,6|0,1:2|0:2,0:2:0:0:
447,254,10317,2,0,L|400:252,1,46.6666666666667,0|0,1:2|0:2,0:2:0:0:
350,195,10512,1,0,1:2:0:0:
350,195,10609,2,0,L|354:101,1,93.3333333333333,6|0,3:2|0:2,0:2:0:0:
367,88,10900,2,0,L|363:182,1,93.3333333333333,0|0,3:2|0:2,0:2:0:0:
292,244,11191,5,2,3:2:0:0:
292,244,11774,2,0,L|294:291,1,37.3333333333333,0|0,1:2|0:2,0:2:0:0:
94,73,12356,5,2,3:2:0:0:
94,73,12842,2,0,L|100:214,1,112,0|0,3:2|0:2,0:2:0:0:
157,230,13230,2,0,P|204:221|245:200,1,74.6666666666667,2|0,0:2|0:2,0:2:0:0:
386,156,13521,6,0,B|274:151|274:151|252:119|254:80,1,186.666666666667,2|0,3:2|0:2,0:2:0:0:
329,41,14104,2,0,L|331:88,1,37.3333333333333,0|0,1:2|0:2,0:2:0:0:
123,252,14686,5,2,3:2:0:0:
123,252,15172,2,0,B|48:255|48:255|85:274,1,112,0|2,3:2|0:2,0:2:0:0:
195,274,15560,2,0,L|197:227,1,37.3333333333333,2|0,0:2|0:2,0:2:0:0:
50,67,15851,6,0,P|77:152|173:136,1,186.666666666667,6|0,3:2|0:2,0:2:0:0:
213,93,16337,1,2,0:2:0:0:
213,93,16434,2,0,P|260:94|341:118,1,93.3333333333333,0|0,1:2|0:2,0:2:0:0:
356,158,16725,2,0,L|403:156,1,46.6666666666667,2|0,0:2|0:2,0:2:0:0:
475,135,16919,1,0,3:2:0:0:
475,135,17017,6,0,L|473:182,1,46.6666666666667,2|0,0:2|0:2,0:2:0:0:
417,231,17211,1,0,3:2:0:0:
417,231,17308,2,0,L|421:325,1,93.3333333333333,2|0,0:2|0:2,0:2:0:0:
344,281,17599,2,0,P|305:275|262:311,1,93.3333333333333,2|0,1:2|0:2,0:2:0:0:
270,324,17890,2,0,P|309:330|352:294,1,93.3333333333333,2|0,0:2|0:2,0:2:0:0:
279,204,18182,6,0,P|231:167|121:190,1,140,2|0,3:2|0:2,0:2:0:0:
17,345,18764,2,0,L|64:343,1,46.6666666666667,2|0,1:2|0:2,0:2:0:0:
129,377,18958,2,0,L|176:379,1,46.6666666666667,2|0,0:2|0:2,0:2:0:0:
56,211,19250,1,2,3:2:0:0:
56,211,19347,5,2,0:2:0:0:
194,265,19541,1,0,3:2:0:0:
194,265,19638,2,0,P|253:258|305:229,1,93.3333333333333,2|0,0:2|0:2,0:2:0:0:
333,189,19929,2,0,L|329:95,1,93.3333333333333,2|0,1:2|0:2,0:2:0:0:
318,178,20220,2,0,L|314:84,1,93.3333333333333,2|0,0:2|0:2,0:2:0:0:
451,35,20512,6,0,P|438:122|372:110,1,140,2|0,3:2|0:2,0:2:0:0:
168,75,21094,2,0,P|121:76|76:87,1,93.3333333333333,0|0,1:2|0:2,0:2:0:0:
15,130,21385,2,0,L|13:177,1,46.6666666666667,2|0,0:2|0:2,0:2:0:0:
45,19,21580,6,0,P|27:13|-30:17,1,46.6666666666667,2|0,3:2|0:2,0:2:0:0:
153,168,21871,2,0,P|171:174|228:170,1,46.6666666666667,2|0,3:2|0:2,0:2:0:0:
316,53,22162,1,2,0:2:0:0:
316,53,22259,2,0,P|361:42|407:40,1,93.3333333333333,0|0,1:2|0:2,0:2:0:0:
477,66,22550,1,2,0:2:0:0:
356,316,22842,6,0,P|361:237|392:156,1,140,2|0,3:2|0:2,0:2:0:0:
156,316,23424,2,0,P|150:237|120:156,1,140,2|0,1:2|0:2,0:2:0:0:
256,92,23910,1,0,1:2:0:0:
256,92,24007,6,0,L|256:220,1,93.3333333333333,2|0,3:2|0:2,0:2:0:0:
290,251,24298,2,0,L|292:298,1,46.6666666666667,2|0,3:2|0:2,0:2:0:0:
222,324,24492,2,0,L|220:371,1,46.6666666666667,2|0,0:2|1:2,0:2:0:0:
124,210,24784,2,0,P|74:203|110:271,1,140,0|0,3:2|0:2,0:2:0:0:
184,254,25172,6,0,B|212:210|184:166|184:166|156:122|184:78,1,186.666666666667,6|0,3:2|0:2,0:2:0:0:
251,47,25657,1,2,0:2:0:0:
251,47,25754,2,0,L|345:51,1,93.3333333333333,0|0,1:2|0:2,0:2:0:0:
417,31,26046,2,0,P|440:16|455:-17,1,46.6666666666667,2|0,0:2|0:2,0:2:0:0:
398,103,26240,1,0,3:2:0:0:
398,103,26337,6,0,P|399:130|420:159,1,46.6666666666667,2|0,0:2|0:2,0:2:0:0:
476,179,26532,1,0,3:2:0:0:
476,179,26629,2,0,P|473:232|434:299,1,93.3333333333333,2|0,0:2|0:2,0:2:0:0:
386,340,26919,2,0,L|388:293,1,46.6666666666667,2|0,1:2|0:2,0:2:0:0:
363,363,27114,1,2,0:2:0:0:
363,363,27211,2,0,L|367:269,1,93.3333333333333,2|0,0:2|0:2,0:2:0:0:
187,260,27502,6,0,P|224:316|291:313,1,140,2|0,3:2|0:2,0:2:0:0:
246,58,28084,2,0,L|293:60,1,46.6666666666667,2|0,1:2|0:2,0:2:0:0:
356,97,28278,2,0,L|403:95,1,46.6666666666667,2|0,0:2|0:2,0:2:0:0:
285,215,28570,1,2,3:2:0:0:
285,215,28667,5,2,0:2:0:0:
143,164,28862,1,0,3:2:0:0:
143,164,28958,2,0,P|187:147|239:165,1,93.3333333333333,2|0,0:2|0:2,0:2:0:0:
70,191,29250,2,0,L|68:144,1,46.6666666666667,2|0,1:2|0:2,0:2:0:0:
43,174,29444,1,2,0:2:0:0:
43,174,29541,2,0,L|39:80,1,93.3333333333333,2|0,0:2|0:2,0:2:0:0:
190,222,29832,6,0,P|149:285|74:316,1,140,2|0,3:2|0:2,0:2:0:0:
156,73,30415,2,0,L|250:77,1,93.3333333333333,0|0,1:2|0:2,0:2:0:0:
291,138,30706,2,0,P|297:162|286:208,1,46.6666666666667,2|0,0:2|0:2,0:2:0:0:
310,33,30900,6,0,P|328:15|373:2,1,46.6666666666667,2|0,3:2|0:2,0:2:0:0:
505,85,31191,1,2,0:2:0:0:
505,85,31288,1,0,3:2:0:0:
388,204,31483,1,2,0:2:0:0:
388,204,31580,2,0,P|386:145|401:97,1,93.3333333333333,0|0,1:2|0:2,0:2:0:0:
432,47,31871,1,2,0:2:0:0:
196,155,32162,5,2,3:2:0:0:
283,33,32453,1,2,3:2:0:0:
258,291,32745,2,0,L|256:244,1,46.6666666666667,2|0,1:2|0:2,0:2:0:0:
194,202,32939,2,0,L|196:155,1,46.6666666666667,2|0,0:2|0:2,0:2:0:0:
407,144,33231,1,2,3:2:0:0:
407,144,33328,6,0,P|405:203|385:261,1,93.3333333333333,2|0,0:2|1:2,0:2:0:0:
305,293,33618,2,0,L|258:291,1,46.6666666666667,2|0,3:2|0:2,0:2:0:0:
194,202,33813,1,0,3:2:0:0:
170,182,33910,2,0,L|123:184,1,46.6666666666667,2|0,1:2|0:2,0:2:0:0:
234,93,34104,1,0,1:2:0:0:
258,73,34201,2,0,L|352:77,1,93.3333333333333,2|0,3:2|0:2,0:2:0:0:
478,39,34492,6,0,P|456:100|463:176,1,112,6|0,1:2|3:2,0:2:0:0:
505,271,35075,2,0,P|503:326|482:378,1,112,2|0,1:2|3:2,0:2:0:0:
420,237,35560,1,2,3:2:0:0:
420,237,35657,5,2,1:2:0:0:
259,298,35949,1,2,3:2:0:0:
431,253,36240,1,2,1:2:0:0:
270,314,36532,1,2,3:2:0:0:
351,149,36822,5,2,1:2:0:0:
351,284,37114,1,2,3:2:0:0:
335,138,37405,2,0,P|277:138|221:157,1,112,2|0,1:2|3:2,0:2:0:0:
161,216,37890,1,2,0:2:0:0:
161,216,37987,6,0,L|167:357,1,112,2|0,1:2|3:2,0:2:0:0:
12,258,38570,2,0,L|16:164,1,74.6666666666667,2|0,1:2|0:2,0:2:0:0:
51,156,38861,2,0,L|47:62,1,74.6666666666667,2|0,3:2|0:2,0:2:0:0:
22,44,39152,5,2,1:2:0:0:
155,61,39444,1,2,3:2:0:0:
207,185,39735,1,2,1:2:0:0:
340,202,40026,1,2,3:2:0:0:
190,318,40317,5,2,1:2:0:0:
207,185,40609,1,2,3:2:0:0:
288,78,40900,1,2,1:2:0:0:
412,28,41191,1,2,3:2:0:0:
340,202,41385,1,0,1:2:0:0:
340,202,41483,6,0,P|281:221|178:225,1,140,6|0,1:2|3:2,0:2:0:0:
25,91,42065,2,0,P|84:72|187:68,1,140,2|0,1:2|3:2,0:2:0:0:
286,147,42550,1,0,3:2:0:0:
286,147,42648,6,0,P|266:153|232:154,1,46.6666666666667,2|0,1:2|0:2,0:2:0:0:
166,143,42842,1,0,1:2:0:0:
166,143,42939,2,0,P|153:195|156:257,1,93.3333333333333,0|0,3:2|0:2,0:2:0:0:
225,296,43230,2,0,P|205:302|171:303,1,46.6666666666667,2|0,1:2|0:2,0:2:0:0:
105,292,43424,1,0,1:2:0:0:
105,292,43521,2,0,P|92:344|95:406,1,93.3333333333333,0|0,3:2|0:2,0:2:0:0:
152,234,43813,5,2,3:2:0:0:
152,234,44104,2,0,L|150:187,1,37.3333333333333,8|0,0:2|0:2,0:2:0:0:
83,162,44298,1,2,0:2:0:0:
83,162,44395,2,0,P|46:157|-8:161,1,74.6666666666667,2|0,0:2|0:2,0:2:0:0:
150,197,44686,1,2,3:2:0:0:
360,157,44978,5,2,3:2:0:0:
360,157,45269,2,0,L|362:110,1,37.3333333333333,8|0,0:2|0:2,0:2:0:0:
429,85,45463,1,2,0:2:0:0:
429,85,45560,2,0,P|465:80|520:84,1,74.6666666666667,2|0,0:2|0:2,0:2:0:0:
362,120,45851,1,2,3:2:0:0:
152,80,46143,5,2,3:2:0:0:
152,80,46434,2,0,L|150:33,1,37.3333333333333,8|0,0:2|0:2,0:2:0:0:
83,8,46628,1,2,0:2:0:0:
83,8,46725,2,0,P|46:3|-8:7,1,74.6666666666667,2|0,0:2|0:2,0:2:0:0:
150,43,47016,1,2,3:2:0:0:
53,266,47308,6,0,P|115:268|186:249,1,111.999996582031,2|0,3:2|0:2,0:2:0:0:
256,236,47599,2,0,L|256:312,1,55.9999982910157,2|0,1:2|0:2,0:2:0:0:
192,173,47793,1,6,3:2:0:0:
192,173,47890,2,0,P|195:118|213:65,1,111.999996582031,2|0,0:2|0:2,0:2:0:0:
299,65,48182,2,0,P|317:118|320:173,1,111.999996582031,2|0,1:2|0:2,0:2:0:0:
256,236,48473,6,0,P|249:274|256:309,1,74.6666666666667,2|0,3:2|0:2,0:2:0:0:
256,309,48764,2,0,P|263:271|256:236,1,74.6666666666667,0|0,1:2|1:2,0:2:0:0:
154,172,49055,6,0,P|159:249|101:197,1,167.999994873047,6|0,3:2|0:2,0:2:0:0:
201,372,49541,1,0,3:2:0:0:
201,372,49638,6,0,P|269:379|341:360,1,112,2|0,1:2|0:2,0:2:0:0:
409,226,50123,1,0,3:2:0:0:
409,226,50220,6,0,P|340:240|357:172,1,167.999994873047,6|0,3:2|0:2,0:2:0:0:
256,236,50803,5,2,0:2:0:0:
256,236,51094,1,2,0:2:0:0:
256,236,51385,2,0,L|256:140,1,74.6666666666667,2|2,0:2|0:2,0:2:0:0:
256,161,51871,1,2,0:2:0:0:
114,333,52259,6,0,P|167:318|232:322,1,93.3333333333333,2|0,3:2|0:2,0:2:0:0:
275,343,52550,5,2,3:2:0:0:
292,335,52648,1,0,1:2:0:0:
309,327,52745,1,0,1:2:0:0:
350,329,52842,5,2,3:2:0:0:
367,321,52940,1,0,1:2:0:0:
384,313,53037,1,0,1:2:0:0:
407,279,53133,6,0,L|413:138,1,140.000005340576,6|0,3:2|0:2,0:2:0:0:
512,105,53424,2,0,P|458:144|366:77,1,140.000005340576,0|0,1:2|0:2,0:2:0:0:
227,35,53716,6,0,L|233:176,1,140.000005340576,2|0,3:2|0:2,0:2:0:0:
332,209,54007,2,0,P|278:170|186:237,1,140.000005340576,0|0,1:2|0:2,0:2:0:0:
47,279,54298,6,0,L|53:138,1,140.000005340576,2|0,3:2|0:2,0:2:0:0:
140,144,54589,2,0,L|136:50,1,70.0000026702882,0|0,1:2|0:2,0:2:0:0:
170,261,54784,1,2,3:2:0:0:
170,261,54881,2,0,L|217:259,1,46.6666666666667,2|0,0:2|0:2,0:2:0:0:
147,284,55076,1,0,3:2:0:0:
147,284,55173,2,0,L|241:280,1,93.3333333333333,2|0,1:2|0:2,0:2:0:0:
451,317,55463,6,0,L|310:311,1,140.000005340576,6|0,3:2|0:2,0:2:0:0:
277,212,55754,2,0,P|316:266|249:358,1,140.000005340576,0|0,1:2|0:2,0:2:0:0:
206,180,56046,6,0,L|347:174,1,140.000005340576,2|0,3:2|0:2,0:2:0:0:
380,75,56337,2,0,P|341:129|408:221,1,140.000005340576,0|0,1:2|0:2,0:2:0:0:
451,43,56628,6,0,L|310:37,1,140.000005340576,2|0,3:2|0:2,0:2:0:0:
245,89,56919,2,0,L|151:85,1,55.9999982910157,2|0,1:2|0:2,0:2:0:0:
122,33,57114,1,2,3:2:0:0:
122,33,57211,1,2,0:2:0:0:
214,174,57405,1,0,3:2:0:0:
214,174,57502,2,0,P|212:239|180:313,1,111.999996582031,0|0,1:2|0:2,0:2:0:0:
48,363,57793,6,0,L|189:357,1,111.999996582031,2|0,3:2|0:2,0:2:0:0:
243,355,58084,1,0,1:2:0:0:
486,249,58376,2,0,L|345:243,1,111.999996582031,2|0,3:2|0:2,0:2:0:0:
291,241,58667,1,0,1:2:0:0:
427,75,58861,1,2,0:2:0:0:
427,75,58958,6,0,P|414:129|374:167,1,111.999996582031,2|0,3:2|0:2,0:2:0:0:
300,124,59250,2,0,P|313:70|353:32,1,111.999996582031,2|0,1:2|0:2,0:2:0:0:
159,32,59541,2,0,P|199:70|212:124,1,111.999996582031,2|0,0:2|0:2,0:2:0:0:
138,167,59832,2,0,P|98:129|85:75,1,111.999996582031,2|0,1:2|0:2,0:2:0:0:
212,208,60123,6,0,L|129:256,1,70.0000026702882,6|0,3:2|0:2,0:2:0:0:
300,208,60317,1,2,0:2:0:0:
300,208,60415,2,0,L|383:256,1,70.0000026702882,2|0,3:2|0:2,0:2:0:0:
256,132,60609,1,2,1:2:0:0:
256,132,60706,2,0,L|256:36,1,70.0000026702882,2|0,3:2|0:2,0:2:0:0:
265,57,60997,6,0,L|265:153,1,70.0000026702882,6|0,3:2|0:2,0:2:0:0:
370,238,61191,1,2,0:2:0:0:
370,238,61288,2,0,L|287:190,1,70.0000026702882,2|0,3:2|0:2,0:2:0:0:
160,238,61483,1,2,1:2:0:0:
160,238,61580,2,0,L|243:190,1,70.0000026702882,2|0,3:2|0:2,0:2:0:0:
221,193,61871,6,0,L|138:241,1,70.0000026702882,2|0,3:2|0:2,0:2:0:0:
345,121,62065,1,2,1:2:0:0:
345,121,62162,2,0,L|428:73,1,70.0000026702882,2|0,3:2|0:2,0:2:0:0:
182,75,62453,6,0,L|41:81,1,140.000005340576,6|0,3:2|0:2,0:2:0:0:
8,180,62745,2,0,P|47:126|-20:34,1,140.000005340576,0|0,1:2|0:2,0:2:0:0:
135,163,63036,6,0,L|276:169,1,140.000005340576,2|0,3:2|0:2,0:2:0:0:
309,268,63327,2,0,P|270:214|337:122,1,140.000005340576,0|0,1:2|0:2,0:2:0:0:
182,251,63618,6,0,L|41:257,1,140.000005340576,2|0,3:2|0:2,0:2:0:0:
151,333,63910,2,0,L|57:337,1,70.0000026702882,0|0,1:2|0:2,0:2:0:0:
246,307,64104,1,2,3:2:0:0:
246,307,64201,2,0,L|248:354,1,46.6666666666667,2|0,0:2|0:2,0:2:0:0:
267,283,64395,1,0,3:2:0:0:
267,283,64492,2,0,L|271:377,1,93.3333333333333,2|0,1:2|0:2,0:2:0:0:
182,251,64784,6,0,L|188:110,1,140.000005340576,6|0,3:2|0:2,0:2:0:0:
287,77,65075,2,0,P|233:116|141:49,1,140.000005340576,0|0,1:2|0:2,0:2:0:0:
319,6,65366,6,0,L|325:147,1,140.000005340576,2|0,3:2|0:2,0:2:0:0:
424,180,65657,2,0,P|370:141|278:208,1,140.000005340576,0|0,1:2|0:2,0:2:0:0:
456,251,65949,6,0,L|462:110,1,140.000005340576,2|0,3:2|0:2,0:2:0:0:
356,219,66240,2,0,L|360:313,1,70.0000026702882,2|0,1:2|0:2,0:2:0:0:
277,355,66434,1,2,3:2:0:0:
277,355,66531,2,0,P|202:356|101:299,1,140.000005340576,2|0,0:2|3:2,0:2:0:0:
61,265,66822,1,0,1:2:0:0:
255,24,67114,6,0,P|266:100|256:162,1,140,6|0,3:2|1:2,0:2:0:0:
126,325,67599,1,2,0:2:0:0:
126,325,67696,2,0,L|220:321,1,93.3333333333333,0|0,3:2|0:2,0:2:0:0:
293,247,67987,2,0,L|387:243,1,93.3333333333333,2|0,1:2|0:2,0:2:0:0:
255,24,68279,6,0,P|216:80|256:162,1,167.999994873047,6|0,3:2|1:2,0:2:0:0:
405,326,68764,1,2,0:2:0:0:
405,326,68861,2,0,L|264:320,1,111.999996582031,0|0,3:2|0:2,0:2:0:0:
219,247,69152,2,0,L|78:241,1,111.999996582031,2|0,1:2|0:2,0:2:0:0:
255,24,69444,6,0,P|321:92|256:162,1,210.000008010865,6|0,3:2|1:2,0:2:0:0:
73,125,69929,1,0,1:2:0:0:
73,125,70026,2,0,P|119:174|73:199,1,140.000005340576,0|0,3:2|0:2,0:2:0:0:
45,58,70317,2,0,B|119:42|111:74|185:58,1,140.000005340576,6|0,1:2|0:2,0:2:0:0:
285,7,70609,6,0,P|269:52|276:140,1,111.999996582031,6|0,3:2|0:2,0:2:0:0:
342,191,70900,2,0,L|338:285,1,55.9999982910157,2|0,1:2|0:2,0:2:0:0:
273,368,71094,1,2,0:2:0:0:
250,352,71191,2,0,L|246:258,1,55.9999982910157,0|0,3:2|0:2,0:2:0:0:
181,175,71385,1,2,3:2:0:0:
158,191,71483,2,0,L|154:285,1,55.9999982910157,0|0,1:2|0:2,0:2:0:0:
452,269,71774,5,2,0:2:0:0:
354,243,72065,1,2,0:2:0:0:
256,217,72356,1,2,0:2:0:0:
158,191,72648,1,2,0:2:0:0:
60,165,72939,6,0,L|64:259,1,55.9999982910157,2|0,1:2|0:2,0:2:0:0:
129,325,73133,1,2,3:2:0:0:
129,325,73230,2,0,L|133:231,1,55.9999982910157,2|0,3:2|0:2,0:2:0:0:
17,292,73424,1,2,1:2:0:0:
60,165,74104,5,2,0:2:0:0:
158,191,74395,1,2,0:2:0:0:
256,217,74687,1,2,0:2:0:0:
354,191,74978,1,2,0:2:0:0:
452,165,75269,1,2,0:2:0:0:
320,295,75463,1,2,0:2:0:0:
320,295,75560,6,0,L|318:248,1,37.3333333333333,2|0,0:2|0:2,0:2:0:0:
256,217,75754,2,0,L|258:170,1,37.3333333333333,2|0,0:2|0:2,0:2:0:0:
427,45,76434,6,0,P|406:117|492:63,1,233.333333333333,6|0,3:2|0:2,0:2:0:0:
328,67,77017,2,0,L|281:65,1,46.6666666666667,2|0,1:2|0:2,0:2:0:0:
222,19,77211,1,2,3:2:0:0:
222,19,77308,1,2,3:2:0:0:
57,134,77502,6,0,B|128:132|184:83|184:83|168:152|200:219,1,280,6|0,3:2|0:2,0:2:0:0:
114,200,78182,1,2,0:2:0:0:
328,136,78473,1,2,0:2:0:0:
214,356,78764,6,0,P|196:289|200:219,1,140,6|0,3:2|0:2,0:2:0:0:
342,33,79347,2,0,L|340:80,1,46.6666666666667,2|0,1:2|0:2,0:2:0:0:
396,128,79541,2,0,L|398:175,1,46.6666666666667,2|0,3:2|0:2,0:2:0:0:
196,289,79832,6,0,B|345:245|321:333|470:289,1,280,6|0,3:2|0:2,0:2:0:0:
398,174,80512,2,0,P|398:197|405:219,1,46.6666666666667,2|0,1:2|0:2,0:2:0:0:
480,140,80706,1,0,1:2:0:0:
480,140,80803,2,0,P|473:162|472:185,1,46.6666666666667,2|0,3:2|0:2,0:2:0:0:
410,19,81094,6,0,L|316:23,1,93.3333333333333,6|0,3:2|0:2,0:2:0:0:
256,66,81385,2,0,P|256:121|302:174,1,93.3333333333333,2|0,1:2|0:2,0:2:0:0:
325,225,81677,2,0,L|231:229,1,93.3333333333333,2|0,3:2|0:2,0:2:0:0:
171,272,81968,2,0,P|171:327|217:380,1,93.3333333333333,2|0,1:2|0:2,0:2:0:0:
164,198,82259,6,0,L|117:196,5,46.6666666666667,6|0|0|0|0|0,3:2|0:2|0:2|0:2|0:2|0:2,0:2:0:0:
232,229,82842,2,0,P|238:251|237:274,2,46.6666666666667,2|0|0,3:2|0:2|0:2,0:2:0:0:
283,174,83133,2,0,P|289:152|288:129,2,46.6666666666667,2|0|0,1:2|0:2|0:2,0:2:0:0:
238,57,83424,6,0,L|332:53,1,93.3333333333333,6|0,1:2|0:2,0:2:0:0:
389,101,83716,2,0,P|395:123|394:146,1,46.6666666666667,0|0,1:2|0:2,0:2:0:0:
354,210,83910,1,0,1:2:0:0:
354,210,84007,2,0,P|401:295|429:213,1,233.333333333333,4|0,3:2|0:2,0:2:0:0:
300,331,84589,6,0,P|256:346|209:348,1,93.3333333333333,6|0,1:2|0:2,0:2:0:0:
153,299,84880,2,0,L|106:301,1,46.6666666666667,0|0,1:2|0:2,0:2:0:0:
70,234,85075,1,0,1:2:0:0:
70,234,85172,2,0,L|74:140,1,93.3333333333333,6|0,3:2|0:2,0:2:0:0:
87,127,85463,2,0,L|83:221,1,93.3333333333333,0|0,3:2|0:2,0:2:0:0:
177,160,85754,6,0,B|145:92|178:25|178:25|244:61|256:135|256:135|268:61|334:25|334:25|367:92|335:160,1,560,6|0,3:2|3:2,0:2:0:0:
