osu file format v14

[General]
AudioFilename: audio.mp3
AudioLeadIn: 0
PreviewTime: 52162
Countdown: 0
SampleSet: Soft
StackLeniency: 0.4
Mode: 0
LetterboxInBreaks: 0
WidescreenStoryboard: 0

[Editor]
DistanceSpacing: 1
BeatDivisor: 3
GridSize: 8
TimelineZoom: 1.6

[Metadata]
Title:Popcorn Happening!
TitleUnicode:ポップコーンはぷにんぐ!
Artist:Cocoa (CV: Sakura Ayane) & Syaro (CV: Uchida Maaya)
ArtistUnicode:ココア(CV: 佐倉綾音)& シャロ(CV: 内田真礼)
Creator:UjiMatcha
Version:Normal
Source:ご注文はうさぎですか?? ~Dear My Sister~
Tags:-ClariS- Pata-Mon wyrio pappl_e_104 papple gochiusa ごちうさ gochuumon wa usagi desu ka?? is the order a rabbit?? rabbit house 保登 心愛 hoto kokoa 桐間 紗路 kirima sharo Character Song album manga time kirara fantasia
BeatmapID:2007783
BeatmapSetID:955239

[Difficulty]
HPDrainRate:3
CircleSize:3.2
OverallDifficulty:3.5
ApproachRate:5
SliderMultiplier:0.899999999999999
SliderTickRate:1

[Events]
//Background and Video events
0,0,"tumblr_p6f5hyMSvh1u0xk60o1_1280.png",0,0
//Break Periods
//Storyboard Layer 0 (Background)
//Storyboard Layer 1 (Fail)
//Storyboard Layer 2 (Pass)
//Storyboard Layer 3 (Foreground)
//Storyboard Sound Samples

[TimingPoints]
-7449,291.26213592233,4,2,1,30,1,0
415,-100,4,2,1,30,0,0
1871,-100,4,2,1,60,0,0
11774,-100,4,2,1,40,0,0
15851,-100,4,2,1,55,0,0
41483,-100,4,2,1,55,0,0
53133,-100,4,2,1,70,0,1
71774,-100,4,2,1,50,0,0
76434,-100,4,2,1,60,0,0

[Colours]
Combo1 : 252,97,108
Combo2 : 255,238,83
Combo3 : 187,132,133
Combo4 : 255,128,80

[HitObjects]
305,76,706,6,0,P|301:114|305:147,1,59.9999999999999,0|2,1:0|1:3,0:0:0:0:
331,220,1191,2,0,P|290:192|209:192,1,120,0|0,3:0|3:0,0:0:0:0:
171,263,1871,6,0,P|118:274|67:251,1,89.9999999999999,4|0,1:2|0:0,0:0:0:0:
19,202,2453,2,0,P|23:157|20:111,1,89.9999999999999,4|0,3:3|3:3,0:0:0:0:
0,55,2939,2,0,P|44:81|128:53,1,120,4|0,1:2|0:0,0:0:0:0:
194,39,3618,1,2,0:0:0:0:
273,80,3910,1,2,0:0:0:0:
238,162,4201,6,0,L|239:265,1,89.9999999999999,4|2,1:2|0:0,0:0:0:0:
320,290,4784,2,0,L|323:228,1,59.9999999999999,4|8,3:3|3:3,0:0:0:0:
352,145,5269,2,0,P|409:132|461:159,1,120,2|0,1:2|0:0,0:0:0:0:
505,237,5949,2,0,L|496:331,1,89.9999999999999,8|4,3:3|3:3,0:0:0:0:
421,376,6531,5,4,3:2:0:0:
350,319,6822,2,0,L|358:229,2,89.9999999999999,0|0|0,1:0|3:0|1:0,0:0:0:0:
273,366,7696,2,0,P|175:378|95:313,1,180,4|2,3:2|3:0,0:0:0:0:
59,260,8570,1,2,1:0:0:0:
75,171,8861,6,0,P|159:92|217:116,1,180,6|2,3:1|3:1,0:0:0:0:
286,270,10026,2,0,P|200:264|165:185,1,180,6|2,3:1|3:1,0:0:0:0:
344,201,11191,2,0,P|381:278|330:348,1,180,2|6,3:1|0:3,0:0:0:0:
153,382,12356,1,6,0:3:0:0:
87,246,12842,2,0,L|76:125,1,120,6|2,0:3|0:0,0:0:0:0:
6,69,13521,6,0,P|83:32|153:83,1,180,4|6,3:1|0:3,0:0:0:0:
87,243,14686,1,6,0:3:0:0:
235,263,15172,2,0,L|352:286,1,120,6|2,0:3|0:0,0:0:0:0:
402,364,15851,6,0,P|440:284|391:199,1,180,6|0,3:1|1:0,0:0:0:0:
345,137,16725,2,0,L|244:131,1,89.9999999999999,2|2,0:0|3:0,0:0:0:0:
164,123,17308,1,2,0:3:0:0:
198,206,17599,2,0,L|210:322,1,89.9999999999999,2|2,1:2|0:0,0:0:0:0:
225,383,18182,6,0,P|174:378|130:339,1,89.9999999999999,2|2,3:2|0:0,0:0:0:0:
107,274,18764,1,2,1:2:0:0:
107,274,18958,2,0,L|97:184,1,89.9999999999999,2|2,0:0|3:2,0:0:0:0:
87,94,19541,1,0,3:2:0:0:
191,34,19929,2,0,L|181:124,1,89.9999999999999,2|2,1:2|0:0,0:0:0:0:
259,169,20512,6,0,L|269:79,1,89.9999999999999,2|2,3:2|0:0,0:0:0:0:
355,54,21094,1,0,1:0:0:0:
417,118,21385,1,2,0:0:0:0:
417,118,21580,2,0,L|407:208,1,89.9999999999999,2|2,3:2|3:2,0:0:0:0:
427,295,22162,2,0,P|360:285|324:233,1,120,2|2,1:2|0:2,0:0:0:0:
246,209,22842,6,0,B|242:273|242:273|266:317|266:317|266:401,2,180,2|2|2,3:2|1:2|3:2,0:0:0:0:
163,172,24298,1,2,3:2:0:0:
163,172,24492,2,0,L|152:285,1,89.9999999999999,2|0,1:2|3:0,0:0:0:0:
145,381,25172,6,0,P|59:338|33:247,1,180,4|2,3:1|1:2,0:0:0:0:
11,175,26046,2,0,L|16:76,1,89.9999999999999,2|2,0:0|3:0,0:0:0:0:
71,15,26628,1,2,0:3:0:0:
137,78,26920,2,0,L|252:68,1,89.9999999999999,2|2,1:2|0:0,0:0:0:0:
298,15,27503,6,0,L|396:20,1,89.9999999999999,2|2,3:2|0:0,0:0:0:0:
475,36,28084,1,2,1:2:0:0:
475,36,28279,2,0,L|471:137,1,89.9999999999999,2|2,0:0|3:2,0:0:0:0:
420,199,28861,1,0,3:2:0:0:
505,283,29250,2,0,P|456:313|404:315,1,89.9999999999999,2|2,1:2|0:0,0:0:0:0:
346,272,29832,6,0,P|303:257|259:261,1,89.9999999999999,2|2,3:2|0:0,0:0:0:0:
177,300,30415,1,0,1:0:0:0:
100,253,30706,1,2,0:0:0:0:
100,253,30901,2,0,L|97:155,1,89.9999999999999,2|2,3:2|3:2,0:0:0:0:
10,140,31483,2,0,L|13:276,1,120,2|2,1:2|0:2,0:0:0:0:
16,349,32162,5,10,3:2:0:0:
105,337,32453,1,2,3:2:0:0:
194,326,32745,2,0,L|197:397,1,59.9999999999999,10|2,1:2|0:0,0:0:0:0:
285,372,33230,2,0,L|281:232,1,120,2|2,3:2|3:0,0:0:0:0:
366,220,33910,2,0,L|371:329,1,89.9999999999999,4|4,1:1|3:3,0:0:0:0:
456,335,34492,6,0,L|451:240,1,89.9999999999999,4|0,3:1|0:0,0:0:0:0:
435,156,35075,2,0,L|442:83,1,59.9999999999999,2|0,1:2|0:0,0:0:0:0:
497,26,35560,2,0,P|448:6|376:31,1,120,2|0,3:2|3:2,0:0:0:0:
321,87,36240,2,0,L|309:195,1,89.9999999999999,0|0,1:2|3:2,0:0:0:0:
234,223,36822,5,0,1:2:0:0:
150,187,37114,1,0,3:2:0:0:
65,216,37405,2,0,L|63:305,1,89.9999999999999,0|0,1:2|3:2,0:0:0:0:
50,364,37890,2,0,P|113:366|163:337,1,120,0|0,1:0|3:2,0:0:0:0:
219,269,38570,1,0,1:2:0:0:
302,301,38861,1,0,3:0:0:0:
364,235,39152,6,0,L|376:141,2,89.9999999999999,0|2|0,3:0|0:2|1:2,0:0:0:0:
417,308,40026,1,0,3:2:0:0:
500,273,40317,2,0,P|508:322|484:369,1,89.9999999999999,0|0,1:2|3:2,0:0:0:0:
406,383,40900,2,0,L|312:375,1,89.9999999999999,0|0,1:2|3:2,0:0:0:0:
226,373,41483,6,0,P|140:336|136:235,1,180,4|4,3:1|1:1,0:0:0:0:
155,172,42356,1,0,3:2:0:0:
222,110,42648,2,0,P|138:83|72:138,1,180,0|0,3:0|1:0,0:0:0:0:
43,223,43521,1,4,0:3:0:0:
126,258,43813,5,4,3:1:0:0:
216,249,44104,2,0,L|331:241,2,89.9999999999999,8|2|0,0:1|0:3|1:0,0:0:0:0:
164,176,44978,1,4,3:1:0:0:
205,95,45269,2,0,L|201:5,2,89.9999999999999,8|2|0,0:1|0:3|1:0,0:0:0:0:
254,170,46143,5,4,3:1:0:0:
295,90,46434,2,0,L|410:82,2,89.9999999999999,8|2|0,0:1|0:3|1:0,0:0:0:0:
205,80,47308,2,0,P|146:74|102:99,1,89.9999999999999,4|0,3:1|1:0,0:0:0:0:
167,160,47890,2,0,P|142:214|97:237,1,89.9999999999999,0|8,3:0|1:1,0:0:0:0:
28,237,48473,5,2,3:1:0:0:
184,325,49055,2,0,B|265:362|276:295|374:340,2,180,2|2|2,3:1|3:1|3:1,0:0:0:0:
4,324,50803,6,0,L|27:237,1,89.9999999999999,8|8,0:0|0:0,0:0:0:0:
13,148,51385,2,0,P|90:171|117:232,1,150,8|8,0:0|0:0,0:0:0:0:
95,348,52259,2,0,L|5:352,2,89.9999999999999,0|2|8,3:0|1:1|1:3,0:0:0:0:
184,363,53133,6,0,L|293:374,1,89.9999999999999,4|0,3:1|1:2,0:0:0:0:
317,293,53716,2,0,L|227:283,1,89.9999999999999,2|0,3:2|1:2,0:0:0:0:
269,204,54298,2,0,L|358:213,1,89.9999999999999,2|0,3:2|1:2,0:0:0:0:
448,224,54881,1,2,0:3:0:0:
413,140,55172,1,2,1:2:0:0:
326,116,55463,6,0,L|316:25,1,89.9999999999999,2|0,3:2|1:2,0:0:0:0:
226,25,56046,2,0,L|216:114,1,89.9999999999999,2|0,3:2|1:2,0:0:0:0:
205,203,56628,1,2,3:2:0:0:
118,180,56919,1,2,1:2:0:0:
118,180,57114,2,0,P|61:159|-6:191,1,120,2|2,3:2|1:2,0:0:0:0:
61,250,57793,6,0,P|131:319|210:297,1,180,2|2,3:2|3:2,0:0:0:0:
273,245,58667,1,0,1:2:0:0:
337,182,58958,2,0,P|358:220|359:265,1,89.9999999999999,2|2,3:2|1:2,0:0:0:0:
297,330,59541,2,0,P|336:351|380:351,1,89.9999999999999,2|2,0:3|1:2,0:0:0:0:
446,290,60123,6,0,L|465:193,2,89.9999999999999,2|0|2,3:2|3:2|3:2,0:0:0:0:
359,265,60997,2,0,L|377:174,2,89.9999999999999,2|2|2,1:2|3:2|1:2,0:0:0:0:
273,245,61871,1,2,3:2:0:0:
187,218,62162,1,2,3:2:0:0:
194,129,62453,6,0,L|212:38,1,89.9999999999999,12|0,3:1|1:2,0:0:0:0:
286,90,63036,2,0,L|353:149,1,89.9999999999999,2|0,3:2|1:2,0:0:0:0:
272,188,63618,2,0,L|186:217,1,89.9999999999999,2|0,3:2|1:2,0:0:0:0:
99,238,64201,1,2,0:3:0:0:
117,149,64492,1,2,1:2:0:0:
34,113,64783,6,0,L|13:221,1,89.9999999999999,2|0,3:2|1:2,0:0:0:0:
99,238,65366,2,0,L|203:213,1,89.9999999999999,2|0,3:2|1:2,0:0:0:0:
269,250,65948,1,2,3:2:0:0:
307,331,66240,1,2,1:2:0:0:
307,331,66434,2,0,P|261:340|197:301,1,120,2|2,3:2|1:2,0:0:0:0:
186,216,67114,6,0,B|153:127|225:131|187:28,1,180,4|2,3:1|3:0,0:0:0:0:
111,82,67987,1,2,1:2:0:0:
90,169,68279,2,0,B|56:258|128:254|95:343,1,180,4|2,3:1|0:3,0:0:0:0:
15,303,69152,1,2,1:2:0:0:
1,213,69444,6,0,P|4:164|23:124,2,89.9999999999999,4|0|2,3:1|3:2|3:3,0:0:0:0:
84,245,70317,1,2,1:2:0:0:
170,217,70609,1,2,3:2:0:0:
218,292,70900,1,2,1:2:0:0:
218,292,71094,2,0,P|279:309|350:274,1,120,0|4,3:0|0:3,0:0:0:0:
416,261,71774,6,0,L|416:364,1,89.9999999999999,4|2,0:1|0:0,0:0:0:0:
502,324,72356,2,0,L|502:234,1,89.9999999999999,2|2,0:0|0:0,0:0:0:0:
458,155,72939,2,0,P|395:123|313:161,1,150,2|0,1:0|1:0,0:0:0:0:
324,148,74104,6,0,L|324:251,1,89.9999999999999,2|2,0:0|0:0,0:0:0:0:
238,266,74686,2,0,L|238:176,1,89.9999999999999,2|2,0:0|0:0,0:0:0:0:
254,87,75269,2,0,P|317:55|399:93,1,150,10|10,0:0|0:0,0:0:0:0:
387,80,76434,6,0,P|376:133|399:184,1,89.9999999999999,4|0,1:2|0:0,0:0:0:0:
423,247,77016,2,0,P|378:243|332:246,1,89.9999999999999,4|0,3:3|3:3,0:0:0:0:
277,269,77502,2,0,P|303:225|275:141,1,120,4|0,1:2|0:0,0:0:0:0:
238,86,78181,1,2,0:0:0:0:
154,119,78473,1,2,0:0:0:0:
167,207,78764,6,0,L|166:310,1,89.9999999999999,4|2,1:2|0:0,0:0:0:0:
77,314,79347,2,0,L|74:252,1,59.9999999999999,4|8,3:3|3:3,0:0:0:0:
85,165,79832,2,0,P|127:124|186:121,1,120,2|0,1:2|0:0,0:0:0:0:
255,178,80512,2,0,L|264:272,1,89.9999999999999,8|4,3:3|3:3,0:0:0:0:
327,330,81094,5,4,3:2:0:0:
391,267,81385,2,0,L|385:177,2,89.9999999999999,0|0|0,1:0|3:0|1:0,0:0:0:0:
476,298,82259,2,0,P|409:353|326:329,1,180,4|2,3:2|3:0,0:0:0:0:
263,267,83133,1,2,1:0:0:0:
174,250,83424,6,0,P|258:171|316:195,1,180,6|2,3:1|3:1,0:0:0:0:
417,330,84589,2,0,P|330:330|301:332,1,89.9999999999999,6|0,3:1|1:0,0:0:0:0:
263,267,85172,2,0,P|177:261|148:261,1,89.9999999999999,2|0,3:1|3:0,0:0:0:0:
84,276,85754,1,2,3:1:0:0:
256,192,85851,12,8,86919,1:3:0:0:
