osu file format v14

[General]
AudioFilename: audio.mp3
AudioLeadIn: 0
PreviewTime: 52162
Countdown: 0
SampleSet: Normal
StackLeniency: 0.7
Mode: 1
LetterboxInBreaks: 0
WidescreenStoryboard: 0

[Editor]
Bookmarks: 15851,25171,34492,43812,48472,50803,51968,62453,76434
DistanceSpacing: 0.8
BeatDivisor: 3
GridSize: 32
TimelineZoom: 1.999999

[Metadata]
Title:Popcorn Happening!
TitleUnicode:ポップコーンはぷにんぐ!
Artist:Cocoa (CV: Sakura Ayane) & Syaro (CV: Uchida Maaya)
ArtistUnicode:ココア(CV: 佐倉綾音)&シャロ(CV: 内田真礼)
Creator:Tyistiana
Version:Special Flavor
Source:ご注文はうさぎですか?? ~Dear My Sister~
Tags:gochuumon wa usagi desu ka?? is the order a rabbit gochiusa character song kirima sharo hoto kokoa ごちうさ 桐間 紗路 保登 心愛 japanese anime j-pop
BeatmapID:1949540
BeatmapSetID:933864

[Difficulty]
HPDrainRate:5
CircleSize:5
OverallDifficulty:5.5
ApproachRate:6
SliderMultiplier:1.4
SliderTickRate:1

[Events]
//Background and Video events
0,0,"tumblr_p6f5hyMSvh1u0xk60o1_1280.png",0,60
//Break Periods
//Storyboard Layer 0 (Background)
//Storyboard Layer 1 (Fail)
//Storyboard Layer 2 (Pass)
//Storyboard Layer 3 (Foreground)
//Storyboard Layer 4 (Overlay)
//Storyboard Sound Samples

[TimingPoints]
706,291.26213592233,4,1,0,50,1,0
1871,291.26213592233,4,1,0,100,1,0
11337,-100,4,1,0,75,0,0
53133,-100,4,1,0,100,0,1
60123,-97.0873786407767,4,1,0,100,0,1
60317,-95.2380952380952,4,1,0,100,0,1
60414,-94.3396226415094,4,1,0,100,0,1
60608,-92.5925925925926,4,1,0,100,0,1
60705,-91.743119266055,4,1,0,100,0,1
60997,-89.2857142857143,4,1,0,100,0,1
61191,-87.719298245614,4,1,0,100,0,1
61288,-86.9565217391304,4,1,0,100,0,1
61482,-85.4700854700855,4,1,0,100,0,1
61579,-84.7457627118644,4,1,0,100,0,1
61773,-83.3333333333333,4,1,0,100,0,1
61870,-82.6446280991736,4,1,0,100,0,1
62065,-81.3008130081301,4,1,0,100,0,1
62162,-80.6451612903226,4,1,0,100,0,1
62453,-76.9230769230769,4,1,0,100,0,1
62647,-100,4,1,0,100,0,1
71773,-100,4,1,0,100,0,0

[HitObjects]
256,192,560,5,0,0:0:0:0:
256,192,633,1,0,0:0:0:0:
256,192,706,1,8,0:0:0:0:
256,192,900,1,0,0:0:0:0:
256,192,1191,1,0,0:0:0:0:
256,192,1288,1,8,0:0:0:0:
256,192,1482,1,8,0:0:0:0:
256,192,1579,1,0,0:0:0:0:
256,192,1871,5,4,0:0:0:0:
256,192,2453,1,0,0:0:0:0:
256,192,2647,1,8,0:0:0:0:
256,192,2744,1,0,0:0:0:0:
256,192,2938,1,12,0:0:0:0:
256,192,3618,1,0,0:0:0:0:
256,192,3909,1,8,0:0:0:0:
256,192,4201,1,4,0:0:0:0:
256,192,4492,1,0,0:0:0:0:
256,192,4783,1,8,0:0:0:0:
256,192,4977,1,0,0:0:0:0:
256,192,5269,1,12,0:0:0:0:
256,192,5948,1,0,0:0:0:0:
256,192,6142,1,0,0:0:0:0:
256,192,6239,1,8,0:0:0:0:
256,192,6531,1,4,0:0:0:0:
256,192,6822,1,8,0:0:0:0:
256,192,7113,1,0,0:0:0:0:
256,192,7404,1,0,0:0:0:0:
256,192,7696,1,8,0:0:0:0:
256,192,8278,1,0,0:0:0:0:
256,192,8472,1,0,0:0:0:0:
256,192,8570,1,8,0:0:0:0:
256,192,8764,1,8,0:0:0:0:
256,192,8861,1,0,0:0:0:0:
256,192,9152,1,0,0:0:0:0:
256,192,9346,1,0,0:0:0:0:
256,192,9443,1,8,0:0:0:0:
256,192,9735,1,8,0:0:0:0:
256,192,9929,1,8,0:0:0:0:
256,192,10026,1,0,0:0:0:0:
256,192,10317,1,0,0:0:0:0:
256,192,10511,1,0,0:0:0:0:
256,192,10608,1,8,0:0:0:0:
256,192,10803,1,8,0:0:0:0:
256,192,10900,1,0,0:0:0:0:
256,192,11191,1,12,0:0:0:0:
256,192,11773,1,0,0:0:0:0:
256,192,12356,1,8,0:0:0:0:
256,192,12841,1,0,0:0:0:0:
256,192,13133,1,8,0:0:0:0:
256,192,13230,1,0,0:0:0:0:
256,192,13424,1,0,0:0:0:0:
256,192,13521,1,8,0:0:0:0:
256,192,14104,1,0,0:0:0:0:
256,192,14686,1,8,0:0:0:0:
256,192,15171,1,0,0:0:0:0:
256,192,15463,1,8,0:0:0:0:
256,192,15560,1,0,0:0:0:0:
96,288,15851,5,4,0:0:0:0:
96,288,16337,1,8,0:0:0:0:
96,288,16434,1,0,0:0:0:0:
96,288,16725,1,8,0:0:0:0:
96,288,16919,1,8,0:0:0:0:
96,288,17016,1,0,0:0:0:0:
96,288,17210,1,0,0:0:0:0:
96,288,17307,1,8,0:0:0:0:
96,288,17599,1,0,0:0:0:0:
96,288,17793,1,8,0:0:0:0:
96,288,17890,1,0,0:0:0:0:
96,288,18181,1,0,0:0:0:0:
96,288,18472,1,8,0:0:0:0:
96,288,18764,1,8,0:0:0:0:
96,288,18958,1,0,0:0:0:0:
96,288,19249,1,0,0:0:0:0:
96,288,19346,1,8,0:0:0:0:
96,288,19540,1,8,0:0:0:0:
96,288,19637,1,0,0:0:0:0:
96,288,19929,1,0,0:0:0:0:
96,288,20123,1,0,0:0:0:0:
96,288,20220,1,8,0:0:0:0:
96,288,20511,1,0,0:0:0:0:
96,288,20803,1,0,0:0:0:0:
96,288,20997,1,0,0:0:0:0:
96,288,21094,1,8,0:0:0:0:
96,288,21385,1,8,0:0:0:0:
96,288,21579,1,0,0:0:0:0:
96,288,21870,1,8,0:0:0:0:
96,288,21968,1,0,0:0:0:0:
96,288,22162,1,0,0:0:0:0:
96,288,22259,1,8,0:0:0:0:
96,288,22453,1,8,0:0:0:0:
96,288,22550,1,0,0:0:0:0:
96,288,22841,1,8,0:0:0:0:
96,288,23133,1,0,0:0:0:0:
96,288,23424,1,8,0:0:0:0:
96,288,23715,1,0,0:0:0:0:
96,288,23909,1,0,0:0:0:0:
96,288,24006,1,8,0:0:0:0:
96,288,24201,1,8,0:0:0:0:
96,288,24298,1,0,0:0:0:0:
96,288,24492,1,8,0:0:0:0:
96,288,24589,1,8,0:0:0:0:
96,288,24783,1,0,0:0:0:0:
96,288,24880,1,8,0:0:0:0:
416,288,25171,5,4,0:0:0:0:
416,288,25657,1,8,0:0:0:0:
416,288,25754,1,0,0:0:0:0:
416,288,26045,1,8,0:0:0:0:
416,288,26239,1,0,0:0:0:0:
416,288,26337,1,0,0:0:0:0:
416,288,26531,1,8,0:0:0:0:
416,288,26628,1,0,0:0:0:0:
416,288,26919,1,8,0:0:0:0:
416,288,27113,1,0,0:0:0:0:
416,288,27210,1,8,0:0:0:0:
416,288,27502,1,0,0:0:0:0:
416,288,27793,1,8,0:0:0:0:
416,288,28084,1,8,0:0:0:0:
416,288,28278,1,0,0:0:0:0:
416,288,28570,1,8,0:0:0:0:
416,288,28667,1,0,0:0:0:0:
416,288,28861,1,0,0:0:0:0:
96,288,28958,1,8,0:0:0:0:
416,288,29249,1,0,0:0:0:0:
416,288,29443,1,8,0:0:0:0:
416,288,29540,1,0,0:0:0:0:
416,288,29832,1,0,0:0:0:0:
416,288,30123,1,8,0:0:0:0:
416,288,30317,1,0,0:0:0:0:
416,288,30414,1,8,0:0:0:0:
416,288,30705,1,8,0:0:0:0:
416,288,30900,1,0,0:0:0:0:
416,288,31191,1,8,0:0:0:0:
416,288,31288,1,0,0:0:0:0:
416,288,31482,1,0,0:0:0:0:
416,288,31579,1,8,0:0:0:0:
416,288,31773,1,8,0:0:0:0:
416,288,31870,1,0,0:0:0:0:
416,288,32162,1,8,0:0:0:0:
416,288,32453,1,0,0:0:0:0:
416,288,32744,1,8,0:0:0:0:
416,288,32938,1,0,0:0:0:0:
416,288,33230,1,0,0:0:0:0:
416,288,33327,1,8,0:0:0:0:
416,288,33521,1,8,0:0:0:0:
416,288,33618,1,0,0:0:0:0:
416,288,33812,1,8,0:0:0:0:
416,288,33909,1,8,0:0:0:0:
416,288,34104,1,0,0:0:0:0:
96,288,34201,1,8,0:0:0:0:
96,288,34492,5,4,0:0:0:0:
96,288,34783,1,0,0:0:0:0:
96,288,35074,1,8,0:0:0:0:
96,288,35269,1,0,0:0:0:0:
96,288,35366,1,8,0:0:0:0:
96,288,35560,1,8,0:0:0:0:
96,288,35657,1,0,0:0:0:0:
96,288,35948,1,0,0:0:0:0:
96,288,36239,1,8,0:0:0:0:
96,288,36531,1,0,0:0:0:0:
96,288,36725,1,0,0:0:0:0:
96,288,36822,1,8,0:0:0:0:
96,288,37113,1,0,0:0:0:0:
96,288,37404,1,8,0:0:0:0:
96,288,37696,1,0,0:0:0:0:
96,288,37890,1,8,0:0:0:0:
96,288,37987,1,0,0:0:0:0:
96,288,38181,1,8,0:0:0:0:
96,288,38278,1,0,0:0:0:0:
96,288,38570,1,8,0:0:0:0:
96,288,38764,1,0,0:0:0:0:
96,288,38861,1,8,0:0:0:0:
96,288,39055,1,0,0:0:0:0:
96,288,39152,1,8,0:0:0:0:
96,288,39443,1,0,0:0:0:0:
96,288,39735,1,8,0:0:0:0:
96,288,40026,1,0,0:0:0:0:
96,288,40220,1,8,0:0:0:0:
96,288,40317,1,0,0:0:0:0:
96,288,40608,1,0,0:0:0:0:
96,288,40803,1,0,0:0:0:0:
96,288,40900,1,8,0:0:0:0:
96,288,41191,1,0,0:0:0:0:
96,288,41385,1,8,0:0:0:0:
96,288,41482,1,4,0:0:0:0:
96,288,41773,1,0,0:0:0:0:
96,288,41968,1,0,0:0:0:0:
96,288,42065,1,8,0:0:0:0:
96,288,42356,1,0,0:0:0:0:
96,288,42550,1,8,0:0:0:0:
96,288,42647,1,0,0:0:0:0:
96,288,42841,1,0,0:0:0:0:
96,288,42938,1,0,0:0:0:0:
96,288,43133,1,0,0:0:0:0:
96,288,43230,1,8,0:0:0:0:
96,288,43424,1,8,0:0:0:0:
96,288,43521,1,0,0:0:0:0:
96,288,43812,5,4,0:0:0:0:
96,288,44104,1,8,0:0:0:0:
96,288,44298,1,8,0:0:0:0:
96,288,44395,1,0,0:0:0:0:
96,288,44589,1,0,0:0:0:0:
96,288,44686,1,8,0:0:0:0:
96,288,44977,5,4,0:0:0:0:
96,288,45269,1,8,0:0:0:0:
96,288,45463,1,0,0:0:0:0:
96,288,45560,1,0,0:0:0:0:
96,288,45754,1,0,0:0:0:0:
96,288,45851,1,8,0:0:0:0:
96,288,46142,5,4,0:0:0:0:
96,288,46434,1,8,0:0:0:0:
96,288,46628,1,8,0:0:0:0:
96,288,46725,1,0,0:0:0:0:
96,288,46919,1,0,0:0:0:0:
96,288,47016,1,8,0:0:0:0:
96,288,47307,5,4,0:0:0:0:
96,288,47502,1,0,0:0:0:0:
96,288,47599,1,8,0:0:0:0:
96,288,47793,1,8,0:0:0:0:
96,288,47890,1,0,0:0:0:0:
96,288,48084,1,0,0:0:0:0:
96,288,48181,1,8,0:0:0:0:
96,288,48472,5,4,0:0:0:0:
416,288,48764,1,8,0:0:0:0:
96,288,48958,1,0,0:0:0:0:
416,288,49055,1,8,0:0:0:0:
416,288,49346,1,8,0:0:0:0:
96,288,49540,1,0,0:0:0:0:
96,288,49637,1,0,0:0:0:0:
416,288,49929,1,8,0:0:0:0:
96,288,50123,1,0,0:0:0:0:
416,288,50220,1,8,0:0:0:0:
96,288,50414,1,0,0:0:0:0:
96,288,50511,1,0,0:0:0:0:
96,288,50803,5,0,0:0:0:0:
416,288,51094,1,8,0:0:0:0:
96,288,51385,1,0,0:0:0:0:
416,288,51579,1,8,0:0:0:0:
96,288,51870,1,0,0:0:0:0:
416,288,52259,1,8,0:0:0:0:
96,288,52550,1,0,0:0:0:0:
96,288,52647,1,0,0:0:0:0:
96,288,52744,1,0,0:0:0:0:
416,288,52841,1,8,0:0:0:0:
96,288,53133,5,4,0:0:0:0:
416,288,53327,1,0,0:0:0:0:
96,288,53424,1,8,0:0:0:0:
416,288,53618,1,0,0:0:0:0:
96,288,53715,1,0,0:0:0:0:
416,288,53909,1,0,0:0:0:0:
96,288,54006,1,8,0:0:0:0:
416,288,54201,1,0,0:0:0:0:
96,288,54298,1,0,0:0:0:0:
416,288,54492,1,0,0:0:0:0:
96,288,54589,1,8,0:0:0:0:
416,288,54783,1,8,0:0:0:0:
96,288,54880,1,0,0:0:0:0:
416,288,54977,1,0,0:0:0:0:
416,288,55074,1,0,0:0:0:0:
96,288,55171,1,8,0:0:0:0:
416,288,55366,1,0,0:0:0:0:
96,288,55463,1,0,0:0:0:0:
416,288,55657,1,0,0:0:0:0:
96,288,55754,1,8,0:0:0:0:
416,288,55948,1,0,0:0:0:0:
96,288,56045,1,0,0:0:0:0:
416,288,56239,1,0,0:0:0:0:
96,288,56337,1,8,0:0:0:0:
416,288,56531,1,0,0:0:0:0:
96,288,56628,1,0,0:0:0:0:
416,288,56822,1,0,0:0:0:0:
96,288,56919,1,8,0:0:0:0:
416,288,57113,1,8,0:0:0:0:
96,288,57210,1,0,0:0:0:0:
416,288,57404,1,0,0:0:0:0:
96,288,57502,1,8,0:0:0:0:
96,288,57793,1,0,0:0:0:0:
416,288,57987,1,0,0:0:0:0:
96,288,58084,1,8,0:0:0:0:
96,288,58375,1,0,0:0:0:0:
416,288,58570,1,0,0:0:0:0:
96,288,58667,1,8,0:0:0:0:
416,288,58861,1,8,0:0:0:0:
96,288,58958,1,0,0:0:0:0:
416,288,59152,1,0,0:0:0:0:
96,288,59249,1,8,0:0:0:0:
416,288,59443,1,0,0:0:0:0:
96,288,59540,1,0,0:0:0:0:
416,288,59735,1,0,0:0:0:0:
96,288,59832,1,8,0:0:0:0:
96,288,60123,1,4,0:0:0:0:
416,288,60317,1,0,0:0:0:0:
96,288,60414,1,8,0:0:0:0:
416,288,60608,1,8,0:0:0:0:
96,288,60705,1,0,0:0:0:0:
96,288,60997,1,12,0:0:0:0:
416,288,61191,1,8,0:0:0:0:
96,288,61288,1,0,0:0:0:0:
416,288,61482,1,0,0:0:0:0:
96,288,61579,1,8,0:0:0:0:
416,288,61773,1,0,0:0:0:0:
96,288,61870,1,0,0:0:0:0:
416,288,62065,1,0,0:0:0:0:
96,288,62162,1,8,0:0:0:0:
96,288,62453,5,4,0:0:0:0:
416,288,62647,1,0,0:0:0:0:
96,288,62744,1,8,0:0:0:0:
416,288,62938,1,0,0:0:0:0:
96,288,63036,1,0,0:0:0:0:
416,288,63230,1,0,0:0:0:0:
96,288,63327,1,8,0:0:0:0:
416,288,63521,1,0,0:0:0:0:
96,288,63618,1,0,0:0:0:0:
416,288,63812,1,0,0:0:0:0:
96,288,63909,1,8,0:0:0:0:
416,288,64104,1,8,0:0:0:0:
96,288,64201,1,0,0:0:0:0:
416,288,64298,1,0,0:0:0:0:
416,288,64395,1,0,0:0:0:0:
96,288,64492,1,8,0:0:0:0:
416,288,64686,1,0,0:0:0:0:
96,288,64783,1,0,0:0:0:0:
416,288,64977,1,0,0:0:0:0:
96,288,65074,1,8,0:0:0:0:
416,288,65269,1,0,0:0:0:0:
96,288,65366,1,0,0:0:0:0:
416,288,65560,1,0,0:0:0:0:
96,288,65657,1,8,0:0:0:0:
416,288,65851,1,0,0:0:0:0:
96,288,65948,1,0,0:0:0:0:
416,288,66142,1,0,0:0:0:0:
96,288,66239,1,8,0:0:0:0:
416,288,66434,1,8,0:0:0:0:
96,288,66531,1,0,0:0:0:0:
416,288,66725,1,0,0:0:0:0:
96,288,66822,1,8,0:0:0:0:
96,288,67113,1,4,0:0:0:0:
96,288,67404,1,8,0:0:0:0:
416,288,67599,1,0,0:0:0:0:
96,288,67696,1,0,0:0:0:0:
416,288,67890,1,0,0:0:0:0:
96,288,67987,1,8,0:0:0:0:
96,288,68278,1,4,0:0:0:0:
96,288,68570,1,8,0:0:0:0:
416,288,68764,1,8,0:0:0:0:
96,288,68861,1,0,0:0:0:0:
416,288,69055,1,0,0:0:0:0:
96,288,69152,1,8,0:0:0:0:
96,288,69443,1,4,0:0:0:0:
96,288,69735,1,8,0:0:0:0:
416,288,69929,1,8,0:0:0:0:
96,288,70026,1,0,0:0:0:0:
416,288,70220,1,0,0:0:0:0:
96,288,70317,1,8,0:0:0:0:
416,288,70511,1,0,0:0:0:0:
96,288,70608,1,0,0:0:0:0:
416,288,70803,1,0,0:0:0:0:
96,288,70900,1,8,0:0:0:0:
416,288,71094,1,0,0:0:0:0:
96,288,71191,1,0,0:0:0:0:
416,288,71385,1,0,0:0:0:0:
96,288,71482,1,8,0:0:0:0:
96,288,71773,1,0,0:0:0:0:
96,288,72938,1,4,0:0:0:0:
416,288,73133,1,8,0:0:0:0:
96,288,73230,1,0,0:0:0:0:
416,288,73424,1,12,0:0:0:0:
96,288,74104,1,0,0:0:0:0:
96,288,74395,1,0,0:0:0:0:
96,288,74686,1,0,0:0:0:0:
96,288,74977,1,0,0:0:0:0:
416,288,75269,1,8,0:0:0:0:
96,288,75463,1,0,0:0:0:0:
416,288,75560,1,8,0:0:0:0:
96,288,75754,1,0,0:0:0:0:
256,192,76434,5,4,0:0:0:0:
256,192,77016,1,0,0:0:0:0:
256,192,77210,1,8,0:0:0:0:
256,192,77307,1,0,0:0:0:0:
256,192,77501,1,12,0:0:0:0:
256,192,78181,1,0,0:0:0:0:
256,192,78472,1,8,0:0:0:0:
256,192,78764,1,4,0:0:0:0:
256,192,79055,1,0,0:0:0:0:
256,192,79346,1,8,0:0:0:0:
256,192,79540,1,0,0:0:0:0:
256,192,79832,1,12,0:0:0:0:
256,192,80511,1,0,0:0:0:0:
256,192,80705,1,0,0:0:0:0:
256,192,80802,1,8,0:0:0:0:
256,192,81094,1,4,0:0:0:0:
256,192,81385,1,8,0:0:0:0:
256,192,81676,1,0,0:0:0:0:
256,192,81967,1,0,0:0:0:0:
256,192,82259,1,8,0:0:0:0:
256,192,82841,1,0,0:0:0:0:
256,192,83035,1,0,0:0:0:0:
256,192,83133,1,8,0:0:0:0:
256,192,83327,1,8,0:0:0:0:
256,192,83424,1,0,0:0:0:0:
256,192,83715,1,0,0:0:0:0:
256,192,83909,1,0,0:0:0:0:
256,192,84006,1,8,0:0:0:0:
256,192,84298,1,8,0:0:0:0:
256,192,84492,1,8,0:0:0:0:
256,192,84589,1,0,0:0:0:0:
256,192,84880,1,0,0:0:0:0:
256,192,85074,1,0,0:0:0:0:
256,192,85171,1,8,0:0:0:0:
256,192,85366,1,8,0:0:0:0:
256,192,85463,1,0,0:0:0:0:
256,192,85754,1,12,0:0:0:0:
256,192,86919,5,0,0:0:0:0:
