osu file format v14

[General]
AudioFilename: audio.mp3
AudioLeadIn: 0
PreviewTime: 56946
Countdown: 1
SampleSet: Normal
StackLeniency: 0.7
Mode: 1
LetterboxInBreaks: 0
WidescreenStoryboard: 1

[Editor]
Bookmarks: 3319,24973,39409,87228,90837,105273,152190,159408,168431,213542
DistanceSpacing: 1.3
BeatDivisor: 2
GridSize: 32
TimelineZoom: 1.1456

[Metadata]
Title:Rabbit Hole
TitleUnicode:Rabbit Hole
Artist:Cocoa (CV: Sakura Ayane) & Rize (CV: Taneda Risa)
ArtistUnicode:ココア (CV: 佐倉綾音) & リゼ (CV: 種田梨沙)
Creator:Tyistiana
Version:Kantan
Source:ご注文はうさぎですか?
Tags:
BeatmapID:1988120
BeatmapSetID:945653

[Difficulty]
HPDrainRate:7
CircleSize:5
OverallDifficulty:3.5
ApproachRate:4
SliderMultiplier:1
SliderTickRate:1

[Events]
//Background and Video events
0,0,"bg-rc.jpg",0,0
//Break Periods
2,159608,167111
//Storyboard Layer 0 (Background)
//Storyboard Layer 1 (Fail)
//Storyboard Layer 2 (Pass)
//Storyboard Layer 3 (Foreground)
//Storyboard Sound Samples

[TimingPoints]
-290,225.563909774436,4,1,0,100,1,0
612,-100,4,1,0,100,0,0
56552,451.127819548872,4,1,0,100,1,0
56552,-50,4,1,0,100,0,0
58356,225.563909774436,4,1,0,100,1,1
58356,-100,4,1,0,100,0,1
70987,-100,4,1,0,100,0,0
72792,-100,4,1,0,100,0,1
85423,-100,4,1,0,100,0,0
122416,451.127819548872,4,1,0,100,1,0
122416,-50,4,1,0,100,0,0
123318,225.563909774436,4,1,0,100,1,1
123318,-100,4,1,0,100,0,1
135949,-100,4,1,0,100,0,0
137754,-100,4,1,0,100,0,1
150386,-100,4,1,0,100,0,0
168431,225.563909774436,4,1,0,100,1,0
184671,225.563909774436,4,1,0,100,1,0
197302,451.127819548872,4,1,0,100,1,0
197302,-50,4,1,0,100,0,0
199106,225.563909774436,4,1,0,100,1,1
199106,-100,4,1,0,100,0,1
211737,-100,4,1,0,100,0,0

[HitObjects]
256,192,3319,5,0,0:0:0:0:
256,192,5123,1,0,0:0:0:0:
256,192,6928,1,8,0:0:0:0:
256,192,7830,1,8,0:0:0:0:
256,192,8732,1,0,0:0:0:0:
256,192,9634,12,0,10537,0:0:0:0:
256,192,11439,5,8,0:0:0:0:
256,192,12341,1,0,0:0:0:0:
256,192,12792,1,0,0:0:0:0:
256,192,13243,1,8,0:0:0:0:
256,192,14146,1,4,0:0:0:0:
256,192,15950,1,12,0:0:0:0:
256,192,16852,12,0,17755,0:0:0:0:
256,192,18657,5,0,0:0:0:0:
256,192,19559,1,0,0:0:0:0:
256,192,20461,1,0,0:0:0:0:
256,192,21364,1,8,0:0:0:0:
256,192,22266,1,8,0:0:0:0:
256,192,23168,1,12,0:0:0:0:
256,192,23958,1,12,0:0:0:0:
256,192,24973,5,4,0:0:0:0:
256,192,26777,1,12,0:0:0:0:
256,192,27679,1,12,0:0:0:0:
256,192,28582,1,4,0:0:0:0:
256,192,30386,1,12,0:0:0:0:
256,192,31288,1,12,0:0:0:0:
256,192,32191,1,4,0:0:0:0:
256,192,33995,1,12,0:0:0:0:
256,192,34897,1,12,0:0:0:0:
256,192,35800,1,4,0:0:0:0:
256,192,36251,1,0,0:0:0:0:
256,192,36702,1,0,0:0:0:0:
256,192,36928,1,0,0:0:0:0:
256,192,37153,1,0,0:0:0:0:
256,192,37604,1,8,0:0:0:0:
256,192,39409,5,4,0:0:0:0:
256,192,39860,1,0,0:0:0:0:
256,192,40311,1,8,0:0:0:0:
256,192,41213,1,0,0:0:0:0:
256,192,41664,1,8,0:0:0:0:
256,192,42116,1,0,0:0:0:0:
256,192,43018,1,0,0:0:0:0:
256,192,43469,1,0,0:0:0:0:
256,192,43920,1,8,0:0:0:0:
256,192,44822,1,8,0:0:0:0:
256,192,45273,1,0,0:0:0:0:
256,192,45725,1,8,0:0:0:0:
256,192,46627,5,4,0:0:0:0:
256,192,47078,1,0,0:0:0:0:
256,192,47529,1,8,0:0:0:0:
256,192,48431,1,8,0:0:0:0:
256,192,48882,1,0,0:0:0:0:
256,192,49334,1,8,0:0:0:0:
256,192,50236,1,0,0:0:0:0:
256,192,50687,1,0,0:0:0:0:
256,192,51138,1,0,0:0:0:0:
256,192,52040,1,8,0:0:0:0:
256,192,52491,1,8,0:0:0:0:
256,192,52943,1,8,0:0:0:0:
256,192,53394,1,8,0:0:0:0:
256,192,53845,1,4,0:0:0:0:
256,192,54747,1,0,0:0:0:0:
256,192,55649,1,12,0:0:0:0:
256,192,56439,1,12,0:0:0:0:
256,192,58356,5,4,0:0:0:0:
256,192,58581,1,0,0:0:0:0:
256,192,58807,1,0,0:0:0:0:
256,192,59258,1,8,0:0:0:0:
256,192,59709,1,8,0:0:0:0:
256,192,60160,1,0,0:0:0:0:
256,192,60386,1,0,0:0:0:0:
256,192,60611,1,0,0:0:0:0:
256,192,61062,1,8,0:0:0:0:
256,192,61513,1,8,0:0:0:0:
256,192,61965,1,0,0:0:0:0:
256,192,62416,1,0,0:0:0:0:
256,192,62641,1,0,0:0:0:0:
256,192,62867,1,8,0:0:0:0:
256,192,63318,1,0,0:0:0:0:
256,192,63769,1,8,0:0:0:0:
256,192,64671,1,0,0:0:0:0:
256,192,65122,1,8,0:0:0:0:
256,192,65574,5,4,0:0:0:0:
256,192,65799,1,0,0:0:0:0:
256,192,66025,1,0,0:0:0:0:
256,192,66476,1,8,0:0:0:0:
256,192,66927,1,8,0:0:0:0:
256,192,67378,1,0,0:0:0:0:
256,192,67604,1,0,0:0:0:0:
256,192,67829,1,0,0:0:0:0:
256,192,68280,1,8,0:0:0:0:
256,192,68731,1,8,0:0:0:0:
256,192,69183,1,0,0:0:0:0:
256,192,69634,1,0,0:0:0:0:
256,192,70085,1,8,0:0:0:0:
256,192,70536,1,0,0:0:0:0:
256,192,70762,1,0,0:0:0:0:
256,192,70987,1,8,0:0:0:0:
256,192,71889,1,0,0:0:0:0:
256,192,72340,1,8,0:0:0:0:
256,192,72792,5,4,0:0:0:0:
256,192,73017,1,0,0:0:0:0:
256,192,73243,1,0,0:0:0:0:
256,192,73694,1,8,0:0:0:0:
256,192,74145,1,8,0:0:0:0:
256,192,74596,1,0,0:0:0:0:
256,192,74822,1,0,0:0:0:0:
256,192,75047,1,0,0:0:0:0:
256,192,75498,1,8,0:0:0:0:
256,192,75949,1,8,0:0:0:0:
256,192,76401,1,0,0:0:0:0:
256,192,76626,1,0,0:0:0:0:
256,192,76852,1,8,0:0:0:0:
256,192,77303,1,8,0:0:0:0:
256,192,77754,1,0,0:0:0:0:
256,192,78205,1,8,0:0:0:0:
256,192,79107,1,8,0:0:0:0:
256,192,80010,5,4,0:0:0:0:
256,192,80912,1,8,0:0:0:0:
256,192,81814,1,0,0:0:0:0:
256,192,82716,1,8,0:0:0:0:
256,192,83619,1,4,0:0:0:0:
256,192,84070,1,0,0:0:0:0:
256,192,84521,1,0,0:0:0:0:
256,192,84972,1,0,0:0:0:0:
256,192,85198,1,8,0:0:0:0:
256,192,85423,1,0,0:0:0:0:
256,192,86325,12,0,87228,0:0:0:0:
256,192,88130,5,0,0:0:0:0:
256,192,89032,1,12,0:0:0:0:
256,192,89822,1,12,0:0:0:0:
256,192,90837,5,4,0:0:0:0:
256,192,92641,1,8,0:0:0:0:
256,192,93543,1,8,0:0:0:0:
256,192,94446,1,0,0:0:0:0:
256,192,96250,1,8,0:0:0:0:
256,192,98055,1,4,0:0:0:0:
256,192,99859,1,12,0:0:0:0:
256,192,100762,1,12,0:0:0:0:
256,192,101664,1,4,0:0:0:0:
256,192,103468,1,12,0:0:0:0:
256,192,104371,1,12,0:0:0:0:
256,192,105273,5,4,0:0:0:0:
256,192,105724,1,0,0:0:0:0:
256,192,106175,1,8,0:0:0:0:
256,192,107077,1,8,0:0:0:0:
256,192,107528,1,0,0:0:0:0:
256,192,107980,1,8,0:0:0:0:
256,192,108882,1,0,0:0:0:0:
256,192,109333,1,0,0:0:0:0:
256,192,109784,1,8,0:0:0:0:
256,192,110686,1,0,0:0:0:0:
256,192,111137,1,8,0:0:0:0:
256,192,111589,1,0,0:0:0:0:
256,192,112491,5,4,0:0:0:0:
256,192,112942,1,0,0:0:0:0:
256,192,113393,1,8,0:0:0:0:
256,192,114295,1,0,0:0:0:0:
256,192,114746,1,8,0:0:0:0:
256,192,115198,1,0,0:0:0:0:
256,192,116100,1,0,0:0:0:0:
256,192,116551,1,0,0:0:0:0:
256,192,117002,1,0,0:0:0:0:
256,192,117904,1,8,0:0:0:0:
256,192,118355,1,8,0:0:0:0:
256,192,118807,1,8,0:0:0:0:
256,192,119258,1,8,0:0:0:0:
256,192,119709,1,4,0:0:0:0:
256,192,120611,1,0,0:0:0:0:
256,192,121513,1,12,0:0:0:0:
256,192,122303,1,12,0:0:0:0:
256,192,123318,5,4,0:0:0:0:
256,192,123543,1,0,0:0:0:0:
256,192,123769,1,0,0:0:0:0:
256,192,124220,1,8,0:0:0:0:
256,192,124671,1,8,0:0:0:0:
256,192,125122,1,0,0:0:0:0:
256,192,125348,1,0,0:0:0:0:
256,192,125573,1,0,0:0:0:0:
256,192,126024,1,8,0:0:0:0:
256,192,126475,1,8,0:0:0:0:
256,192,126927,1,0,0:0:0:0:
256,192,127378,1,0,0:0:0:0:
256,192,127603,1,0,0:0:0:0:
256,192,127829,1,8,0:0:0:0:
256,192,128280,1,0,0:0:0:0:
256,192,128731,1,8,0:0:0:0:
256,192,129633,1,0,0:0:0:0:
256,192,130084,1,8,0:0:0:0:
256,192,130536,5,4,0:0:0:0:
256,192,130761,1,0,0:0:0:0:
256,192,130987,1,0,0:0:0:0:
256,192,131438,1,8,0:0:0:0:
256,192,131889,1,8,0:0:0:0:
256,192,132340,1,0,0:0:0:0:
256,192,132566,1,0,0:0:0:0:
256,192,132791,1,0,0:0:0:0:
256,192,133242,1,8,0:0:0:0:
256,192,133693,1,8,0:0:0:0:
256,192,134145,1,0,0:0:0:0:
256,192,134596,1,0,0:0:0:0:
256,192,135047,1,8,0:0:0:0:
256,192,135498,1,0,0:0:0:0:
256,192,135724,1,0,0:0:0:0:
256,192,135949,1,8,0:0:0:0:
256,192,136851,1,0,0:0:0:0:
256,192,137302,1,8,0:0:0:0:
256,192,137754,5,4,0:0:0:0:
256,192,137979,1,0,0:0:0:0:
256,192,138205,1,0,0:0:0:0:
256,192,138656,1,8,0:0:0:0:
256,192,139107,1,8,0:0:0:0:
256,192,139558,1,0,0:0:0:0:
256,192,139784,1,0,0:0:0:0:
256,192,140009,1,0,0:0:0:0:
256,192,140460,1,8,0:0:0:0:
256,192,140911,1,8,0:0:0:0:
256,192,141363,1,0,0:0:0:0:
256,192,141588,1,0,0:0:0:0:
256,192,141814,1,8,0:0:0:0:
256,192,142265,1,8,0:0:0:0:
256,192,142716,1,0,0:0:0:0:
256,192,143167,1,8,0:0:0:0:
256,192,144069,1,8,0:0:0:0:
256,192,144972,5,4,0:0:0:0:
256,192,145874,1,8,0:0:0:0:
256,192,146776,1,0,0:0:0:0:
256,192,147678,1,8,0:0:0:0:
256,192,148581,1,4,0:0:0:0:
256,192,149032,1,0,0:0:0:0:
256,192,149483,1,0,0:0:0:0:
256,192,149934,1,0,0:0:0:0:
256,192,150160,1,8,0:0:0:0:
256,192,150385,1,0,0:0:0:0:
256,192,151287,12,0,152190,0:0:0:0:
256,192,153994,5,12,0:0:0:0:
256,192,155799,1,12,0:0:0:0:
256,192,156701,1,0,0:0:0:0:
256,192,157603,12,0,158957,0:0:0:0:
256,192,159408,5,4,0:0:0:0:
256,192,168431,5,4,0:0:0:0:
256,192,169333,1,0,0:0:0:0:
256,192,169784,1,0,0:0:0:0:
256,192,170235,1,8,0:0:0:0:
256,192,170686,1,0,0:0:0:0:
256,192,172040,1,8,0:0:0:0:
256,192,172942,1,0,0:0:0:0:
256,192,173393,1,0,0:0:0:0:
256,192,173844,1,8,0:0:0:0:
256,192,174295,1,0,0:0:0:0:
256,192,175649,1,0,0:0:0:0:
256,192,176100,1,0,0:0:0:0:
256,192,176551,1,0,0:0:0:0:
256,192,177453,1,0,0:0:0:0:
256,192,177904,1,8,0:0:0:0:
256,192,178355,1,0,0:0:0:0:
256,192,179258,1,0,0:0:0:0:
256,192,179709,1,0,0:0:0:0:
256,192,180160,1,8,0:0:0:0:
256,192,180611,1,8,0:0:0:0:
256,192,181062,1,4,0:0:0:0:
256,192,181964,1,4,0:0:0:0:
256,192,182867,1,8,0:0:0:0:
256,192,183205,1,8,0:0:0:0:
256,192,183543,1,0,0:0:0:0:
256,192,184671,5,0,0:0:0:0:
256,192,186475,1,0,0:0:0:0:
256,192,188280,1,8,0:0:0:0:
256,192,190084,1,8,0:0:0:0:
256,192,190986,1,8,0:0:0:0:
256,192,191437,1,8,0:0:0:0:
256,192,191889,1,0,0:0:0:0:
256,192,193693,1,0,0:0:0:0:
256,192,195498,1,8,0:0:0:0:
256,192,196400,1,8,0:0:0:0:
256,192,196851,1,8,0:0:0:0:
256,192,197302,5,0,0:0:0:0:
256,192,199106,5,4,0:0:0:0:
256,192,199331,1,0,0:0:0:0:
256,192,199557,1,0,0:0:0:0:
256,192,200008,1,8,0:0:0:0:
256,192,200459,1,8,0:0:0:0:
256,192,200910,1,0,0:0:0:0:
256,192,201136,1,0,0:0:0:0:
256,192,201361,1,0,0:0:0:0:
256,192,201812,1,8,0:0:0:0:
256,192,202263,1,8,0:0:0:0:
256,192,202715,1,0,0:0:0:0:
256,192,202940,1,0,0:0:0:0:
256,192,203166,1,8,0:0:0:0:
256,192,203617,1,8,0:0:0:0:
256,192,204068,1,0,0:0:0:0:
256,192,204519,1,8,0:0:0:0:
256,192,205421,1,8,0:0:0:0:
256,192,206324,5,4,0:0:0:0:
256,192,207226,1,8,0:0:0:0:
256,192,208128,1,0,0:0:0:0:
256,192,209030,1,8,0:0:0:0:
256,192,209933,1,4,0:0:0:0:
256,192,210384,1,0,0:0:0:0:
256,192,210835,1,0,0:0:0:0:
256,192,211286,1,0,0:0:0:0:
256,192,211512,1,8,0:0:0:0:
256,192,211737,1,0,0:0:0:0:
256,192,212639,12,0,213542,0:0:0:0:
256,192,214444,5,0,0:0:0:0:
256,192,215346,1,0,0:0:0:0:
256,192,216248,1,0,0:0:0:0:
256,192,217151,1,8,0:0:0:0:
256,192,218053,1,8,0:0:0:0:
256,192,218955,1,12,0:0:0:0:
256,192,219745,1,12,0:0:0:0:
