osu file format v14

[General]
AudioFilename: audio.mp3
AudioLeadIn: 0
PreviewTime: 55814
Countdown: 0
SampleSet: Soft
StackLeniency: 0.6
Mode: 0
LetterboxInBreaks: 0
WidescreenStoryboard: 0

[Editor]
Bookmarks: 50700
DistanceSpacing: 2
BeatDivisor: 4
GridSize: 4
TimelineZoom: 1.4

[Metadata]
Title:Third-Eye-a! (Short Ver.)
TitleUnicode:Third-Eye-a! (Short Ver.)
Artist:Coco, Shichijou Lettuce, Camellia
ArtistUnicode:Coco, Shichijou Lettuce, Camellia
Creator:Bakuenjin
Version:BEM BEM
Source:
Tags:loli bem
BeatmapID:1189892
BeatmapSetID:562819

[Difficulty]
HPDrainRate:6
CircleSize:4
OverallDifficulty:8.6
ApproachRate:9.2
SliderMultiplier:2
SliderTickRate:1

[Events]
//Background and Video events
//Break Periods
//Storyboard Layer 0 (Background)
//Storyboard Layer 1 (Fail)
//Storyboard Layer 2 (Pass)
//Storyboard Layer 3 (Foreground)
//Storyboard Sound Samples

[TimingPoints]
700.21281847235,344.827586206897,4,2,0,100,1,0
11045,-100,4,2,0,100,0,0
55872,-66.6666666666667,4,2,0,100,0,1
56562,-83.3333333333333,4,2,0,100,0,1
57251,-133.333333333333,4,2,0,100,0,1
59320,-83.3333333333333,4,2,0,100,0,1
60010,-133.333333333333,4,2,0,100,0,1
61389,-100,4,2,0,100,0,1
62079,-83.3333333333333,4,2,0,100,0,1
64838,-133.333333333333,4,2,0,100,0,1
66907,-66.6666666666667,4,2,0,100,0,1
67596,-83.3333333333333,4,2,0,100,0,1
68286,-133.333333333333,4,2,0,100,0,1
70355,-83.3333333333333,4,2,0,100,0,1
71045,-133.333333333333,4,2,0,100,0,1
72424,-100,4,2,0,100,0,1
73114,-83.3333333333333,4,2,0,100,0,1
75872,-133.333333333333,4,2,0,100,0,1
77941,-100,4,2,0,100,0,0

[HitObjects]
168,288,11045,5,0,0:0:0:0:
316,232,11217,1,0,0:0:0:0:
316,232,11303,1,0,0:0:0:0:
316,232,11389,1,0,0:0:0:0:
236,144,11562,1,0,0:0:0:0:
264,340,11734,6,0,B|399:328|399:328|454:263,1,200
452,160,12251,1,0,0:0:0:0:
252,240,12424,2,0,L|355:249,1,100
452,160,12769,2,0,L|348:150,1,100
160,200,13114,2,0,P|148:248|160:300,1,100
351,248,13458,2,0,P|363:200|351:148,1,100
252,24,13803,2,0,L|243:123,1,100
132,40,14148,1,0,0:0:0:0:
240,148,14320,1,0,0:0:0:0:
358,50,14493,6,0,L|366:149,1,100
248,247,14838,2,0,L|240:148,1,100
132,40,15182,2,0,L|119:197,1,150
127,289,15527,2,0,L|119:190,1,100
239,147,15872,1,0,0:0:0:0:
80,116,16045,1,0,0:0:0:0:
212,240,16217,1,0,0:0:0:0:
212,240,16389,1,0,0:0:0:0:
335,148,16562,2,0,P|287:136|235:148,1,100
115,238,16907,2,0,P|163:250|215:238,1,100
164,68,17251,5,0,0:0:0:0:
335,148,17424,1,0,0:0:0:0:
335,148,17510,1,0,0:0:0:0:
335,148,17596,2,0,L|330:199,1,50
316,288,17769,1,0,0:0:0:0:
428,148,17941,2,0,L|438:45,1,100
260,69,18286,2,0,P|212:57|160:69,1,100
212,200,18631,1,0,0:0:0:0:
344,108,18803,1,0,0:0:0:0:
148,144,18976,1,0,0:0:0:0:
148,144,19148,1,0,0:0:0:0:
264,308,19320,2,0,B|304:300|316:264|316:264|380:256|380:256|388:220|420:196,2,200
436,188,20355,5,0,0:0:0:0:
316,116,20527,1,0,0:0:0:0:
316,116,20614,1,0,0:0:0:0:
316,116,20700,2,0,L|311:167,1,50
224,148,20872,2,0,L|219:199,1,50
132,180,21045,2,0,L|127:231,1,50
40,212,21217,2,0,L|35:263,1,50
28,344,21389,1,0,0:0:0:0:
40,212,21734,6,0,B|48:136|48:136|96:108|96:108|104:32,2,200
272,328,22769,6,0,L|286:166,1,150
292,88,23114,1,0,0:0:0:0:
184,180,23286,1,0,0:0:0:0:
376,241,23458,2,0,L|436:236,1,50
512,144,23631,2,0,L|452:149,1,50
376,241,23803,2,0,L|371:191,1,50
465,277,23976,2,0,L|469:326,1,50
420,112,24148,6,0,P|372:100|320:112,1,100
376,240,24493,1,0,0:0:0:0:
376,240,24665,1,0,0:0:0:0:
226,108,24838,2,0,P|274:120|326:108,1,100
384,339,25182,2,0,L|375:239,1,100
226,108,25527,6,0,L|231:173,1,50
236,240,25700,1,0,0:0:0:0:
126,116,25872,2,0,L|226:107,1,100
384,88,26217,6,0,L|378:153,1,50
380,288,26389,2,0,L|374:222,1,50
458,112,26562,2,0,L|420:165,1,50
354,283,26734,2,0,L|381:223,1,50
510,169,26907,6,0,L|415:212,1,100
264,300,27251,1,0,0:0:0:0:
328,176,27424,1,0,0:0:0:0:
186,348,27596,6,0,P|175:300|188:252,1,100
328,176,27941,2,0,L|228:167,1,100
92,48,28286,6,0,L|156:42,1,50
64,132,28458,2,0,L|0:137,1,50
156,124,28631,1,0,0:0:0:0:
0,56,28803,1,0,0:0:0:0:
156,124,28976,2,0,L|151:173,1,50
141,271,29148,2,0,L|146:222,1,50
151,173,29320,2,0,L|146:222,1,50
136,320,29492,2,0,L|141:271,1,50
156,123,29665,6,0,P|204:111|256:123,1,100
360,240,30010,1,0,0:0:0:0:
360,240,30182,1,0,0:0:0:0:
146,221,30355,2,0,L|253:230,1,100
261,21,30700,2,0,L|251:128,1,100
232,320,31045,1,0,0:0:0:0:
232,320,31389,5,0,0:0:0:0:
140,216,31562,1,0,0:0:0:0:
140,216,31648,1,0,0:0:0:0:
140,216,31734,2,0,L|199:210,1,50
229,116,31907,2,0,L|180:112,1,50
262,204,32079,2,0,L|312:200,1,50
272,304,32251,2,0,L|222:299,1,50
122,290,32424,1,0,0:0:0:0:
371,311,32769,2,0,B|364:239|364:239|393:204|393:204|386:116,2,200
386,122,33803,6,0,L|274:131,1,100
216,276,34148,2,0,P|205:228|218:180,1,100
328,232,34493,1,0,0:0:0:0:
328,232,34665,1,0,0:0:0:0:
216,276,34838,2,0,L|104:266,1,100
160,356,35182,5,0,0:0:0:0:
216,276,35355,1,0,0:0:0:0:
116,134,35527,1,0,0:0:0:0:
216,276,35700,1,0,0:0:0:0:
116,267,35872,1,0,0:0:0:0:
268,192,36045,1,0,0:0:0:0:
268,192,36131,1,0,0:0:0:0:
268,192,36217,2,0,L|261:116,1,50
256,56,36389,1,0,0:0:0:0:
356,196,36562,6,0,B|376:241|376:241|370:305,1,100
427,167,36907,2,0,B|407:121|407:121|412:72,1,100
512,120,37251,1,0,0:0:0:0:
512,120,37424,1,0,0:0:0:0:
356,196,37596,2,0,P|308:207|260:194,1,100
312,84,37941,5,0,0:0:0:0:
192,96,38114,1,0,0:0:0:0:
356,196,38286,1,0,0:0:0:0:
192,96,38458,1,0,0:0:0:0:
142,205,38631,2,0,P|128:252|139:301,1,100
259,193,38976,1,0,0:0:0:0:
259,193,39148,1,0,0:0:0:0:
92,104,39320,6,0,L|191:95,1,100
346,244,39665,2,0,P|357:195|344:148,1,100
284,68,40010,1,0,0:0:0:0:
259,193,40182,1,0,0:0:0:0:
284,68,40355,2,0,L|383:76,1,100
423,240,40700,5,0,0:0:0:0:
423,240,40872,1,0,0:0:0:0:
383,76,41045,1,0,0:0:0:0:
423,240,41217,1,0,0:0:0:0:
259,193,41389,2,0,P|306:179|355:190,1,100
259,193,41734,2,0,P|211:206|162:195,1,100
92,52,42079,6,0,L|81:161,1,100
153,294,42424,2,0,L|163:187,1,100
64,350,42769,1,0,0:0:0:0:
240,316,42941,1,0,0:0:0:0:
28,252,43114,1,0,0:0:0:0:
162,194,43286,1,0,0:0:0:0:
239,315,43458,6,0,P|252:267|242:219,1,100
304,72,43803,2,0,P|291:119|301:168,1,100
436,48,44148,1,0,0:0:0:0:
304,72,44320,1,0,0:0:0:0:
472,136,44493,1,0,0:0:0:0:
364,20,44665,1,0,0:0:0:0:
401,176,44838,6,0,L|302:168,1,100
132,232,45182,2,0,P|179:244|228:234,1,100
192,36,45527,2,0,L|187:95,1,50
182,156,45700,1,0,0:0:0:0:
332,60,45872,1,0,0:0:0:0:
192,36,46045,1,0,0:0:0:0:
301,167,46217,6,0,L|310:279,1,100
332,60,46562,1,0,0:0:0:0:
301,167,46734,1,0,0:0:0:0:
431,51,46907,2,0,L|318:60,1,100
201,175,47251,2,0,L|313:165,1,100
116,224,47596,6,0,P|105:175|117:127,1,100
280,280,47941,2,0,P|231:290|183:278,1,100
244,92,48286,2,0,L|234:204,1,100
344,104,48631,1,0,0:0:0:0:
244,92,48803,1,0,0:0:0:0:
280,280,48976,5,0,0:0:0:0:
236,192,49148,1,0,0:0:0:0:
412,228,49320,1,0,0:0:0:0:
280,280,49493,1,0,0:0:0:0:
344,104,49665,2,0,L|334:216,1,100
420,327,50010,2,0,L|410:214,1,100
420,127,50269,1,0,0:0:0:0:
420,127,50355,6,0,L|415:191,1,50
500,252,50527,1,0,0:0:0:0:
500,252,50613,1,0,0:0:0:0:
500,252,50699,1,0,0:0:0:0:
335,203,50872,1,0,0:0:0:0:
335,203,50958,1,0,0:0:0:0:
335,203,51044,5,0,0:0:0:0:
384,356,51217,1,0,0:0:0:0:
384,356,51303,1,0,0:0:0:0:
384,356,51389,1,0,0:0:0:0:
420,127,51562,1,0,0:0:0:0:
420,127,51648,1,0,0:0:0:0:
420,127,51734,1,0,0:0:0:0:
272,264,51907,1,0,0:0:0:0:
272,264,51993,1,0,0:0:0:0:
272,264,52079,6,0,L|277:196,1,50
272,64,52251,2,0,L|277:131,1,50
180,231,52424,6,0,L|214:157,1,50
300,23,52596,2,0,L|253:89,1,50
139,259,52769,6,0,L|218:202,1,50
387,113,52941,2,0,L|298:153,1,50
129,133,53114,5,0,0:0:0:0:
132,175,53200,1,0,0:0:0:0:
135,217,53286,1,0,0:0:0:0:
139,259,53372,1,0,0:0:0:0:
143,301,53458,6,0,L|194:296,1,50
135,217,53631,2,0,L|83:212,1,50
129,133,53803,6,0,L|178:128,1,50
184,221,53976,2,0,L|135:217,1,50
93,305,54148,6,0,L|143:301,1,50
234,225,54320,2,0,L|184:220,1,50
79,137,54493,6,0,L|128:132,1,50
288,212,55527,5,0,0:0:0:0:
288,212,55872,2,0,B|352:248|432:236|432:236|338:81|208:27|208:27|201:106,1,525.000020027161
160,264,56562,2,0,L|151:172,1,59.9999981689454
203,92,56734,2,0,L|211:183,1,59.9999981689454
155,281,56907,2,0,L|146:171,1,59.9999981689454
207,74,57079,2,0,L|216:184,1,59.9999981689454
155,281,57251,6,0,P|209:292|263:278,1,112.500004291535
274,167,57596,2,0,L|264:278,1,112.500004291535
354,207,57941,2,0,L|363:95,1,112.500004291535
462,209,58286,2,0,P|407:220|354:206,1,112.500004291535
278,102,58631,2,0,P|190:102|282:154,1,262.500010013581
381,75,59320,6,0,L|472:67,1,59.9999981689454
512,236,59493,2,0,L|421:244,1,59.9999981689454
452,152,59665,2,0,L|511:157,1,59.9999981689454
440,324,59838,2,0,L|380:318,1,59.9999981689454
263,258,60010,2,0,L|380:247,1,112.500004291535
260,149,60355,2,0,P|248:203|262:257,1,112.500004291535
260,149,60700,2,0,B|174:155|174:155|145:189|145:189|33:199,1,225.000008583069
136,40,61389,5,0,0:0:0:0:
178,177,61562,2,0,L|183:245,1,50
192,328,61734,2,0,L|119:294,1,50
55,263,61906,2,0,L|110:223,1,50
260,124,62079,5,0,0:0:0:0:
192,328,62251,1,0,0:0:0:0:
266,103,62424,1,0,0:0:0:0:
185,348,62596,1,0,0:0:0:0:
316,224,62769,5,0,0:0:0:0:
112,292,62941,1,0,0:0:0:0:
336,218,63114,1,0,0:0:0:0:
92,299,63286,1,0,0:0:0:0:
180,140,63458,6,0,L|190:259,1,119.999996337891
372,341,63803,2,0,P|318:355|264:344,1,112.500004291535
180,140,64148,2,0,L|303:150,1,119.999996337891
419,160,64407,1,0,0:0:0:0:
419,160,64493,2,0,P|433:214|422:268,1,112.500004291535
276,264,64838,6,0,L|279:219,1,37.5000014305115
183,177,65010,2,0,L|179:136,1,37.5000014305115
289,114,65182,2,0,L|285:154,1,37.5000014305115
382,201,65354,2,0,L|387:265,1,37.5000014305115
391,313,65527,1,0,0:0:0:0:
174,65,65872,2,0,B|180:140|180:140|136:128|100:148,2,150.000005722046
149,244,66907,6,0,B|218:284|288:260|288:260|314:342|399:365|399:365|336:285|374:161,1,450.000017166138
404,57,67596,2,0,L|413:149,1,59.9999981689454
361,229,67768,2,0,L|353:138,1,59.9999981689454
409,40,67941,2,0,L|418:150,1,59.9999981689454
357,247,68113,2,0,L|348:137,1,59.9999981689454
296,30,68286,6,0,L|411:40,1,112.500004291535
488,120,68631,2,0,P|500:174|486:227,1,112.500004291535
410,147,68976,2,0,P|395:93|407:38,1,112.500004291535
485,228,69320,2,0,L|359:238,1,112.500004291535
240,249,69665,2,0,B|291:244|291:244|242:176|242:176|261:151|261:151|215:110|246:47,1,262.500010013581
370,81,70355,6,0,L|316:85,1,37.5000014305115
202,246,70527,2,0,L|255:250,1,37.5000014305115
335,121,70700,2,0,L|331:67,1,37.5000014305115
236,211,70872,2,0,L|240:265,1,37.5000014305115
335,121,71045,2,0,P|281:109|227:123,1,112.500004291535
140,192,71389,2,0,L|150:72,1,112.500004291535
54,187,71734,2,0,P|145:231|114:170,1,225.000008583069
40,344,72424,5,0,0:0:0:0:
54,187,72596,2,0,L|49:131,1,50
35,294,72769,2,0,L|39:343,1,50
49,137,72941,2,0,L|98:132,1,50
305,183,73114,5,0,0:0:0:0:
98,132,73286,1,0,0:0:0:0:
330,181,73459,1,0,0:0:0:0:
77,129,73631,1,0,0:0:0:0:
250,77,73804,5,0,0:0:0:0:
89,220,73976,1,0,0:0:0:0:
265,63,74149,1,0,0:0:0:0:
73,234,74321,1,0,0:0:0:0:
272,276,74493,6,0,P|325:290|380:278,1,112.500004291535
468,108,74838,2,0,L|458:227,1,119.999996337891
271,275,75182,2,0,P|259:220|274:167,1,112.500004291535
340,88,75441,1,0,0:0:0:0:
340,88,75527,2,0,L|214:77,1,119.999996337891
108,68,75872,6,0,L|113:131,1,37.5000014305115
68,212,76045,2,0,L|62:148,1,37.5000014305115
156,236,76217,2,0,L|150:299,1,37.5000014305115
91,370,76389,2,0,L|85:306,1,37.5000014305115
68,212,76562,1,0,0:0:0:0:
68,212,76907,2,0,B|140:162|140:162|220:169,2,150.000005722046
202,168,77941,6,0,B|317:178|317:178|264:101,1,200
202,11,78458,1,0,0:0:0:0:
202,168,78631,2,0,P|186:221|198:276,1,112.500004291535
377,112,78976,2,0,P|323:96|268:108,1,112.500004291535
385,211,79320,2,0,L|375:107,1,100
276,224,79665,2,0,L|285:327,1,100
164,232,80010,2,0,L|173:128,1,100
276,224,80355,1,0,0:0:0:0:
176,100,80527,1,0,0:0:0:0:
383,224,80700,6,0,P|328:237|275:223,1,112.500004291535
176,100,81045,2,0,P|230:86|283:100,1,112.500004291535
188,249,81389,2,0,L|175:92,1,150
183,0,81734,2,0,L|175:99,1,100
275,223,82079,1,0,0:0:0:0:
283,100,82251,1,0,0:0:0:0:
188,249,82424,1,0,0:0:0:0:
188,249,82596,1,0,0:0:0:0:
380,280,82769,2,0,P|393:225|379:172,1,112.500004291535
174,99,83114,2,0,P|227:84|281:98,1,112.500004291535
232,256,83458,5,0,0:0:0:0:
380,172,83631,1,0,0:0:0:0:
380,172,83717,1,0,0:0:0:0:
380,172,83803,2,0,L|373:251,1,50
366,321,83976,1,0,0:0:0:0:
280,163,84148,2,0,L|387:172,1,100
196,216,84493,2,0,P|181:163|195:109,1,112.500004291535
404,64,84838,1,0,0:0:0:0:
280,164,85010,1,0,0:0:0:0:
300,0,85182,1,0,0:0:0:0:
300,0,85355,1,0,0:0:0:0:
380,172,85527,2,0,B|368:303|368:303|283:267,2,200
380,172,86562,6,0,L|264:161,1,100
180,154,86820,1,0,0:0:0:0:
180,154,86907,2,0,P|165:207|180:261,1,112.500004291535
304,383,87251,2,0,P|319:330|304:276,1,112.500004291535
80,252,87596,2,0,L|191:261,1,100
243,184,87941,2,0,L|171:269,1,100
94,79,88286,2,0,L|184:272,1,200
178,260,88976,6,0,P|225:273|274:260,1,100
324,204,89234,1,0,0:0:0:0:
324,204,89320,2,0,L|333:311,1,100
424,184,89665,2,0,L|410:27,1,150
336,40,90010,2,0,L|272:45,1,50
260,140,90182,2,0,L|210:144,1,50
120,192,90355,6,0,P|107:144|120:96,1,100
260,140,90700,1,0,0:0:0:0:
260,140,90872,1,0,0:0:0:0:
128,291,91045,2,0,L|119:191,1,100
251,40,91389,2,0,L|259:139,1,100
264,348,91734,6,0,L|268:298,1,50
274,220,91907,1,0,0:0:0:0:
359,347,92079,2,0,P|311:360|263:347,1,100
401,209,92424,6,0,L|425:304,1,50
433,330,92596,1,0,0:0:0:0:
433,88,92769,2,0,L|408:183,1,50
401,209,92941,1,0,0:0:0:0:
337,88,93114,6,0,P|385:75|433:88,1,100
401,209,93458,1,0,0:0:0:0:
337,88,93631,1,0,0:0:0:0:
237,96,93803,6,0,L|340:86,1,100
401,209,94148,2,0,L|297:218,1,100
152,236,94493,6,0,L|147:184,1,50
241,145,94665,2,0,L|236:93,1,50
228,8,94838,1,0,0:0:0:0:
140,100,95010,1,0,0:0:0:0:
340,132,95182,2,0,B|397:150|401:209|401:209|340:273,1,150
292,212,95527,2,0,L|287:261,1,50
188,286,95699,2,0,L|183:335,1,50
340,132,95872,6,0,P|292:117|244:128,1,100
288,264,96217,1,0,0:0:0:0:
288,264,96389,1,0,0:0:0:0:
480,280,96562,2,0,L|376:270,1,100
144,137,96907,2,0,L|247:127,1,100
480,108,97251,1,0,0:0:0:0:
480,108,97596,5,0,0:0:0:0:
420,232,97769,1,0,0:0:0:0:
420,232,97855,1,0,0:0:0:0:
420,232,97941,2,0,L|414:182,1,50
484,58,98114,2,0,L|480:107,1,50
292,192,98286,2,0,L|342:188,1,50
410,49,98458,2,0,L|360:44,1,50
276,36,98631,1,0,0:0:0:0:
276,36,98976,2,0,B|244:48|224:80|224:80|172:28|172:28|136:32|81:21,2,200
276,36,100010,5,0,0:0:0:0:
