osu file format v14

[General]
AudioFilename: COALTAR OF THE DEEPERS - 06 - Aquarian Age.mp3
AudioLeadIn: 0
PreviewTime: 55953
Countdown: 1
SampleSet: Normal
StackLeniency: 0.7
Mode: 0
LetterboxInBreaks: 0
WidescreenStoryboard: 0

[Editor]
Bookmarks: 45474,45736,55851,67895,73674,90704,129351,135351
DistanceSpacing: 1.8
BeatDivisor: 4
GridSize: 8
TimelineZoom: 1

[Metadata]
Title:Aquarian Age
TitleUnicode:Aquarian Age
Artist:Coaltar of the Deepers
ArtistUnicode:Coaltar of the Deepers
Creator:Laque Of Spades
Version:Insane
Source:
Tags:
BeatmapID:1440816
BeatmapSetID:681437

[Difficulty]
HPDrainRate:7
CircleSize:4
OverallDifficulty:6
ApproachRate:8.5
SliderMultiplier:1.4
SliderTickRate:2

[Events]
//Background and Video events
0,0,"STOPLOOKINGPLEASE.jpg",0,0
//Break Periods
2,130288,135237
//Storyboard Layer 0 (Background)
//Storyboard Layer 1 (Fail)
//Storyboard Layer 2 (Pass)
//Storyboard Layer 3 (Foreground)
//Storyboard Sound Samples

[TimingPoints]
11854,352.941176470588,4,1,0,100,1,0

[Colours]
Combo1 : 0,0,128
Combo2 : 0,0,160
Combo3 : 37,185,239
Combo4 : 64,128,128
Combo5 : 128,128,192
Combo6 : 0,128,192

[HitObjects]
88,320,45559,5,8,0:0:0:0:
224,280,45735,2,0,L|264:272,2,35
104,208,46088,1,8,0:0:0:0:
208,136,46265,1,0,0:0:0:0:
80,88,46441,2,0,L|136:16,2,70
176,200,46970,2,0,L|216:264,2,70
296,152,47500,1,8,0:0:0:0:
392,232,47676,5,8,0:0:0:0:
408,88,47853,1,0,0:0:0:0:
264,64,48029,1,0,0:0:0:0:
144,112,48206,2,0,L|88:176,1,70
224,200,48559,1,0,0:0:0:0:
160,320,48735,1,8,0:0:0:0:
288,280,48912,2,0,L|336:360,2,70
400,200,49441,1,8,0:0:0:0:
296,120,49617,1,0,0:0:0:0:
424,80,49794,2,0,L|512:48,2,70
296,32,50323,2,0,L|256:0,2,35
344,160,50676,1,8,0:0:0:0:
240,240,50853,1,0,0:0:0:0:
144,152,51029,1,0,0:0:0:0:
88,272,51206,2,0,L|40:272,2,35
56,144,51559,6,0,L|8:56,1,70
152,64,51912,2,8,L|112:-8,1,70
248,32,52265,2,0,L|304:96,1,70
192,168,52617,1,8,0:0:0:0:
288,264,52794,1,0,0:0:0:0:
384,168,52970,1,0,0:0:0:0:
432,48,53147,1,8,0:0:0:0:
312,104,53323,1,0,0:0:0:0:
176,72,53500,2,0,L|136:32,2,35
144,200,53853,5,0,0:0:0:0:
40,112,54029,1,0,0:0:0:0:
56,248,54206,2,8,L|48:328,1,70
184,320,54559,1,0,0:0:0:0:
256,208,54735,1,0,0:0:0:0:
240,72,54912,2,8,L|312:32,1,70
384,144,55265,1,0,0:0:0:0:
352,280,55441,2,8,L|280:264,1,70
160,312,55794,1,0,0:0:0:0:
88,176,55970,1,8,0:0:0:0:
216,144,56147,6,2,L|304:176,2,70
288,248,56676,2,2,P|352:344|464:200,1,350
88,56,58970,2,2,P|88:120|160:144,1,140
256,112,59500,2,2,B|384:48|456:112|464:224|336:264|264:216,1,385
96,176,61441,1,0,0:0:0:0:
336,288,61794,1,0,0:0:0:0:
408,176,61970,1,0,0:0:0:0:
256,192,62323,12,2,67441,0:0:0:0:
88,208,68147,6,0,L|168:208,1,70
272,152,68500,1,8,0:0:0:0:
136,112,68676,1,0,0:0:0:0:
248,48,68853,1,0,0:0:0:0:
272,168,69029,1,8,0:0:0:0:
368,88,69206,1,0,0:0:0:0:
376,216,69382,1,0,0:0:0:0:
280,296,69559,2,0,L|264:344,2,35
152,296,69912,1,8,0:0:0:0:
56,216,70088,2,0,L|24:184,2,35
152,136,70441,1,8,0:0:0:0:
280,152,70617,1,0,0:0:0:0:
216,40,70794,1,0,0:0:0:0:
88,56,70970,6,0,L|32:104,1,70
88,216,71323,1,8,0:0:0:0:
192,296,71500,2,0,L|264:296,1,70
264,168,71853,1,8,0:0:0:0:
144,128,72029,1,0,0:0:0:0:
56,40,72206,1,0,0:0:0:0:
184,32,72382,2,0,L|272:56,1,70
376,48,72735,1,8,0:0:0:0:
416,168,72912,2,0,L|448:248,1,70
320,272,73265,2,0,L|256:248,2,35
280,152,73617,1,0,0:0:0:0:
160,184,73794,5,8,0:0:0:0:
176,56,73970,1,0,0:0:0:0:
312,48,74147,1,0,0:0:0:0:
368,160,74323,1,8,0:0:0:0:
264,232,74500,1,0,0:0:0:0:
360,312,74676,2,0,L|416:240,1,70
472,152,75029,1,8,0:0:0:0:
416,32,75206,2,0,L|328:32,1,70
232,96,75559,1,8,0:0:0:0:
352,144,75735,2,0,L|384:208,1,70
256,224,76088,1,8,0:0:0:0:
128,208,76265,1,0,0:0:0:0:
80,88,76441,1,0,0:0:0:0:
200,48,76617,6,0,L|280:72,1,70
368,144,76970,1,8,0:0:0:0:
264,216,77147,2,0,L|200:272,1,70
328,312,77500,2,0,L|280:320,2,35
456,328,77853,1,8,0:0:0:0:
456,200,78029,1,0,0:0:0:0:
376,104,78206,2,0,L|296:40,1,70
192,56,78559,1,0,0:0:0:0:
136,168,78735,1,0,0:0:0:0:
264,168,78912,1,0,0:0:0:0:
272,296,79088,2,8,L|368:296,1,70
424,200,79441,6,0,L|344:200,1,70
448,112,79794,1,8,0:0:0:0:
336,56,79970,1,0,0:0:0:0:
208,40,80147,1,0,0:0:0:0:
208,168,80323,1,8,0:0:0:0:
96,120,80500,1,0,0:0:0:0:
80,248,80676,1,0,0:0:0:0:
184,320,80853,2,0,L|144:296,2,35
304,280,81206,1,8,0:0:0:0:
424,232,81382,2,0,L|456:200,2,35
328,144,81735,1,8,0:0:0:0:
200,136,81912,1,0,0:0:0:0:
288,48,82088,1,0,0:0:0:0:
416,64,82265,6,0,L|472:112,1,70
456,232,82617,1,8,0:0:0:0:
344,296,82794,2,0,L|272:296,1,70
216,184,83147,1,8,0:0:0:0:
344,168,83323,1,0,0:0:0:0:
408,64,83500,1,0,0:0:0:0:
280,56,83676,2,0,L|192:80,1,70
88,56,84029,1,8,0:0:0:0:
88,184,84206,2,0,L|160:240,1,70
248,296,84559,2,0,L|312:272,2,35
232,168,84912,1,0,0:0:0:0:
288,72,85088,5,8,0:0:0:0:
416,80,85265,1,0,0:0:0:0:
352,192,85441,1,0,0:0:0:0:
480,184,85617,1,8,0:0:0:0:
416,296,85794,1,0,0:0:0:0:
320,344,85970,2,0,L|232:344,1,70
264,216,86323,1,8,0:0:0:0:
152,152,86500,2,0,L|184:80,1,70
64,40,86853,1,8,0:0:0:0:
72,168,87029,2,0,L|-8:144,1,70
40,272,87382,1,8,0:0:0:0:
144,200,87559,1,0,0:0:0:0:
216,304,87735,1,0,0:0:0:0:
344,304,87912,6,0,L|424:248,1,70
440,144,88265,1,8,0:0:0:0:
312,144,88441,2,0,L|264:56,1,70
184,168,88794,2,0,L|232:176,2,35
136,280,89147,1,8,0:0:0:0:
64,176,89323,1,0,0:0:0:0:
136,72,89500,2,0,L|216:8,1,70
232,152,89853,1,0,0:0:0:0:
352,112,90029,1,0,0:0:0:0:
360,240,90206,1,0,0:0:0:0:
256,312,90382,2,8,L|160:312,1,70
128,208,90735,5,0,0:0:0:0:
192,96,90912,2,0,L|216:136,2,35
304,160,91265,1,8,0:0:0:0:
432,168,91441,1,0,0:0:0:0:
392,288,91617,1,0,0:0:0:0:
272,328,91794,2,0,L|208:288,1,70
104,232,92147,1,8,0:0:0:0:
32,112,92323,2,0,L|0:192,1,70
120,120,92676,1,8,0:0:0:0:
224,184,92853,2,0,L|200:104,1,70
328,128,93206,1,8,0:0:0:0:
360,248,93382,1,0,0:0:0:0:
256,320,93559,6,8,L|336:344,1,70
448,320,93912,1,0,0:0:0:0:
464,192,94088,2,8,L|488:112,1,70
360,112,94441,2,0,L|320:24,1,70
240,136,94794,1,8,0:0:0:0:
312,248,94970,2,8,L|360:184,1,70
472,144,95323,1,0,0:0:0:0:
368,72,95500,2,8,L|272:72,1,70
176,32,95853,2,8,L|88:32,1,70
168,136,96206,1,8,0:0:0:0:
256,224,96382,6,0,L|256:272,2,35
416,160,96559,1,8,0:0:0:0:
328,64,96735,1,8,0:0:0:0:
200,64,96912,1,0,0:0:0:0:
72,64,97088,1,0,0:0:0:0:
104,184,97265,2,8,L|136:120,1,70
256,144,97617,1,0,0:0:0:0:
256,272,97794,1,0,0:0:0:0:
384,272,97970,1,8,0:0:0:0:
448,160,98147,1,0,0:0:0:0:
384,56,98323,2,8,L|288:72,1,70
264,176,98676,1,0,0:0:0:0:
152,232,98853,1,0,0:0:0:0:
96,344,99029,1,8,0:0:0:0:
48,224,99206,6,8,L|72:128,1,70
176,88,99559,1,0,0:0:0:0:
296,136,99735,2,8,L|232:208,1,70
296,304,100088,1,0,0:0:0:0:
168,304,100265,2,0,L|96:304,1,70
136,184,100617,1,8,0:0:0:0:
200,80,100794,1,0,0:0:0:0:
227,58,100882,1,0,0:0:0:0:
259,45,100970,1,0,0:0:0:0:
294,41,101059,1,0,0:0:0:0:
328,46,101147,1,0,0:0:0:0:
360,60,101235,1,0,0:0:0:0:
387,83,101323,1,0,0:0:0:0:
406,112,101412,1,0,0:0:0:0:
417,145,101500,1,0,0:0:0:0:
419,180,101588,1,0,0:0:0:0:
411,214,101676,1,0,0:0:0:0:
394,244,101765,1,0,0:0:0:0:
376,272,101853,1,0,0:0:0:0:
248,288,102029,5,8,0:0:0:0:
288,160,102206,2,0,L|208:160,1,70
280,48,102559,1,8,0:0:0:0:
152,48,102735,1,0,0:0:0:0:
152,176,102912,1,0,0:0:0:0:
96,288,103088,1,8,0:0:0:0:
224,272,103265,1,0,0:0:0:0:
288,160,103441,1,0,0:0:0:0:
400,224,103617,2,0,L|360:248,2,35
320,320,103970,1,8,0:0:0:0:
448,312,104147,2,0,L|480:344,2,35
384,200,104500,1,8,0:0:0:0:
296,112,104676,1,0,0:0:0:0:
272,232,104853,1,0,0:0:0:0:
160,184,105029,6,0,L|216:136,1,70
96,104,105382,1,8,0:0:0:0:
200,32,105559,2,0,L|128:32,1,70
208,128,105912,1,8,0:0:0:0:
296,40,106088,1,0,0:0:0:0:
384,128,106265,1,0,0:0:0:0:
288,208,106441,2,0,L|288:304,1,70
176,328,106794,1,8,0:0:0:0:
160,200,106970,2,0,L|128:264,1,70
32,344,107323,2,0,L|96:368,2,35
24,216,107676,1,0,0:0:0:0:
136,152,107853,5,8,0:0:0:0:
256,128,108029,1,0,0:0:0:0:
352,48,108206,1,0,0:0:0:0:
424,152,108382,1,8,0:0:0:0:
320,224,108559,1,0,0:0:0:0:
216,288,108735,2,0,L|128:288,1,70
232,192,109088,1,8,0:0:0:0:
360,168,109265,2,0,L|392:240,1,70
368,360,109617,1,8,0:0:0:0:
296,256,109794,2,0,L|216:280,1,70
104,256,110147,1,8,0:0:0:0:
168,152,110323,1,0,0:0:0:0:
280,104,110500,1,0,0:0:0:0:
392,56,110676,6,0,L|312:32,1,70
392,144,111029,1,8,0:0:0:0:
408,272,111206,2,0,L|328:224,1,70
248,160,111559,2,0,L|296:152,2,35
200,48,111912,1,8,0:0:0:0:
96,120,112088,1,0,0:0:0:0:
120,240,112265,2,8,L|120:304,6,35
232,304,112970,1,0,0:0:0:0:
320,208,113147,2,8,L|320:112,1,70
312,8,113500,6,0,L|392:8,1,70
456,112,113853,1,8,0:0:0:0:
456,240,114029,1,0,0:0:0:0:
360,160,114206,1,0,0:0:0:0:
264,240,114382,1,8,0:0:0:0:
168,160,114559,1,0,0:0:0:0:
72,240,114735,1,0,0:0:0:0:
56,112,114912,2,0,L|96:136,2,35
160,40,115265,1,8,0:0:0:0:
288,56,115441,2,0,L|256:88,2,35
392,128,115794,1,8,0:0:0:0:
296,208,115970,1,0,0:0:0:0:
240,320,116147,1,0,0:0:0:0:
120,296,116323,6,0,L|64:248,1,70
64,128,116676,1,8,0:0:0:0:
184,96,116853,2,0,L|256:96,1,70
272,224,117206,1,8,0:0:0:0:
144,216,117382,1,0,0:0:0:0:
96,336,117559,1,0,0:0:0:0:
224,336,117735,6,0,L|312:312,1,70
376,224,118088,1,8,0:0:0:0:
424,104,118265,2,0,L|456:168,1,70
328,144,118617,2,0,L|264:168,2,35
280,264,118970,1,0,0:0:0:0:
160,232,119147,5,8,0:0:0:0:
120,88,119323,1,0,0:0:0:0:
216,168,119500,1,0,0:0:0:0:
312,88,119676,1,8,0:0:0:0:
312,216,119853,1,0,0:0:0:0:
424,280,120029,2,0,L|512:280,1,70
464,152,120382,1,8,0:0:0:0:
448,24,120559,2,0,L|416:96,1,70
352,192,120912,1,8,0:0:0:0:
240,80,121088,2,0,L|320:104,1,70
240,208,121441,1,8,0:0:0:0:
120,176,121617,1,0,0:0:0:0:
152,296,121794,1,0,0:0:0:0:
272,344,121970,6,0,L|352:320,1,70
368,200,122323,1,8,0:0:0:0:
448,104,122500,2,0,L|384:48,1,70
272,72,122853,2,0,L|224:64,2,35
200,176,123206,1,8,0:0:0:0:
224,304,123382,1,0,0:0:0:0:
96,288,123559,2,0,L|16:352,1,70
168,352,123912,1,0,0:0:0:0:
168,224,124088,1,0,0:0:0:0:
296,224,124265,1,0,0:0:0:0:
424,224,124441,2,8,L|480:144,1,70
352,112,124794,5,0,0:0:0:0:
232,80,124970,2,0,L|208:40,2,35
120,144,125323,1,8,0:0:0:0:
168,264,125500,1,0,0:0:0:0:
256,176,125676,1,0,0:0:0:0:
240,48,125853,2,0,L|304:88,1,70
424,64,126206,1,8,0:0:0:0:
432,192,126382,2,0,L|472:272,1,70
360,328,126735,1,8,0:0:0:0:
264,248,126912,2,0,L|224:160,1,70
312,88,127265,1,8,0:0:0:0:
200,32,127441,1,0,0:0:0:0:
72,136,127617,6,8,L|-8:112,1,70
96,24,127970,1,0,0:0:0:0:
176,120,128147,2,8,L|208:200,1,70
312,120,128500,2,0,L|352:208,1,70
464,184,128853,1,8,0:0:0:0:
384,280,129029,2,8,L|336:344,1,70
272,232,129382,1,0,0:0:0:0:
176,312,129559,2,8,L|272:312,1,70
144,232,129912,2,8,L|112:144,1,70
392,152,135912,6,2,P|336:312|176:176,1,420
256,112,137147,1,2,0:0:0:0:
128,96,137323,2,2,P|152:272|264:216,1,350
144,184,138382,1,2,0:0:0:0:
232,96,138559,2,2,P|392:160|320:360,1,420
328,232,139794,1,2,0:0:0:0:
200,232,139970,1,2,0:0:0:0:
112,144,140147,2,2,B|-8:176|120:256|104:344,1,210
232,320,140853,1,2,0:0:0:0:
360,320,141029,1,2,0:0:0:0:
264,240,141206,1,2,0:0:0:0:
392,248,141382,1,2,0:0:0:0:
296,168,141559,2,2,P|256:32|40:120,1,420
128,200,142794,2,2,P|224:248|112:304,1,280
40,216,143676,1,2,0:0:0:0:
40,88,143853,1,2,0:0:0:0:
144,152,144029,1,2,0:0:0:0:
248,88,144206,1,2,0:0:0:0:
248,216,144382,2,2,P|288:360|440:216,1,420
336,184,145617,2,2,B|408:152|400:104|400:104|136:48,1,350
88,192,146676,1,2,0:0:0:0:
88,320,146853,1,2,0:0:0:0:
192,256,147029,1,2,0:0:0:0:
320,256,147206,6,2,P|320:96|104:112,1,420
104,232,148441,1,2,0:0:0:0:
232,240,148617,2,2,P|384:320|416:192,1,350
336,104,149676,1,2,0:0:0:0:
216,144,149853,2,2,P|32:128|168:288,1,490
264,248,151265,1,2,0:0:0:0:
320,136,151441,2,2,P|432:216|416:352,1,280
296,320,152323,1,2,0:0:0:0:
296,192,152500,1,2,0:0:0:0:
192,256,152676,1,2,0:0:0:0:
120,320,152853,2,2,P|16:176|192:72,1,420
312,72,154088,2,2,B|464:184|296:320|296:320|216:224,1,420
112,232,155323,1,2,0:0:0:0:
112,104,155500,1,2,0:0:0:0:
280,104,155683,2,2,P|280:184|336:64,1,420
232,48,156912,2,0,P|96:120|272:296,1,490
