osu file format v14

[General]
AudioFilename: audio.mp3
AudioLeadIn: 0
PreviewTime: 65316
Countdown: 0
SampleSet: Soft
StackLeniency: 0.7
Mode: 2
LetterboxInBreaks: 0
WidescreenStoryboard: 0

[Editor]
DistanceSpacing: 1.6
BeatDivisor: 4
GridSize: 8
TimelineZoom: 1

[Metadata]
Title:Nanairo Symphony -TV Size-
TitleUnicode:七色シンフォニー -TV Size-
Artist:Coalamode.
ArtistUnicode:コアラモード.
Creator:Ascendance
Version:Platter
Source:四月は君の嘘
Tags:shigatsu wa kimi no uso your lie in april opening arusamour tenshichan [superstar]
BeatmapID:1043429
BeatmapSetID:488149

[Difficulty]
HPDrainRate:5
CircleSize:3.5
OverallDifficulty:8
ApproachRate:8
SliderMultiplier:1.92
SliderTickRate:2

[Events]
//Background and Video events
Video,500,"forty.avi"
0,0,"cropped-1366-768-647733.jpg",0,0
//Break Periods
//Storyboard Layer 0 (Background)
//Storyboard Layer 1 (Fail)
//Storyboard Layer 2 (Pass)
//Storyboard Layer 3 (Foreground)
//Storyboard Sound Samples

[TimingPoints]
1155,387.096774193548,4,2,1,50,1,0
1155,-133.333333333333,4,2,1,50,0,0
15284,-100,4,2,1,60,0,0
16638,-133.333333333333,4,2,1,50,0,0
41413,-100,4,2,1,60,0,0
59993,-100,4,2,1,65,0,0
66187,-100,4,2,1,70,0,1
87284,-100,4,2,1,60,0,1
87864,-100,4,2,1,70,0,0
87961,-100,4,2,1,50,0,0
88638,-100,4,2,1,30,0,0
89413,-100,4,2,1,10,0,0
89800,-100,4,2,1,5,0,0

[Colours]
Combo1 : 255,128,64
Combo2 : 0,128,255
Combo3 : 255,128,192
Combo4 : 0,128,192

[HitObjects]
256,192,1155,6,0,L|416:192,1,144.000005493164,2|0,0:0|0:0,0:0:0:0:
208,192,1735,2,0,L|56:192,2,144.000005493164,2|0|2,0:0|0:0|0:0,0:0:0:0:
376,192,2896,2,0,L|456:192,1,72.0000027465821,0|0,0:0|0:0,0:0:0:0:
184,80,3284,6,0,P|128:128|208:240,1,216.000008239746,2|0,0:0|0:0,0:0:0:0:
296,272,4058,2,0,L|64:272,1,216.000008239746,2|0,0:0|0:0,0:0:0:0:
184,208,5025,2,0,L|296:208,2,108.000004119873,2|0|0,0:0|0:0|0:0,0:0:0:0:
24,208,5800,6,0,L|120:208,1,72.0000027465821,2|2,0:0|0:0,0:0:0:0:
364,208,6187,1,2,0:0:0:0:
256,208,6574,2,0,L|384:208,1,108.000004119873,0|0,0:0|0:0,0:0:0:0:
464,208,7154,1,0,0:0:0:0:
296,112,7348,6,0,P|256:96|136:128,1,144.000005493164,2|0,0:0|0:0,0:0:0:0:
344,256,8122,2,0,P|400:272|504:248,1,144.000005493164,2|0,0:0|0:0,0:0:0:0:
280,176,8896,6,0,L|128:168,1,144.000005493164,2|0,0:0|0:0,0:0:0:0:
240,136,9477,2,0,L|408:112,1,144.000005493164,2|0,0:0|0:0,0:0:0:0:
488,96,10058,1,0,0:0:0:0:
288,56,10445,6,0,P|232:40|136:64,1,144.000005493164,2|0,0:0|0:0,0:0:0:0:
304,152,11219,2,0,P|384:168|456:136,1,144.000005493164,2|0,0:0|0:0,0:0:0:0:
208,240,11993,6,0,L|64:240,1,144.000005493164,2|0,0:0|0:0,0:0:0:0:
168,200,12574,2,0,L|344:200,1,144.000005493164,0|0,0:0|0:0,0:0:0:0:
416,200,13154,1,0,0:0:0:0:
224,64,13542,6,0,P|160:120|240:192,1,216.000008239746,2|2,0:0|0:0,0:0:0:0:
344,192,14316,2,0,L|208:192,2,108.000004119873,2|0|0,0:0|0:0|0:0,0:0:0:0:
496,192,15284,1,0,0:0:0:0:
224,192,15477,2,0,L|112:192,1,96,12|0,0:0|0:0,0:0:0:0:
296,120,15864,2,0,L|488:120,1,192,6|0,0:0|0:0,0:0:0:0:
416,120,16445,1,0,0:0:0:0:
160,272,16638,6,0,L|136:176,1,72.0000027465821,6|0,0:0|0:0,0:0:0:0:
272,208,17025,2,0,L|288:112,1,72.0000027465821,0|2,0:0|0:0,0:0:0:0:
160,104,17413,2,0,L|80:104,1,72.0000027465821
8,184,17800,2,0,L|88:184,1,72.0000027465821,0|0,0:0|0:0,0:0:0:0:
272,184,18187,6,0,L|352:184,1,72.0000027465821,2|0,0:0|0:0,0:0:0:0:
232,104,18574,2,0,L|152:104,1,72.0000027465821,0|2,0:0|0:0,0:0:0:0:
320,104,18961,1,0,0:0:0:0:
370,152,19154,1,0,0:0:0:0:
368,222,19348,1,0,0:0:0:0:
315,269,19541,1,0,0:0:0:0:
128,312,19735,6,0,L|-16:208,1,144.000005493164,2|0,0:0|0:0,0:0:0:0:
136,184,20316,2,0,P|176:136|120:72,1,144.000005493164,2|0,0:0|0:0,0:0:0:0:
32,56,20896,1,0,0:0:0:0:
160,16,21090,1,0,0:0:0:0:
288,72,21284,6,0,L|200:72,1,72.0000027465821,2|2,0:0|0:0,0:0:0:0:
352,72,21671,1,0,0:0:0:0:
256,144,21864,2,0,L|424:144,1,144.000005493164,2|0,0:0|0:0,0:0:0:0:
496,144,22445,2,0,L|408:144,1,72.0000027465821,0|0,0:0|0:0,0:0:0:0:
256,184,22832,6,0,L|360:184,1,72.0000027465821,2|0,0:0|0:0,0:0:0:0:
224,96,23219,2,0,L|144:96,1,72.0000027465821,0|2,0:0|0:0,0:0:0:0:
296,184,23606,2,0,L|312:264,1,72.0000027465821,0|0,0:0|0:0,0:0:0:0:
200,192,23993,2,0,L|176:96,1,72.0000027465821,0|0,0:0|0:0,0:0:0:0:
352,104,24380,5,2,0:0:0:0:
420,84,24573,1,0,0:0:0:0:
490,98,24767,1,0,0:0:0:0:
420,84,24961,1,2,0:0:0:0:
272,144,25154,6,0,L|192:160,1,72.0000027465821,0|0,0:0|0:0,0:0:0:0:
328,224,25542,2,0,L|328:304,1,72.0000027465821,0|0,0:0|0:0,0:0:0:0:
176,224,25929,6,0,P|224:240|336:216,1,144.000005493164,2|0,0:0|0:0,0:0:0:0:
176,136,26509,2,0,P|112:112|32:136,1,144.000005493164,2|0,0:0|0:0,0:0:0:0:
216,48,27090,2,0,L|296:48,1,72.0000027465821
144,48,27477,5,2,0:0:0:0:
320,48,27671,2,0,L|392:48,1,72.0000027465821,2|0,0:0|0:0,0:0:0:0:
208,224,28058,2,0,L|48:224,1,144.000005493164,2|0,0:0|0:0,0:0:0:0:
152,160,28638,2,0,L|72:160,1,72.0000027465821,0|0,0:0|0:0,0:0:0:0:
416,72,29025,6,0,L|440:144,2,72.0000027465821,6|0|0,0:0|0:0|0:0,0:0:0:0:
296,160,29606,2,0,L|272:232,2,72.0000027465821,2|0|0,0:0|0:0|0:0,0:0:0:0:
176,64,30187,6,0,L|195:134,2,72.0000027465821,2|0|0,0:0|0:0|0:0,0:0:0:0:
56,192,30767,2,0,L|32:272,2,72.0000027465821,2|0|0,0:0|0:0|0:0,0:0:0:0:
176,192,31348,2,0,L|288:192,1,96.0000036621095,2|0,0:0|0:0,0:0:0:0:
176,192,31929,1,0,0:0:0:0:
352,288,32122,6,0,P|400:240|392:144,1,144.000005493164,2|0,0:0|0:0,0:0:0:0:
208,128,32703,2,0,P|248:104|360:144,1,144.000005493164,2|0,0:0|0:0,0:0:0:0:
232,208,33284,2,0,L|128:208,1,72.0000027465821,0|0,0:0|0:0,0:0:0:0:
304,280,33671,6,0,L|392:280,1,72.0000027465821,2|2,0:0|0:0,0:0:0:0:
248,208,34058,1,0,0:0:0:0:
424,120,34251,2,0,L|256:120,1,144.000005493164,2|0,0:0|0:0,0:0:0:0:
192,120,34832,2,0,L|280:120,1,72.0000027465821,0|0,0:0|0:0,0:0:0:0:
128,208,35219,6,0,L|32:208,1,72.0000027465821,2|0,0:0|0:0,0:0:0:0:
192,120,35606,1,0,0:0:0:0:
230,179,35799,1,2,0:0:0:0:
225,249,35993,1,0,0:0:0:0:
178,302,36186,1,0,0:0:0:0:
320,320,36380,2,0,L|408:320,1,72.0000027465821,2|0,0:0|0:0,0:0:0:0:
232,240,36767,6,0,L|144:240,1,72.0000027465821,2|0,0:0|0:0,0:0:0:0:
24,144,37154,2,0,L|120:144,1,72.0000027465821
232,144,37542,2,0,L|152:144,1,72.0000027465821,2|0,0:0|0:0,0:0:0:0:
304,72,37929,2,0,L|392:72,1,72.0000027465821,2|0,0:0|0:0,0:0:0:0:
200,256,38316,6,0,P|144:272|40:248,1,144.000005493164,2|0,0:0|0:0,0:0:0:0:
216,152,38896,2,0,P|272:128|368:168,1,144.000005493164,2|0,0:0|0:0,0:0:0:0:
496,232,39477,6,0,L|416:232,1,72.0000027465821,0|0,0:0|0:0,0:0:0:0:
144,232,39864,2,0,L|72:232,2,72.0000027465821,2|8|8,0:0|0:3|0:3,0:0:0:0:
416,232,40445,1,4,0:1:0:0:
272,232,40832,2,0,L|360:232,1,72.0000027465821,0|8,0:0|0:3,0:0:0:0:
440,232,41219,1,0,0:0:0:0:
96,80,41413,6,0,P|64:128|128:240,1,192,6|0,0:0|0:0,0:0:0:0:
240,240,41993,1,0,0:0:0:0:
96,160,42187,2,0,P|192:128|288:160,1,192,2|8,0:0|0:0,0:0:0:0:
384,200,42767,1,0,0:0:0:0:
240,240,42961,6,0,L|88:240,1,144,2|0,0:0|0:0,0:0:0:0:
280,160,43542,2,0,L|480:160,1,192,6|0,0:0|0:0,0:0:0:0:
376,160,44122,1,8,0:3:0:0:
24,120,44509,6,0,P|80:96|216:128,1,192,2|0,0:0|0:0,0:0:0:0:
312,176,45090,1,0,0:0:0:0:
160,240,45284,2,0,P|120:152|168:56,1,192,2|8,0:0|0:0,0:0:0:0:
312,72,45864,1,0,0:0:0:0:
168,152,46058,6,0,L|336:152,1,144,2|0,0:0|0:0,0:0:0:0:
232,88,46638,2,0,L|432:88,1,192,6|0,0:0|0:0,0:0:0:0:
304,88,47219,2,0,L|192:88,1,96,8|0,0:3|0:0,0:0:0:0:
472,304,47606,6,0,P|504:264|448:144,1,192,2|0,0:0|0:0,0:0:0:0:
352,104,48187,1,0,0:0:0:0:
192,192,48380,2,0,P|240:208|392:184,1,192,2|8,0:0|0:0,0:0:0:0:
280,120,48961,1,0,0:0:0:0:
112,152,49154,6,0,L|80:248,1,96,2|0,0:0|0:0,0:0:0:0:
192,240,49542,2,0,L|208:336,1,96,0|0,0:0|0:0,0:0:0:0:
80,240,49929,1,2,0:0:0:0:
19,170,50122,1,0,0:0:0:0:
41,80,50316,1,10,0:0:0:0:
127,46,50509,1,0,0:0:0:0:
304,72,50703,6,0,L|408:88,1,96,2|0,0:0|0:0,0:0:0:0:
272,160,51090,2,0,L|240:264,1,96,0|0,0:0|0:0,0:0:0:0:
368,256,51477,2,0,P|424:232|368:120,1,192,2|8,0:0|0:0,0:0:0:0:
288,96,52058,1,0,0:0:0:0:
32,200,52251,6,0,P|80:120|200:112,1,192,2|0,0:0|0:0,0:0:0:0:
104,264,52832,1,2,0:0:0:0:
216,304,53025,2,0,L|320:304,1,96,2|0,0:0|0:0,0:0:0:0:
104,184,53413,1,8,0:0:0:0:
88,112,53509,1,0,0:0:0:0:
72,40,53606,1,8,0:3:0:0:
392,104,53800,6,0,P|448:160|376:248,1,192,6|0,0:0|0:0,0:0:0:0:
312,256,54380,1,0,0:0:0:0:
168,176,54574,2,0,L|384:176,1,192,2|8,0:0|0:0,0:0:0:0:
504,176,55154,1,0,0:0:0:0:
320,120,55348,6,0,L|496:120,1,144,2|0,0:0|0:0,0:0:0:0:
272,56,55929,2,0,L|80:56,1,192,6|0,0:0|0:0,0:0:0:0:
0,56,56509,1,8,0:3:0:0:
120,56,56703,1,0,0:0:0:0:
376,56,56896,6,0,P|424:120|368:224,1,192,2|0,0:0|0:0,0:0:0:0:
256,248,57477,1,0,0:0:0:0:
96,184,57671,2,0,L|248:184,2,144,2|0|0,0:0|0:0|0:0,0:0:0:0:
248,112,58445,6,0,L|456:112,1,192,2|0,0:0|0:0,0:0:0:0:
344,112,59025,1,0,0:0:0:0:
200,200,59219,2,0,L|-8:200,1,192,4|8,0:0|0:3,0:0:0:0:
136,200,59800,1,0,0:0:0:0:
416,208,59993,6,0,L|456:112,1,96,6|0,0:0|0:0,0:0:0:0:
296,192,60380,2,0,L|320:288,1,96
192,256,60767,1,2,0:0:0:0:
259,192,60960,1,0,0:0:0:0:
247,100,61154,1,8,0:0:0:0:
166,55,61347,1,0,0:0:0:0:
16,104,61542,6,0,L|40:216,1,96,2|0,0:0|0:0,0:0:0:0:
200,224,61929,2,0,L|168:320,1,96
16,192,62316,2,0,L|128:192,1,96,2|0,0:0|0:0,0:0:0:0:
240,192,62703,2,0,L|136:192,1,96,8|0,0:0|0:0,0:0:0:0:
416,200,63090,6,0,P|464:160|416:56,1,192,2|8,0:0|0:0,0:0:0:0:
320,48,63671,1,0,0:0:0:0:
24,96,63864,2,0,L|168:16,2,144,6|2|2,0:0|0:0|0:0,0:0:0:0:
352,96,64638,2,0,L|488:96,1,96,8|8,0:0|0:0,0:0:0:0:
136,96,65025,1,8,0:0:0:0:
368,176,65413,6,0,L|368:264,2,48,8|0|0,0:0|0:0|0:0,0:0:0:0:
168,296,65800,2,0,L|168:240,2,48,8|0|8,0:0|0:0|0:3,0:0:0:0:
480,248,66187,6,0,L|440:152,1,96,12|0,0:0|0:0,0:0:0:0:
296,144,66574,2,0,L|392:72,1,96,8|0,0:0|0:0,0:0:0:0:
224,64,66961,2,0,L|120:64,1,96,8|0,0:0|0:0,0:0:0:0:
280,168,67348,2,0,L|384:168,1,96,8|0,0:0|0:0,0:0:0:0:
24,256,67735,6,0,P|80:264|192:184,1,192,8|8,0:0|0:0,0:0:0:0:
384,160,68316,2,0,P|320:136|200:160,1,192,0|0,0:0|0:0,0:0:0:0:
328,224,68896,2,0,L|432:224,1,96,8|0,0:0|0:0,0:0:0:0:
80,320,69284,6,0,L|56:224,1,96,8|0,0:0|0:0,0:0:0:0:
208,248,69671,2,0,L|208:144,1,96,8|0,0:0|0:0,0:0:0:0:
80,120,70058,2,0,L|80:16,1,96,8|0,0:0|0:0,0:0:0:0:
216,56,70445,2,0,L|112:56,1,96,8|0,0:0|0:0,0:0:0:0:
424,128,70832,6,0,P|464:192|400:280,1,192,8|8,0:0|0:0,0:0:0:0:
256,336,71413,2,0,P|216:280|272:176,1,192,0|0,0:0|0:0,0:0:0:0:
384,176,71993,1,8,0:0:0:0:
432,176,72089,1,0,0:0:0:0:
480,176,72186,1,8,0:3:0:0:
184,96,72380,6,0,L|80:96,1,96,12|0,0:0|0:0,0:0:0:0:
240,192,72767,2,0,L|240:288,1,96,8|0,0:0|0:0,0:0:0:0:
104,184,73154,2,0,L|240:184,1,96,8|0,0:0|0:0,0:0:0:0:
320,184,73542,2,0,L|432:184,1,96,8|0,0:0|0:0,0:0:0:0:
200,96,73929,6,0,L|96:96,1,96,8|0,0:0|0:0,0:0:0:0:
280,176,74316,2,0,L|288:272,1,96,8|0,0:0|0:0,0:0:0:0:
128,215,74703,1,8,0:0:0:0:
216,179,74896,1,0,0:0:0:0:
311,180,75090,1,8,0:0:0:0:
399,217,75283,1,0,0:0:0:0:
88,144,75477,6,0,L|72:32,1,96,12|0,0:0|0:0,0:0:0:0:
216,56,75864,1,8,0:0:0:0:
88,144,76058,1,0,0:0:0:0:
80,191,76154,1,0,0:0:0:0:
73,238,76251,1,8,0:0:0:0:
208,288,76445,2,0,L|312:272,1,96,0|8,0:0|0:0,0:0:0:0:
152,192,76832,1,2,0:0:0:0:
24,136,77025,5,0,0:0:0:0:
376,112,77219,2,0,L|480:112,2,96,0|12|0,0:0|0:0|0:0,0:0:0:0:
96,112,77800,2,0,L|-8:112,2,96,8|8|8,0:0|0:3|0:0,0:0:0:0:
192,112,78380,1,8,0:3:0:0:
472,160,78574,6,0,L|392:216,1,96,12|0,0:0|0:0,0:0:0:0:
256,216,78961,2,0,L|336:280,1,96,8|0,0:0|0:0,0:0:0:0:
176,272,79348,2,0,L|160:160,1,96,8|0,0:0|0:0,0:0:0:0:
280,120,79735,2,0,L|384:88,1,96,8|0,0:0|0:0,0:0:0:0:
56,72,80122,6,0,P|32:144|120:216,1,192,8|8,0:0|0:0,0:0:0:0:
272,304,80703,2,0,P|304:248|216:144,1,192,0|0,0:0|0:0,0:0:0:0:
136,128,81284,2,0,L|32:128,1,96,8|0,0:0|0:0,0:0:0:0:
432,80,81671,6,0,L|432:184,1,96,12|0,0:0|0:0,0:0:0:0:
304,176,82058,2,0,L|304:280,1,96,8|0,0:0|0:0,0:0:0:0:
176,272,82445,2,0,L|176:176,1,96,10|0,0:0|0:0,0:0:0:0:
48,176,82832,2,0,L|48:80,1,96,8|0,0:0|0:0,0:0:0:0:
400,96,83219,6,0,L|512:96,2,96,8|2|8,0:0|0:0|0:0,0:0:0:0:
88,176,83800,2,0,P|40:200|120:288,1,192,4|0,0:0|0:0,0:0:0:0:
312,64,84380,1,8,0:0:0:0:
360,64,84476,1,0,0:0:0:0:
408,64,84573,1,8,0:3:0:0:
128,64,84767,6,0,L|8:64,2,96,8|0|8,0:0|0:0|0:0,0:0:0:0:
312,64,85348,1,0,0:0:0:0:
360,64,85444,1,0,0:0:0:0:
408,64,85541,1,2,0:0:0:0:
240,136,85735,1,0,0:0:0:0:
384,160,85929,2,0,L|384:272,1,96,8|8,0:0|0:3,0:0:0:0:
88,328,86316,6,0,P|32:280|104:192,1,192,4|0,0:0|0:0,0:0:0:0:
184,184,86896,1,2,0:0:0:0:
440,200,87090,2,0,P|496:160|416:72,1,192,0|8,0:0|0:3,0:0:0:0:
344,64,87671,1,8,0:3:0:0:
24,96,87864,5,4,0:0:0:0:
256,192,88058,12,0,89800,0:0:0:0:
