osu file format v14

[General]
AudioFilename: audio.mp3
AudioLeadIn: 0
PreviewTime: 65316
Countdown: 0
SampleSet: Soft
StackLeniency: 0.7
Mode: 2
LetterboxInBreaks: 0
WidescreenStoryboard: 0

[Editor]
DistanceSpacing: 1
BeatDivisor: 4
GridSize: 8
TimelineZoom: 1

[Metadata]
Title:Nanairo Symphony -TV Size-
TitleUnicode:七色シンフォニー -TV Size-
Artist:Coalamode.
ArtistUnicode:コアラモード.
Creator:Ascendance
Version:A World of Color
Source:四月は君の嘘
Tags:shigatsu wa kimi no uso your lie in april opening arusamour tenshichan [superstar]
BeatmapID:1040807
BeatmapSetID:488149

[Difficulty]
HPDrainRate:6
CircleSize:4
OverallDifficulty:8.8
ApproachRate:8.8
SliderMultiplier:1.92
SliderTickRate:2

[Events]
//Background and Video events
Video,500,"forty.avi"
0,0,"cropped-1366-768-647733.jpg",0,0
//Break Periods
//Storyboard Layer 0 (Background)
//Storyboard Layer 1 (Fail)
//Storyboard Layer 2 (Pass)
//Storyboard Layer 3 (Foreground)
//Storyboard Sound Samples

[TimingPoints]
1155,387.096774193548,4,2,1,50,1,0
1155,-133.333333333333,4,2,1,50,0,0
15284,-100,4,2,1,60,0,0
16638,-133.333333333333,4,2,1,50,0,0
41413,-100,4,2,1,60,0,0
59993,-100,4,2,1,65,0,0
66187,-100,4,2,1,70,0,1
87284,-100,4,2,1,60,0,1
87864,-100,4,2,1,70,0,0
87961,-100,4,2,1,50,0,0
88638,-100,4,2,1,30,0,0
89413,-100,4,2,1,10,0,0
89800,-100,4,2,1,5,0,0

[Colours]
Combo1 : 255,128,64
Combo2 : 0,128,255
Combo3 : 255,128,192
Combo4 : 0,128,192

[HitObjects]
272,192,1155,6,0,L|352:192,2,72.0000027465821,2|0|0,0:0|0:0|0:0,0:0:0:0:
144,192,1735,2,0,L|296:192,1,144.000005493164,2|0,0:0|0:0,0:0:0:0:
376,192,2316,1,0,0:0:0:0:
208,128,2509,6,0,P|144:176|224:264,1,216.000008239746,2|0,0:0|0:0,0:0:0:0:
472,248,3284,2,0,P|416:232|312:256,1,144.000005493164,2|0,0:0|0:0,0:0:0:0:
208,264,3864,1,0,0:0:0:0:
496,112,4058,6,0,P|440:128|336:96,1,144.000005493164,2|0,0:0|0:0,0:0:0:0:
272,64,4638,1,0,0:0:0:0:
400,32,4832,1,0,0:0:0:0:
128,144,5025,6,0,L|248:144,2,108.000004119873,2|0|0,0:0|0:0|0:0,0:0:0:0:
32,144,5800,2,0,L|120:144,1,72.0000027465821,2|2,0:0|0:0,0:0:0:0:
448,144,6187,1,2,0:0:0:0:
360,144,6574,2,0,L|232:144,2,108.000004119873
80,312,7348,6,0,P|48:280|80:184,1,144.000005493164,2|0,0:0|0:0,0:0:0:0:
152,160,7929,1,0,0:0:0:0:
336,136,8122,2,0,P|376:96|344:16,1,144.000005493164,2|0,0:0|0:0,0:0:0:0:
224,16,8703,1,0,0:0:0:0:
480,160,8896,6,0,P|496:248|448:312,1,144.000005493164,2|0,0:0|0:0,0:0:0:0:
320,224,9477,2,0,L|464:224,1,144.000005493164,2|0,0:0|0:0,0:0:0:0:
288,144,10058,2,0,L|208:144,1,72.0000027465821,0|0,0:0|0:0,0:0:0:0:
480,64,10445,6,0,L|312:64,1,144.000005493164,2|0,0:0|0:0,0:0:0:0:
240,112,11025,1,0,0:0:0:0:
72,208,11219,2,0,P|128:192|232:232,1,144.000005493164,2|0,0:0|0:0,0:0:0:0:
320,264,11800,1,0,0:0:0:0:
48,336,11993,6,0,P|24:288|56:208,1,144.000005493164,2|0,0:0|0:0,0:0:0:0:
192,208,12574,2,0,P|216:168|168:88,1,144.000005493164,0|0,0:0|0:0,0:0:0:0:
64,80,13154,2,0,L|168:80,1,72.0000027465821,0|0,0:0|0:0,0:0:0:0:
400,72,13542,6,0,P|448:120|384:224,1,180.000006866455,2|0,0:0|0:0,0:0:0:0:
360,224,14122,1,2,0:0:0:0:
304,216,14219,1,0,0:0:0:0:
112,240,14316,2,0,L|-8:240,2,108.000004119873,2|0|0,0:0|0:0|0:0,0:0:0:0:
360,240,15284,5,0,0:0:0:0:
88,240,15477,1,12,0:0:0:0:
288,232,15864,1,6,0:0:0:0:
128,232,16058,1,0,0:0:0:0:
176,232,16154,1,8,0:0:0:0:
224,232,16251,1,0,0:0:0:0:
400,232,16445,1,0,0:0:0:0:
112,144,16638,6,0,L|8:144,1,72.0000027465821,6|0,0:0|0:0,0:0:0:0:
240,64,17025,2,0,L|328:64,1,72.0000027465821,0|2,0:0|0:0,0:0:0:0:
176,128,17413,1,0,0:0:0:0:
117,164,17606,1,0,0:0:0:0:
116,233,17800,1,0,0:0:0:0:
173,271,17993,1,0,0:0:0:0:
432,272,18187,6,0,L|520:224,1,72.0000027465821,2|0,0:0|0:0,0:0:0:0:
304,192,18574,2,0,L|304:96,1,72.0000027465821,0|2,0:0|0:0,0:0:0:0:
432,64,18961,2,0,L|352:72,1,72.0000027465821,0|0,0:0|0:0,0:0:0:0:
272,168,19348,2,0,L|368:176,1,72.0000027465821,0|0,0:0|0:0,0:0:0:0:
72,312,19735,6,0,P|24:264|56:184,1,144.000005493164,2|0,0:0|0:0,0:0:0:0:
192,184,20316,2,0,P|224:144|184:64,1,144.000005493164,2|0,0:0|0:0,0:0:0:0:
32,56,20896,1,0,0:0:0:0:
176,64,21090,1,0,0:0:0:0:
320,80,21284,6,0,L|416:80,1,72.0000027465821,2|2,0:0|0:0,0:0:0:0:
272,160,21671,2,0,L|192:168,1,72.0000027465821,0|2,0:0|0:0,0:0:0:0:
368,256,22058,1,0,0:0:0:0:
240,176,22251,1,0,0:0:0:0:
240,140,22347,1,0,0:0:0:0:
240,104,22444,1,0,0:0:0:0:
408,72,22638,1,0,0:0:0:0:
120,160,22832,6,0,L|192:176,1,72.0000027465821,2|0,0:0|0:0,0:0:0:0:
88,248,23219,2,0,L|88:328,1,72.0000027465821,0|2,0:0|0:0,0:0:0:0:
216,272,23606,1,0,0:0:0:0:
256,214,23799,1,0,0:0:0:0:
240,146,23993,1,0,0:0:0:0:
179,112,24186,1,0,0:0:0:0:
440,80,24380,6,0,L|544:56,1,72.0000027465821,2|0,0:0|0:0,0:0:0:0:
328,168,24767,2,0,L|400:168,1,72.0000027465821,0|2,0:0|0:0,0:0:0:0:
240,288,25154,2,0,L|336:280,1,72.0000027465821,0|0,0:0|0:0,0:0:0:0:
200,208,25542,2,0,L|120:200,1,72.0000027465821,0|0,0:0|0:0,0:0:0:0:
424,200,25929,6,0,P|464:176|472:80,1,144.000005493164,2|0,0:0|0:0,0:0:0:0:
264,40,26509,2,0,P|232:80|288:160,1,144.000005493164,2|0,0:0|0:0,0:0:0:0:
376,208,27090,1,0,0:0:0:0:
232,208,27284,1,0,0:0:0:0:
400,208,27477,5,2,0:0:0:0:
112,128,27671,2,0,L|24:128,1,72.0000027465821,2|0,0:0|0:0,0:0:0:0:
336,88,28058,2,0,L|480:88,1,144.000005493164,2|0,0:0|0:0,0:0:0:0:
336,88,28638,2,0,L|416:88,1,72.0000027465821,0|0,0:0|0:0,0:0:0:0:
128,192,29025,6,0,L|48:192,2,72.0000027465821,6|0|0,0:0|0:0|0:0,0:0:0:0:
256,192,29606,2,0,L|176:192,2,72.0000027465821,2|0|0,0:0|0:0|0:0,0:0:0:0:
392,192,30187,6,0,L|480:192,2,72.0000027465821,2|0|0,0:0|0:0|0:0,0:0:0:0:
264,192,30767,2,0,L|336:192,2,72.0000027465821,2|0|0,0:0|0:0|0:0,0:0:0:0:
88,256,31348,2,0,L|200:256,1,96.0000036621095,2|0,0:0|0:0,0:0:0:0:
0,248,31929,1,0,0:0:0:0:
352,296,32122,6,0,P|400:256|392:160,1,144.000005493164,2|0,0:0|0:0,0:0:0:0:
280,184,32703,2,0,P|256:152|304:56,1,144.000005493164,2|0,0:0|0:0,0:0:0:0:
392,16,33284,2,0,L|392:96,1,72.0000027465821,0|0,0:0|0:0,0:0:0:0:
200,176,33671,6,0,L|304:168,2,72.0000027465821,2|2|0,0:0|0:0|0:0,0:0:0:0:
464,296,34251,2,0,P|488:248|456:152,1,144.000005493164,2|0,0:0|0:0,0:0:0:0:
360,120,34832,1,0,0:0:0:0:
472,80,35025,1,0,0:0:0:0:
208,72,35219,6,0,L|120:72,1,72.0000027465821,2|0,0:0|0:0,0:0:0:0:
240,152,35606,1,0,0:0:0:0:
312,208,35799,1,2,0:0:0:0:
280,312,35993,1,0,0:0:0:0:
184,336,36186,1,0,0:0:0:0:
352,320,36380,2,0,L|432:320,1,72.0000027465821,2|0,0:0|0:0,0:0:0:0:
128,224,36767,6,0,L|48:224,1,72.0000027465821,2|0,0:0|0:0,0:0:0:0:
184,208,37154,1,0,0:0:0:0:
272,168,37347,1,0,0:0:0:0:
288,72,37541,1,2,0:0:0:0:
209,24,37734,1,0,0:0:0:0:
368,32,37929,2,0,L|448:32,1,72.0000027465821,2|0,0:0|0:0,0:0:0:0:
128,120,38316,6,0,P|112:200|176:248,1,144.000005493164,2|0,0:0|0:0,0:0:0:0:
304,168,38896,2,0,L|136:168,1,144.000005493164,2|0,0:0|0:0,0:0:0:0:
304,112,39477,2,0,L|408:112,1,72.0000027465821,0|0,0:0|0:0,0:0:0:0:
32,112,39864,6,0,L|128:112,2,72.0000027465821,2|8|8,0:0|0:3|0:3,0:0:0:0:
352,288,40445,2,0,P|376:232|320:144,1,144.000005493164,4|0,0:1|0:0,0:0:0:0:
256,112,41025,2,0,L|352:112,1,72.0000027465821,8|0,0:3|0:0,0:0:0:0:
72,320,41413,6,0,P|40:280|112:184,1,192,6|0,0:0|0:0,0:0:0:0:
208,184,41993,1,0,0:0:0:0:
472,136,42187,2,0,P|408:104|280:160,1,192,2|8,0:0|0:0,0:0:0:0:
400,192,42767,1,0,0:0:0:0:
144,272,42961,6,0,L|0:264,1,144,2|0,0:0|0:0,0:0:0:0:
272,208,43542,2,0,P|320:152|240:56,1,192,2|0,0:0|0:0,0:0:0:0:
176,136,44122,2,0,L|296:136,1,96,8|0,0:3|0:0,0:0:0:0:
16,216,44509,6,0,P|72:240|200:216,1,192,2|8,0:0|0:0,0:0:0:0:
104,144,45090,1,0,0:0:0:0:
360,128,45284,2,0,L|504:128,1,144,2|0,0:0|0:0,0:0:0:0:
432,128,45671,1,0,0:0:0:0:
296,128,45864,1,0,0:0:0:0:
88,128,46058,6,0,P|48:184|120:256,1,144,2|0,0:0|0:0,0:0:0:0:
264,240,46638,2,0,L|64:240,1,192,2|0,0:0|0:0,0:0:0:0:
368,176,47219,2,0,L|464:176,1,96,8|0,0:3|0:0,0:0:0:0:
88,56,47606,6,0,P|48:88|112:200,1,192,2|0,0:0|0:0,0:0:0:0:
176,200,48187,1,0,0:0:0:0:
480,280,48380,2,0,L|280:280,1,192,2|8,0:0|0:0,0:0:0:0:
384,216,48961,1,0,0:0:0:0:
96,304,49154,6,0,L|72:176,1,96,2|0,0:0|0:0,0:0:0:0:
208,192,49542,2,0,L|298:135,1,96
96,24,49929,2,0,P|48:64|112:160,1,192,2|10,0:0|0:0,0:0:0:0:
208,160,50509,1,0,0:0:0:0:
488,160,50703,6,0,P|416:200|312:144,1,192,2|0,0:0|0:0,0:0:0:0:
16,160,51284,2,0,P|72:136|200:160,1,192
272,240,51864,2,0,L|160:240,1,96,8|0,0:0|0:0,0:0:0:0:
448,328,52251,6,0,P|504:288|432:200,1,192,2|0,0:0|0:0,0:0:0:0:
360,200,52832,1,2,0:0:0:0:
160,200,53025,2,0,L|256:200,1,96
160,200,53413,1,8,0:0:0:0:
112,203,53509,1,0,0:0:0:0:
64,207,53606,1,8,0:3:0:0:
448,304,53800,6,0,P|496:216|440:144,1,192,6|0,0:0|0:0,0:0:0:0:
352,128,54380,1,0,0:0:0:0:
56,176,54574,2,0,P|112:200|240:184,1,192,2|8,0:0|0:0,0:0:0:0:
144,112,55154,1,0,0:0:0:0:
440,120,55348,6,0,L|288:128,1,144,2|0,0:0|0:0,0:0:0:0:
56,216,55929,2,0,P|112:240|248:208,1,192,2|0,0:0|0:0,0:0:0:0:
152,136,56509,1,8,0:3:0:0:
280,136,56703,1,0,0:0:0:0:
16,112,56896,6,0,P|64:80|192:112,1,192,2|0,0:0|0:0,0:0:0:0:
296,144,57477,1,0,0:0:0:0:
32,304,57671,2,0,L|184:272,2,144,2|0|0,0:0|0:0|0:0,0:0:0:0:
392,272,58445,6,0,P|432:208|368:112,1,192,2|0,0:0|0:0,0:0:0:0:
280,96,59025,1,0,0:0:0:0:
112,192,59219,2,0,P|168:216|304:184,1,192,0|8,0:0|0:3,0:0:0:0:
432,152,59800,1,0,0:0:0:0:
152,88,59993,6,0,L|40:72,1,96,6|0,0:0|0:0,0:0:0:0:
160,168,60380,2,0,L|160:264,1,96,0|0,0:0|0:0,0:0:0:0:
32,296,60767,1,2,0:0:0:0:
94,226,60960,1,0,0:0:0:0:
89,133,61154,1,8,0:0:0:0:
18,72,61347,1,0,0:0:0:0:
312,72,61542,6,0,L|408:88,1,96,2|0,0:0|0:0,0:0:0:0:
280,152,61929,2,0,L|240:256,1,96,0|0,0:0|0:0,0:0:0:0:
352,240,62316,2,0,L|472:272,1,96,2|0,0:0|0:0,0:0:0:0:
96,168,62703,2,0,L|0:136,1,96,8|0,0:0|0:0,0:0:0:0:
304,56,63090,6,0,P|360:128|280:208,1,192,2|8,0:0|0:0,0:0:0:0:
168,232,63671,1,0,0:0:0:0:
488,128,63864,6,0,L|336:128,2,144,6|2|2,0:0|0:0|0:0,0:0:0:0:
128,120,64638,2,0,L|16:120,1,96,8|8,0:0|0:0,0:0:0:0:
360,120,65025,1,8,0:0:0:0:
175,319,65413,5,8,0:0:0:0:
141,285,65509,1,0,0:0:0:0:
129,239,65606,1,0,0:0:0:0:
143,193,65703,1,0,0:0:0:0:
384,240,65800,5,8,0:0:0:0:
417,206,65896,1,0,0:0:0:0:
429,160,65993,1,8,0:3:0:0:
415,114,66090,1,0,0:0:0:0:
160,88,66187,6,0,L|48:56,1,96,12|0,0:0|0:0,0:0:0:0:
160,192,66574,2,0,L|64:192,1,96,8|0,0:0|0:0,0:0:0:0:
432,296,66961,1,8,0:0:0:0:
488,222,67154,1,0,0:0:0:0:
465,132,67348,1,8,0:0:0:0:
381,93,67541,1,0,0:0:0:0:
112,240,67735,6,0,L|224:224,1,96,8|0,0:0|0:0,0:0:0:0:
32,168,68122,2,0,L|16:72,1,96,8|0,0:0|0:0,0:0:0:0:
336,88,68509,1,8,0:0:0:0:
240,95,68702,1,0,0:0:0:0:
144,103,68896,1,8,0:0:0:0:
48,111,69089,1,0,0:0:0:0:
400,272,69284,6,0,L|424:160,1,96,8|0,0:0|0:0,0:0:0:0:
272,152,69671,2,0,L|376:152,1,96,8|0,0:0|0:0,0:0:0:0:
112,280,70058,2,0,L|240:280,1,96,8|0,0:0|0:0,0:0:0:0:
48,216,70445,2,0,L|32:104,1,96,8|0,0:0|0:0,0:0:0:0:
344,240,70832,6,0,L|360:144,1,96,8|0,0:0|0:0,0:0:0:0:
192,160,71219,2,0,L|120:96,1,96,8|0,0:0|0:0,0:0:0:0:
384,48,71606,5,8,0:0:0:0:
264,144,71799,1,0,0:0:0:0:
400,200,71993,1,8,0:0:0:0:
439,223,72089,1,0,0:0:0:0:
448,272,72186,1,0,0:0:0:0:
411,301,72283,1,0,0:0:0:0:
144,280,72380,6,0,L|48:248,1,96,12|0,0:0|0:0,0:0:0:0:
232,192,72767,2,0,L|288:104,1,96,8|0,0:0|0:0,0:0:0:0:
8,136,73154,2,0,L|128:120,3,96,8|0|8|0,0:0|0:0|0:0|0:0,0:0:0:0:
384,104,73929,6,0,L|488:80,1,96,8|0,0:0|0:0,0:0:0:0:
272,184,74316,2,0,L|160:208,1,96,8|0,0:0|0:0,0:0:0:0:
480,248,74703,2,0,L|352:280,3,96,8|0|8|0,0:0|0:0|0:0|0:0,0:0:0:0:
104,304,75477,6,0,L|88:168,1,96,12|0,0:0|0:0,0:0:0:0:
416,184,75864,2,0,L|424:80,1,96,8|0,0:0|0:0,0:0:0:0:
136,72,76251,1,8,0:0:0:0:
71,138,76444,1,0,0:0:0:0:
83,231,76638,1,8,0:0:0:0:
162,279,76831,1,2,0:0:0:0:
496,248,77025,5,0,0:0:0:0:
200,192,77219,2,0,L|128:192,1,48
112,192,77413,1,12,0:0:0:0:
200,192,77606,2,0,L|280:192,1,48
416,88,77800,5,8,0:0:0:0:
453,115,77896,1,0,0:0:0:0:
458,161,77993,1,8,0:3:0:0:
426,196,78090,1,0,0:0:0:0:
184,328,78187,5,8,0:0:0:0:
149,297,78283,1,0,0:0:0:0:
148,250,78380,1,8,0:3:0:0:
183,218,78477,1,0,0:0:0:0:
392,200,78574,6,0,L|504:160,1,96,12|0,0:0|0:0,0:0:0:0:
280,136,78961,2,0,L|216:48,1,96,8|0,0:0|0:0,0:0:0:0:
480,64,79348,2,0,L|480:160,1,96,8|0,0:0|0:0,0:0:0:0:
360,216,79735,2,0,L|448:288,1,96,8|0,0:0|0:0,0:0:0:0:
136,280,80122,6,0,L|40:200,1,96,8|0,0:0|0:0,0:0:0:0:
224,176,80509,2,0,L|336:160,1,96,8|0,0:0|0:0,0:0:0:0:
64,64,80896,1,8,0:0:0:0:
6,136,81089,1,0,0:0:0:0:
30,225,81283,1,8,0:0:0:0:
116,257,81476,1,0,0:0:0:0:
400,264,81671,6,0,L|512:240,1,96,12|0,0:0|0:0,0:0:0:0:
224,176,82058,2,0,L|120:152,1,96,8|0,0:0|0:0,0:0:0:0:
464,88,82445,2,0,L|352:112,1,96,10|0,0:0|0:0,0:0:0:0:
32,280,82832,2,0,L|152:248,1,96,8|0,0:0|0:0,0:0:0:0:
408,168,83219,6,0,L|512:144,1,96,8|2,0:0|0:0,0:0:0:0:
112,120,83606,1,8,0:0:0:0:
368,296,83800,2,0,P|424:248|328:192,1,192,4|0,0:0|0:0,0:0:0:0:
88,192,84380,1,8,0:0:0:0:
46,173,84476,1,0,0:0:0:0:
44,128,84573,1,8,0:3:0:0:
84,106,84670,1,0,0:0:0:0:
312,80,84767,6,0,L|416:80,1,96,8|0,0:0|0:0,0:0:0:0:
224,152,85154,1,8,0:0:0:0:
344,200,85348,1,0,0:0:0:0:
392,200,85444,1,0,0:0:0:0:
440,200,85541,1,2,0:0:0:0:
144,256,85735,2,0,L|16:256,1,96,0|8,0:0|0:0,0:0:0:0:
456,104,86122,1,8,0:3:0:0:
80,104,86316,6,0,P|8:152|96:208,1,192,4|0,0:0|0:0,0:0:0:0:
176,224,86896,1,2,0:0:0:0:
464,224,87090,1,0,0:0:0:0:
192,216,87284,1,8,0:3:0:0:
154,187,87380,1,0,0:0:0:0:
143,141,87477,1,8,0:3:0:0:
164,99,87574,1,0,0:0:0:0:
207,80,87671,1,8,0:3:0:0:
256,80,87767,1,0,0:0:0:0:
480,72,87864,5,4,0:0:0:0:
256,192,88058,12,0,89800,0:0:0:0:
