osu file format v14

[General]
AudioFilename: audio.mp3
AudioLeadIn: 0
PreviewTime: 64845
Countdown: 0
SampleSet: Normal
StackLeniency: 0.7
Mode: 1
LetterboxInBreaks: 0
WidescreenStoryboard: 0

[Editor]
Bookmarks: 16077,28464,40852,53239,65619,65626,73361,78013
DistanceSpacing: 2.5
BeatDivisor: 4
GridSize: 32
TimelineZoom: 1.4

[Metadata]
Title:Nanairo Symphony (TV Size)
TitleUnicode:七色シンフォニー (TV Size)
Artist:Coalamode.
ArtistUnicode:コアラモード.
Creator:Toofu
Version:Muzukashii
Source:四月は君の嘘
Tags:Your Lie in April Shigatsu wa Kimi no Uso Scarlet Remilia SWAKE op opening japanese anime jpop j-pop pop kaori miyazono d0ug doug doug_yt d0ug_yt 君嘘 KimiUso
BeatmapID:2624979
BeatmapSetID:1262845

[Difficulty]
HPDrainRate:6
CircleSize:2
OverallDifficulty:5
ApproachRate:10
SliderMultiplier:1.4
SliderTickRate:1

[Events]
//Background and Video events
0,0,"Novo Projeto (6).jpg",0,30
Video,30,"op.mp4"
//Break Periods
//Storyboard Layer 0 (Background)
//Storyboard Layer 1 (Fail)
//Storyboard Layer 2 (Pass)
//Storyboard Layer 3 (Foreground)
//Storyboard Layer 4 (Overlay)
//Storyboard Sound Samples

[TimingPoints]
587,387.096774193548,4,1,0,52,1,0
16070,-100,4,1,0,62,0,0
65232,-99.009900990099,4,1,0,62,0,0
65328,-98.0392156862745,4,1,0,62,0,0
65425,-97.0873786407767,4,1,0,62,0,0
65619,-95.2380952380952,4,1,0,62,0,1
85748,-95.2380952380952,4,1,0,62,0,0
88070,-97.5609756097561,4,1,0,62,0,0
88264,-100,4,1,0,42,0,0

[HitObjects]
252,186,587,5,0,1:0:0:0:
252,186,974,1,0,1:0:0:0:
252,186,1167,1,8,1:0:0:0:
252,186,1554,1,8,1:0:0:0:
252,186,1941,1,0,1:0:0:0:
252,186,2716,1,8,1:0:0:0:
252,186,3103,1,8,1:0:0:0:
252,186,3296,1,8,1:0:0:0:
252,186,3490,1,0,1:0:0:0:
252,186,4457,1,8,1:0:0:0:
252,186,4748,1,8,1:0:0:0:
252,186,5038,1,0,1:0:0:0:
252,186,5232,1,8,1:0:0:0:
252,186,5425,1,8,1:0:0:0:
252,186,5619,1,8,1:0:0:0:
252,186,6006,1,0,1:0:0:0:
252,186,6586,1,0,1:0:0:0:
252,186,6780,1,8,1:0:0:0:
252,186,7167,1,8,1:0:0:0:
252,186,7554,1,8,1:0:0:0:
252,186,7941,1,0,1:0:0:0:
252,186,8328,1,8,1:0:0:0:
252,186,8716,1,0,1:0:0:0:
252,186,8909,1,8,1:0:0:0:
252,186,9877,5,8,1:0:0:0:
252,186,10264,1,0,1:0:0:0:
252,186,10651,1,8,1:0:0:0:
252,186,11038,1,8,1:0:0:0:
252,186,11425,1,8,1:0:0:0:
252,186,11812,1,0,1:0:0:0:
252,186,12006,1,8,1:0:0:0:
252,186,12586,1,0,1:0:0:0:
252,186,12974,1,12,1:0:0:0:
252,186,13554,5,8,1:0:0:0:
252,186,13651,1,8,1:0:0:0:
252,186,13748,1,8,1:0:0:0:
252,186,14038,1,0,1:0:0:0:
252,186,14328,1,8,1:0:0:0:
252,186,14716,1,0,1:0:0:0:
252,186,14909,1,12,1:0:0:0:
252,186,15296,1,0,1:0:0:0:
252,186,15490,1,0,1:0:0:0:
252,186,15683,1,8,1:0:0:0:
252,186,15877,1,8,1:0:0:0:
252,186,16070,5,4,1:0:0:0:
252,186,16457,1,0,1:0:0:0:
252,186,16651,1,8,1:0:0:0:
252,186,16845,1,0,1:0:0:0:
252,186,17232,1,0,1:0:0:0:
252,186,17425,1,0,1:0:0:0:
252,186,17619,1,8,1:0:0:0:
252,186,18006,1,8,1:0:0:0:
252,186,18199,1,0,1:0:0:0:
252,186,18393,1,8,1:0:0:0:
252,186,18780,1,0,1:0:0:0:
252,186,19167,1,8,1:0:0:0:
252,186,19554,1,8,1:0:0:0:
252,186,19748,1,0,1:0:0:0:
252,186,20328,1,0,1:0:0:0:
252,186,20716,1,8,1:0:0:0:
252,186,21103,1,0,1:0:0:0:
252,186,21296,5,8,1:0:0:0:
252,186,21683,1,8,1:0:0:0:
252,186,21877,1,0,1:0:0:0:
252,186,22070,1,0,1:0:0:0:
252,186,22264,1,8,1:0:0:0:
252,186,22651,1,8,1:0:0:0:
252,186,22845,1,0,1:0:0:0:
252,186,23038,1,0,1:0:0:0:
252,186,23232,1,8,1:0:0:0:
252,186,23425,1,8,1:0:0:0:
252,186,23812,1,8,1:0:0:0:
252,186,24199,1,0,1:0:0:0:
252,186,24393,1,0,1:0:0:0:
252,186,24586,1,8,1:0:0:0:
252,186,24974,5,0,1:0:0:0:
252,186,25361,1,8,1:0:0:0:
252,186,25748,1,8,1:0:0:0:
252,186,25941,1,0,1:0:0:0:
252,186,26522,1,0,1:0:0:0:
252,186,26909,1,0,1:0:0:0:
252,186,27103,1,8,1:0:0:0:
252,186,27296,1,0,1:0:0:0:
252,186,27490,1,0,1:0:0:0:
252,186,28070,1,0,1:0:0:0:
252,186,28457,1,12,1:0:0:0:
252,186,28845,1,8,1:0:0:0:
252,186,29038,1,0,1:0:0:0:
252,186,29232,1,8,1:0:0:0:
252,186,29619,1,0,1:0:0:0:
252,186,29812,1,8,1:0:0:0:
252,186,30006,1,0,1:0:0:0:
252,186,30199,1,8,1:0:0:0:
252,186,30393,1,0,1:0:0:0:
252,186,30780,1,8,1:0:0:0:
252,186,30974,1,0,1:0:0:0:
252,186,31361,1,0,1:0:0:0:
252,186,31554,1,8,1:0:0:0:
252,186,31941,1,8,1:0:0:0:
252,186,32135,1,0,1:0:0:0:
252,186,32716,1,0,1:0:0:0:
252,186,33103,1,8,1:0:0:0:
252,186,33296,1,0,1:0:0:0:
252,186,33490,1,0,1:0:0:0:
252,186,33683,5,8,1:0:0:0:
252,186,34070,1,0,1:0:0:0:
252,186,34264,1,8,1:0:0:0:
252,186,34651,1,8,1:0:0:0:
252,186,34845,1,0,1:0:0:0:
252,186,35038,1,8,1:0:0:0:
252,186,35425,1,8,1:0:0:0:
252,186,35619,1,0,1:0:0:0:
252,186,36006,1,0,1:0:0:0:
252,186,36199,1,8,1:0:0:0:
252,186,36586,1,0,1:0:0:0:
252,186,36780,1,8,1:0:0:0:
252,186,36974,1,0,1:0:0:0:
252,186,37167,1,0,1:0:0:0:
252,186,37361,1,8,1:0:0:0:
252,186,37748,1,8,1:0:0:0:
252,186,37941,1,0,1:0:0:0:
252,186,38328,1,0,1:0:0:0:
252,186,38909,1,8,1:0:0:0:
252,186,39103,1,0,1:0:0:0:
252,186,39296,1,8,1:0:0:0:
252,186,39490,1,0,1:0:0:0:
252,186,39683,1,0,1:0:0:0:
252,186,39877,1,4,1:0:0:0:
252,186,40264,1,0,1:0:0:0:
252,186,40651,1,0,1:0:0:0:
252,186,40845,1,12,1:0:0:0:
252,186,41425,1,8,1:0:0:0:
252,186,41619,1,0,1:0:0:0:
252,186,42006,1,8,1:0:0:0:
252,186,42199,1,0,1:0:0:0:
252,186,42393,1,0,1:0:0:0:
252,186,42683,1,8,1:0:0:0:
252,186,42974,1,0,1:0:0:0:
252,186,43361,1,8,1:0:0:0:
252,186,43554,1,0,1:0:0:0:
252,186,43941,1,8,1:0:0:0:
252,186,44522,5,8,1:0:0:0:
252,186,44716,1,0,1:0:0:0:
252,186,45103,1,8,1:0:0:0:
252,186,45296,1,0,1:0:0:0:
252,186,45490,1,8,1:0:0:0:
252,186,45877,1,8,1:0:0:0:
252,186,46070,1,0,1:0:0:0:
252,186,46457,1,0,1:0:0:0:
252,186,46651,1,8,1:0:0:0:
252,186,47038,1,8,1:0:0:0:
252,186,47619,1,8,1:0:0:0:
252,186,47812,1,0,1:0:0:0:
252,186,48199,1,0,1:0:0:0:
252,186,48586,1,8,1:0:0:0:
265,168,48974,1,0,1:0:0:0:
252,186,49167,5,0,1:0:0:0:
252,186,49361,1,8,1:0:0:0:
252,186,49748,1,8,1:0:0:0:
252,186,49941,1,0,1:0:0:0:
252,186,50135,1,8,1:0:0:0:
252,186,50522,1,0,1:0:0:0:
252,186,50716,1,0,1:0:0:0:
252,186,50909,1,8,1:0:0:0:
252,186,51296,1,0,1:0:0:0:
252,186,51683,1,8,1:0:0:0:
252,186,52264,1,0,1:0:0:0:
252,186,52457,1,8,1:0:0:0:
252,186,52845,1,0,1:0:0:0:
252,186,52941,1,0,1:0:0:0:
252,186,53038,1,0,1:0:0:0:
252,186,53232,1,12,1:0:0:0:
252,186,53812,5,8,1:0:0:0:
252,186,54006,1,0,1:0:0:0:
252,186,54393,1,0,1:0:0:0:
252,186,54586,1,0,1:0:0:0:
252,186,54780,1,8,1:0:0:0:
252,186,55070,1,0,1:0:0:0:
252,186,55361,1,8,1:0:0:0:
252,186,55748,1,8,1:0:0:0:
252,186,55941,1,0,1:0:0:0:
252,186,56328,1,8,1:0:0:0:
252,186,56716,1,0,1:0:0:0:
252,186,56909,1,0,1:0:0:0:
252,186,57103,1,8,1:0:0:0:
252,186,57393,1,8,1:0:0:0:
252,186,57683,1,0,1:0:0:0:
252,186,57877,1,8,1:0:0:0:
252,186,58264,1,0,1:0:0:0:
252,186,58651,1,8,1:0:0:0:
252,186,59038,1,0,1:0:0:0:
252,186,59232,1,0,1:0:0:0:
252,186,59425,5,8,1:0:0:0:
252,186,60199,5,8,1:0:0:0:
252,186,60586,1,0,1:0:0:0:
252,186,60974,1,0,1:0:0:0:
252,186,61361,1,8,1:0:0:0:
252,186,61554,1,0,1:0:0:0:
252,186,61748,1,8,1:0:0:0:
252,186,62135,1,0,1:0:0:0:
252,186,62522,1,8,1:0:0:0:
252,186,62716,1,0,1:0:0:0:
252,186,62909,1,0,1:0:0:0:
252,186,63296,1,12,1:0:0:0:
252,186,63586,1,8,1:0:0:0:
252,186,63877,1,0,1:0:0:0:
252,186,64070,1,8,1:0:0:0:
252,186,64264,1,8,1:0:0:0:
252,186,64457,1,8,1:0:0:0:
251,186,64845,1,8,1:0:0:0:
251,186,65038,1,0,1:0:0:0:
252,186,65232,5,0,1:0:0:0:
252,186,65328,1,0,1:0:0:0:
252,186,65425,1,0,1:0:0:0:
252,186,65619,1,12,1:0:0:0:
252,187,66006,1,8,1:0:0:0:
252,186,66199,1,0,1:0:0:0:
252,186,66393,1,0,1:0:0:0:
252,186,66586,1,8,1:0:0:0:
252,186,66780,1,0,1:0:0:0:
252,186,66877,1,0,1:0:0:0:
252,186,66974,1,0,1:0:0:0:
252,186,67167,1,8,1:0:0:0:
177,115,67554,1,0,1:0:0:0:
252,186,67748,1,8,1:0:0:0:
252,186,68328,1,0,1:0:0:0:
252,186,68522,1,8,1:0:0:0:
252,186,68716,1,8,1:0:0:0:
252,186,69103,1,8,1:0:0:0:
253,187,69296,1,0,1:0:0:0:
252,186,69490,1,8,1:0:0:0:
262,65,69683,1,0,1:0:0:0:
252,186,69877,1,8,1:0:0:0:
271,78,69974,1,8,1:0:0:0:
271,78,70070,1,8,1:0:0:0:
252,186,70264,1,8,1:0:0:0:
252,186,70651,1,8,1:0:0:0:
253,186,70845,1,0,1:0:0:0:
252,186,71425,1,8,1:0:0:0:
253,186,71522,5,8,1:0:0:0:
253,186,71619,1,8,1:0:0:0:
253,186,71812,1,4,1:0:0:0:
252,186,72103,1,0,1:0:0:0:
231,154,72199,1,8,1:0:0:0:
252,186,72393,1,0,1:0:0:0:
252,186,72586,1,8,1:0:0:0:
252,186,72780,1,0,1:0:0:0:
252,186,72877,1,0,1:0:0:0:
252,186,72974,1,0,1:0:0:0:
252,186,73167,1,8,1:0:0:0:
252,186,73361,1,0,1:0:0:0:
252,186,73941,5,8,1:0:0:0:
252,186,74038,1,8,1:0:0:0:
252,186,74135,1,8,1:0:0:0:
252,186,74522,1,0,1:0:0:0:
252,186,74716,1,8,1:0:0:0:
252,186,74909,1,4,1:0:0:0:
253,186,75199,1,0,1:0:0:0:
275,124,75296,1,0,1:0:0:0:
253,186,75490,1,8,1:0:0:0:
253,186,75683,1,0,1:0:0:0:
251,186,75877,1,0,1:0:0:0:
253,186,75974,1,0,1:0:0:0:
252,186,76070,1,0,1:0:0:0:
252,186,76264,1,8,1:0:0:0:
252,186,76651,1,12,1:0:0:0:
252,186,76845,1,4,1:0:0:0:
252,186,77038,1,0,1:0:0:0:
252,186,77232,1,8,1:0:0:0:
252,186,77425,1,8,1:0:0:0:
252,186,77619,1,0,1:0:0:0:
252,186,77716,1,0,1:0:0:0:
252,186,77812,1,0,1:0:0:0:
252,186,78006,1,12,1:0:0:0:
253,186,78393,1,8,1:0:0:0:
252,186,78586,1,8,1:0:0:0:
252,186,78780,1,0,1:0:0:0:
252,186,78974,1,8,1:0:0:0:
252,186,79167,1,0,1:0:0:0:
202,58,79264,1,0,1:0:0:0:
252,187,79361,1,0,1:0:0:0:
252,186,79554,1,8,1:0:0:0:
252,186,79941,1,0,1:0:0:0:
252,186,80135,1,8,1:0:0:0:
250,77,80716,1,0,1:0:0:0:
252,186,80909,1,0,1:0:0:0:
252,186,81103,5,12,1:0:0:0:
252,186,81490,1,0,1:0:0:0:
252,186,81683,1,0,1:0:0:0:
252,186,81877,1,8,1:0:0:0:
252,186,82070,1,0,1:0:0:0:
252,186,82264,1,8,1:0:0:0:
252,186,82651,1,8,1:0:0:0:
252,186,82845,1,0,1:0:0:0:
252,186,82941,1,0,1:0:0:0:
252,186,83038,1,0,1:0:0:0:
252,186,83232,1,12,1:0:0:0:
252,186,83619,1,8,1:0:0:0:
252,186,83716,1,8,1:0:0:0:
252,186,83812,1,8,1:0:0:0:
252,186,84006,1,0,1:0:0:0:
252,186,84199,1,8,1:0:0:0:
252,186,84586,1,8,1:0:0:0:
252,186,84780,1,0,1:0:0:0:
252,186,84974,1,8,1:0:0:0:
252,186,85167,1,0,1:0:0:0:
252,186,85361,1,0,1:0:0:0:
252,186,85457,1,0,1:0:0:0:
252,186,85554,1,0,1:0:0:0:
252,186,85748,1,12,1:0:0:0:
252,186,86135,1,0,1:0:0:0:
252,186,86522,1,0,1:0:0:0:
252,186,86716,1,0,1:0:0:0:
252,186,86909,1,8,1:0:0:0:
252,186,87103,1,8,1:0:0:0:
252,186,87296,1,4,1:0:0:0:
252,186,87877,5,0,1:0:0:0:
252,186,88070,1,8,1:0:0:0:
256,192,88264,12,0,89232,1:0:0:0:
