osu file format v14

[General]
AudioFilename: audio.mp3
AudioLeadIn: 0
PreviewTime: 64755
Countdown: 0
SampleSet: Soft
StackLeniency: 0.2
Mode: 0
LetterboxInBreaks: 0
WidescreenStoryboard: 1

[Editor]
Bookmarks: 13,61,110,158,206,255,303,352,400,448,497,545,5674,5723,5771,5819,5868,5916,5964,15932,15981,16029,34658,38771,38819,38868,40852,53239,59432,64513,64561,64610,71819,78013,80964,81013,81061,84981,89735,89784,89832,89880,89929,89977,90026,90074
DistanceSpacing: 1.25
BeatDivisor: 4
GridSize: 4
TimelineZoom: 4.099998

[Metadata]
Title:Nanairo Symphony (TV Size)
TitleUnicode:七色シンフォニー (TV Size)
Artist:Coalamode.
ArtistUnicode:コアラモード.
Creator:TheOneForce
Version:kelinimo's Sublime Melody of the Rainbow
Source:四月は君の嘘
Tags:kelinimo FlyzyStyle shigatsu wa kimi no uso your lie in april opening op japanese female vocalist anime pop jpop j-pop
BeatmapID:2673634
BeatmapSetID:1280262

[Difficulty]
HPDrainRate:5.5
CircleSize:4.5
OverallDifficulty:9
ApproachRate:9.2
SliderMultiplier:2.8
SliderTickRate:1

[Events]
//Background and Video events
0,0,"0_a-The Rainbow is Rising Over The Swamp_82368083.jpg",0,0
//Break Periods
//Storyboard Layer 0 (Background)
//Storyboard Layer 1 (Fail)
//Storyboard Layer 2 (Pass)
//Storyboard Layer 3 (Foreground)
//Storyboard Layer 4 (Overlay)
//Storyboard Sound Samples

[TimingPoints]
594,387.096774193548,4,2,14,54,1,0
594,-441.438880962022,4,2,14,54,0,0
739,-192.307692307692,4,2,14,5,0,0
787,-291.350244582491,4,2,14,54,0,0
932,-192.307692307692,4,2,14,5,0,0
981,-192.307692307692,4,2,14,54,0,0
1126,-192.307692307692,4,2,14,5,0,0
1174,-121.951219512195,4,2,14,54,0,0
1464,-121.951219512195,4,2,14,5,0,0
1561,-121.951219512195,4,2,14,54,0,0
1852,-121.951219512195,4,2,14,5,0,0
1948,-147.058823529412,4,2,14,54,0,0
2626,-147.058823529412,4,2,14,5,0,0
2723,-138.888888888889,4,2,14,54,0,0
3013,-138.888888888889,4,2,14,5,0,0
3110,-138.888888888889,4,2,14,54,0,0
3206,-138.888888888889,4,2,14,5,0,0
3303,-138.888888888889,4,2,14,54,0,0
3400,-138.888888888889,4,2,14,5,0,0
3497,-454.545454545457,4,2,14,54,0,0
4368,-454.545454545457,4,2,14,5,0,0
4464,-81.9672131147541,4,2,14,64,0,0
4706,-81.9672131147541,4,2,14,5,0,0
4755,-81.9672131147541,4,2,14,74,0,0
4997,-81.9672131147541,4,2,14,5,0,0
5045,-81.9672131147541,4,2,14,74,0,0
5142,-81.9672131147541,4,2,14,5,0,0
5239,-81.9672131147541,4,2,14,64,0,0
6013,-192.307692307692,4,2,14,44,0,0
6303,-192.307692307692,4,2,14,5,0,0
6400,-161.290322580645,4,2,14,54,0,0
6593,-161.290322580645,4,2,14,64,0,0
6690,-161.290322580645,4,2,14,5,0,0
6787,-161.290322580645,4,2,14,64,0,0
7900,-161.290322580645,4,2,14,5,0,0
7948,-161.290322580645,4,2,14,64,0,0
9206,-161.290322580645,4,2,14,5,0,0
9303,-161.290322580645,4,2,14,64,0,0
9497,-138.888888888889,4,2,14,64,0,0
9593,-138.888888888889,4,2,14,5,0,0
9690,-161.290322580645,4,2,14,64,0,0
11432,-161.290322580645,4,2,14,64,0,0
11723,-161.290322580645,4,2,14,5,0,0
11819,-161.290322580645,4,2,14,64,0,0
12013,-153.846153846154,4,2,14,64,0,0
12497,-153.846153846154,4,2,14,5,0,0
12593,-153.846153846154,4,2,14,64,0,0
12981,-108.695652173913,4,2,14,64,0,0
13319,-108.695652173913,4,2,14,5,0,0
13368,-108.695652173913,4,2,14,64,0,0
13997,-108.695652173913,4,2,14,5,0,0
14045,-108.695652173913,4,2,14,64,0,0
14287,-108.695652173913,4,2,14,5,0,0
14335,-108.695652173913,4,2,14,64,0,0
14432,-108.695652173913,4,2,14,5,0,0
14529,-108.695652173913,4,2,14,64,0,0
14723,-75.7575757575758,4,2,14,64,0,0
14819,-75.7575757575758,4,2,14,5,0,0
14916,-75.7575757575758,4,2,14,64,0,0
15013,-75.7575757575758,4,2,14,5,0,0
15110,-98.0392156862745,4,2,14,64,0,0
15255,-98.0392156862745,4,2,14,5,0,0
15303,-192.307692307692,4,2,14,64,0,0
16077,-238.095238095238,4,2,14,44,0,0
16368,-238.095238095238,4,2,14,5,0,0
16464,-238.095238095238,4,2,14,44,0,0
19174,-178.571428571429,4,2,14,44,0,0
19464,-178.571428571429,4,2,14,5,0,0
19561,-178.571428571429,4,2,14,44,0,0
20723,-156.25,4,2,14,44,0,0
22271,-227.272727272727,4,2,14,44,0,0
23819,-185.185185185185,4,2,14,44,0,0
25658,-185.185185185185,4,2,14,5,0,0
25755,-185.185185185185,4,2,14,44,0,0
26819,-138.888888888889,4,2,14,44,0,0
26916,-138.888888888889,4,2,14,44,0,0
27061,-138.888888888889,4,2,14,5,0,0
27110,-138.888888888889,4,2,14,44,0,0
27255,-138.888888888889,4,2,14,5,0,0
27303,-138.888888888889,4,2,14,44,0,0
27497,-238.095238095238,4,2,14,44,0,0
27787,-238.095238095238,4,2,14,5,0,0
27884,-238.095238095238,4,2,14,44,0,0
28464,-108.695652173913,4,2,14,44,0,0
28561,-108.695652173913,4,2,14,5,0,0
28658,-108.695652173913,4,2,14,44,0,0
28755,-108.695652173913,4,2,14,5,0,0
28852,-108.695652173913,4,2,14,44,0,0
28948,-108.695652173913,4,2,14,5,0,0
29045,-108.695652173913,4,2,14,44,0,0
29142,-108.695652173913,4,2,14,5,0,0
29239,-108.695652173913,4,2,14,44,0,0
29335,-108.695652173913,4,2,14,5,0,0
29432,-108.695652173913,4,2,14,44,0,0
29529,-108.695652173913,4,2,14,5,0,0
29626,-108.695652173913,4,2,14,44,0,0
29723,-108.695652173913,4,2,14,5,0,0
29819,-108.695652173913,4,2,14,44,0,0
29916,-108.695652173913,4,2,14,5,0,0
30013,-108.695652173913,4,2,14,44,0,0
30110,-108.695652173913,4,2,14,5,0,0
30206,-108.695652173913,4,2,14,44,0,0
30303,-108.695652173913,4,2,14,5,0,0
30400,-108.695652173913,4,2,14,44,0,0
30497,-108.695652173913,4,2,14,5,0,0
30593,-108.695652173913,4,2,14,44,0,0
30690,-108.695652173913,4,2,14,5,0,0
30787,-192.307692307692,4,2,14,44,0,0
31271,-192.307692307692,4,2,14,5,0,0
31368,-192.307692307692,4,2,14,44,0,0
31561,-138.888888888889,4,2,14,44,0,0
31852,-138.888888888889,4,2,14,5,0,0
31948,-138.888888888889,4,2,14,44,0,0
34948,-138.888888888889,4,2,14,5,0,0
35045,-138.888888888889,4,2,14,44,0,0
35239,-192.307692307693,4,2,14,44,0,0
36206,-138.888888888889,4,2,14,44,0,0
36497,-138.888888888889,4,2,14,5,0,0
36593,-138.888888888889,4,2,14,44,0,0
36787,-192.307692307693,4,2,14,44,0,0
37755,-175.446489474009,4,2,14,44,0,0
38142,-138.888888888889,4,2,14,44,0,0
38335,-175.438596491228,4,2,14,44,0,0
38916,-61.7283950617284,4,2,14,64,0,1
39061,-61.7283950617284,4,2,14,5,0,0
39110,-65.7894736842105,4,2,14,54,0,1
39255,-65.7894736842105,4,2,14,5,0,0
39303,-70.4225352112676,4,2,14,44,0,1
39448,-70.4225352112676,4,2,14,5,0,0
39497,-75.7575757575757,4,2,14,54,0,1
39642,-75.7575757575757,4,2,14,5,0,0
39690,-81.967213114754,4,2,14,64,0,1
39835,-81.967213114754,4,2,14,5,0,0
39884,-178.571428571429,4,2,14,74,0,1
40077,-121.951219512195,4,2,14,54,0,0
40174,-121.951219512195,4,2,14,5,0,0
40271,-121.951219512195,4,2,14,54,0,0
40852,-89.2857142857142,4,2,14,64,0,0
41142,-89.2857142857142,4,2,14,5,0,0
41239,-89.2857142857142,4,2,14,64,0,0
41529,-89.2857142857142,4,2,14,5,0,0
41626,-89.2857142857142,4,2,14,64,0,0
41916,-89.2857142857142,4,2,14,5,0,0
42013,-89.2857142857142,4,2,14,64,0,0
42787,-89.2857142857142,4,2,14,64,0,0
42981,-161.290322580645,4,2,14,64,0,0
43271,-161.290322580645,4,2,14,5,0,0
43368,-161.290322580645,4,2,14,64,0,0
43561,-89.2857142857143,4,2,14,64,0,0
44239,-89.2857142857143,4,2,14,5,0,0
44335,-89.2857142857143,4,2,14,64,0,0
44626,-89.2857142857143,4,2,14,5,0,0
44723,-89.2857142857143,4,2,14,64,0,0
45497,-81.9672131147541,4,2,14,64,0,0
46077,-161.290322580645,4,2,14,64,0,0
46368,-161.290322580645,4,2,14,5,0,0
46464,-161.290322580645,4,2,14,64,0,0
46658,-121.951219512195,4,2,14,64,0,0
47045,-81.9672131147541,4,2,14,64,0,0
47335,-81.9672131147541,4,2,14,5,0,0
47432,-81.9672131147541,4,2,14,64,0,0
47723,-81.9672131147541,4,2,14,5,0,0
47819,-81.9672131147541,4,2,14,64,0,0
48110,-81.9672131147541,4,2,14,5,0,0
48206,-81.9672131147541,4,2,14,64,0,0
48884,-81.9672131147541,4,2,14,5,0,0
48981,-81.9672131147541,4,2,14,64,0,0
49658,-81.9672131147541,4,2,14,5,0,0
49755,-161.290322580645,4,2,14,64,0,0
50045,-161.290322580645,4,2,14,5,0,0
50142,-98.0392156862744,4,2,14,64,0,0
50432,-98.0392156862744,4,2,14,5,0,0
50529,-81.967213114754,4,2,14,64,0,0
50723,-108.695652173913,4,2,14,64,0,0
50819,-98.0392156862744,4,2,14,5,0,0
50916,-98.0392156862744,4,2,14,64,0,0
51206,-98.0392156862744,4,2,14,5,0,0
51303,-98.0392156862744,4,2,14,64,0,0
51690,-81.9672131147541,4,2,14,64,0,0
51981,-81.9672131147541,4,2,14,5,0,0
52077,-81.9672131147541,4,2,14,64,0,0
52464,-98.0392156862745,4,2,14,64,0,0
53239,-75.7575757575758,4,2,14,64,0,0
53529,-75.7575757575758,4,2,14,5,0,0
53626,-75.7575757575758,4,2,14,64,0,0
53916,-75.7575757575758,4,2,14,5,0,0
54013,-75.7575757575758,4,2,14,64,0,0
54787,-81.4086787510363,4,2,14,64,0,0
55368,-161.290322580645,4,2,14,64,0,0
55658,-161.290322580645,4,2,14,5,0,0
55755,-121.951219512195,4,2,14,64,0,0
55852,-121.951219512195,4,2,14,5,0,0
55948,-121.951219512195,4,2,14,64,0,0
56335,-75.7575757575758,4,2,14,64,0,0
56626,-75.7575757575758,4,2,14,5,0,0
56723,-75.7575757575758,4,2,14,64,0,0
57013,-75.7575757575758,4,2,14,5,0,0
57110,-121.951219512195,4,2,14,64,0,0
59432,-81.9672131147541,4,2,14,74,0,0
59723,-81.9672131147541,4,2,14,5,0,0
59819,-81.9672131147541,4,2,14,74,0,0
61271,-81.9672131147541,4,2,14,5,0,0
61368,-81.9672131147541,4,2,14,74,0,0
62142,-89.2857142857143,4,2,14,74,0,0
63303,-75.7575757575757,4,2,14,94,0,0
63497,-75.7575757575757,4,2,14,5,0,0
63593,-89.2857142857142,4,2,14,84,0,0
63787,-89.2857142857142,4,2,14,5,0,0
63884,-121.951219512195,4,2,14,74,0,0
63981,-121.951219512195,4,2,14,5,0,0
64077,-121.951219512195,4,2,14,84,0,0
64755,-121.951219512195,4,2,14,74,0,0
65626,-70.4225352112676,4,2,14,94,0,1
65916,-70.4225352112676,4,2,14,5,0,1
66013,-81.9672131147541,4,2,14,94,0,1
66110,-81.9672131147541,4,2,14,5,0,1
66206,-81.9672131147541,4,2,14,94,0,1
67658,-81.9672131147541,4,2,14,5,0,1
67755,-81.9672131147541,4,2,14,94,0,1
67852,-81.9672131147541,4,2,14,5,0,1
67948,-81.9672131147541,4,2,14,94,0,1
69013,-81.9672131147541,4,2,14,5,0,1
69110,-81.9672131147541,4,2,14,94,0,1
70174,-81.9672131147541,4,2,14,5,0,1
70271,-81.9672131147541,4,2,14,94,0,1
70755,-81.9672131147541,4,2,14,5,0,1
70852,-81.9672131147541,4,2,14,94,0,1
70948,-81.9672131147541,4,2,14,5,0,1
71045,-81.9672131147541,4,2,14,94,0,1
71819,-70.4225352112676,4,2,14,94,0,1
72206,-70.4225352112676,4,2,14,94,0,1
72303,-70.4225352112676,4,2,14,5,0,1
72400,-70.4225352112676,4,2,14,94,0,1
72497,-70.4225352112676,4,2,14,5,0,1
72593,-70.4225352112676,4,2,14,94,0,1
73658,-70.4225352112676,4,2,14,5,0,1
73755,-70.4225352112676,4,2,14,94,0,1
73852,-70.4225352112676,4,2,14,5,0,1
73948,-70.4225352112676,4,2,14,94,0,1
74819,-70.4225352112676,4,2,14,5,0,1
74916,-70.4225352112676,4,2,14,94,0,1
75206,-70.4225352112676,4,2,14,5,0,1
75303,-70.4225352112676,4,2,14,94,0,1
75400,-70.4225352112676,4,2,14,5,0,1
75497,-70.4225352112676,4,2,14,94,0,1
76464,-108.695652173913,4,2,14,94,0,1
76561,-108.695652173913,4,2,14,5,0,1
76658,-108.695652173913,4,2,14,94,0,1
78013,-70.4225352112676,4,2,14,94,0,1
78303,-70.4225352112676,4,2,14,5,0,1
78400,-70.4225352112676,4,2,14,94,0,1
78497,-70.4225352112676,4,2,14,5,0,1
78593,-70.4225352112676,4,2,14,94,0,1
78884,-70.4225352112676,4,2,14,5,0,1
78981,-70.4225352112676,4,2,14,94,0,1
79561,-89.2857142857143,4,2,14,94,0,1
80142,-75.7575757575758,4,2,14,94,0,1
80239,-75.7575757575758,4,2,14,5,0,1
80335,-75.7575757575758,4,2,14,94,0,1
81110,-161.290322580645,4,2,14,94,0,1
81400,-161.290322580645,4,2,14,5,0,1
81497,-121.951219512195,4,2,14,94,0,1
81787,-121.951219512195,4,2,14,5,0,1
81884,-98.0392156862745,4,2,14,94,0,1
82174,-98.0392156862745,4,2,14,5,0,1
82271,-81.9672131147541,4,2,14,94,0,1
82561,-81.9672131147541,4,2,14,5,0,1
82658,-81.9672131147541,4,2,14,94,0,1
82948,-81.9672131147541,4,2,14,5,0,1
83045,-81.9672131147541,4,2,14,94,0,1
83239,-138.888888888889,4,2,14,94,0,1
83723,-138.888888888889,4,2,14,5,0,1
83819,-108.695652173913,4,2,14,94,0,1
84110,-108.695652173913,4,2,14,5,0,1
84206,-138.888888888889,4,2,14,94,0,1
84497,-138.888888888889,4,2,14,5,0,1
84593,-138.888888888889,4,2,14,94,0,1
85077,-138.888888888889,4,2,14,5,0,0
85368,-138.888888888889,4,2,14,94,0,0
85755,-121.951219512195,4,2,14,84,0,0
86335,-192.307692307692,4,2,14,84,0,0
86626,-192.307692307692,4,2,14,5,0,0
86723,-192.307692307692,4,2,14,84,0,0
87206,-192.307692307692,4,2,14,5,0,0
87303,402.684563758389,4,2,14,84,1,0
87303,-192.307692307692,4,2,14,84,0,0
87907,465.116279069767,4,2,14,84,1,0
88139,387.096774193548,4,2,14,84,1,0
88139,-833.333333333333,4,2,14,84,0,0
89687,-833.333333333326,4,2,14,5,0,0

[Colours]
Combo1 : 255,147,201
Combo2 : 255,136,136
Combo3 : 255,197,138
Combo4 : 254,243,114
Combo5 : 140,255,140
Combo6 : 128,191,255
Combo7 : 125,125,255
Combo8 : 183,111,255

[HitObjects]
417,213,594,6,0,P|423:202|427:191,1,23.7858526634059,2|0,1:2|0:0,0:0:0:0:
428,179,787,2,0,P|423:161|414:145,1,36.0390972418983,2|0,0:0|0:0,0:0:0:0:
403,137,981,2,0,P|373:128|341:140,1,54.599999666748,2|0,0:0|0:0,0:0:0:0:
340,139,1174,6,0,P|268:126|310:67,1,172.200002627564,2|0,1:2|0:0,0:0:0:0:
345,223,1561,6,0,B|301:237|289:284|289:284|282:234|244:214,1,172.200002627564,2|0,0:2|0:0,0:0:0:0:
119,282,1948,6,0,B|142:185|224:165|313:201|317:268|274:327|218:290,1,333.200002033691,2|0,1:2|0:0,0:0:0:0:
147,139,2723,6,0,B|187:145|203:184|203:184|205:142|242:124,1,151.200003691406,2|0,1:2|0:0,0:0:0:0:
209,32,3110,6,0,P|193:51|185:75,1,50.4000012304688,2|0,0:2|0:0,0:0:0:0:
149,41,3303,2,0,P|170:53|184:74,1,50.4000012304688,2|0,0:2|0:0,0:0:0:0:
202,184,3497,6,0,L|223:320,1,138.600004229736,2|0,1:2|0:0,0:0:0:0:
229,342,4464,22,0,B|296:343|318:291|318:291|347:340|407:329,1,213.499991204071,2|0,0:2|0:0,0:0:0:0:
429,190,4755,2,0,B|415:163|430:127|430:127|358:162|391:260,1,213.499991204071,2|0,0:2|0:0,0:0:0:0:
491,161,5045,2,0,P|500:120|483:80,1,85.3999964816286,2|0,0:2|0:0,0:0:0:0:
325,32,5239,5,2,0:2:0:0:
262,196,5432,1,2,0:2:0:0:
429,127,5626,1,2,0:2:0:0:
429,127,6013,6,0,P|409:144|449:138,1,109.199999333496,2|0,0:2|0:2,0:0:0:0:
344,106,6400,2,0,B|285:108|285:108|276:100|276:100|217:101,1,130.199994834595,2|0,0:0|0:0,0:0:0:0:
158,150,6787,1,10,0:2:0:0:
212,359,7174,5,2,0:2:0:0:
100,305,7368,1,0,0:0:0:0:
138,378,7561,2,0,P|212:358|287:364,1,151.899993973694,2|0,0:2|0:0,0:0:0:0:
301,369,7948,2,0,P|341:384|383:378,1,86.7999965563966,2|0,0:2|0:0,0:0:0:0:
396,174,8335,5,2,1:2:0:0:
315,231,8529,1,0,0:0:0:0:
402,168,8723,1,2,0:2:0:0:
297,94,8916,2,0,P|316:155|317:220,1,130.199994834595,2|0,0:2|0:0,0:0:0:0:
254,281,9303,1,2,0:2:0:0:
254,281,9400,1,0,0:0:0:0:
254,281,9497,2,0,P|229:278|204:279,1,50.4000012304688,2|0,0:2|0:0,0:0:0:0:
73,341,9690,5,0,0:0:0:0:
74,319,9786,1,0,0:0:0:0:
76,297,9884,2,0,P|71:260|52:212,1,86.7999965563966,10|0,0:2|0:0,0:0:0:0:
70,83,10271,2,0,P|40:105|8:146,1,86.7999965563966,2|0,0:2|0:0,0:0:0:0:
89,293,10658,2,0,P|84:255|65:208,1,86.7999965563966,2|0,0:2|0:0,0:0:0:0:
184,69,11045,2,0,P|167:109|161:151,1,86.7999965563966,2|0,0:2|0:0,0:0:0:0:
239,270,11335,5,0,0:0:0:0:
239,270,11432,2,0,P|310:285|347:246,1,130.199994834595,2|0,1:2|0:0,0:0:0:0:
256,111,11819,1,2,0:2:0:0:
352,231,12013,2,0,B|399:241|414:203|416:162|361:132|290:161|285:222,1,227.499989585877,2|0,0:2|0:0,0:0:0:0:
286,378,12593,21,2,0:2:0:0:
285,360,12690,1,0,0:0:0:0:
281,344,12786,1,0,0:0:0:0:
274,328,12883,1,0,0:0:0:0:
264,314,12981,6,0,B|206:288|159:318|159:318|105:352|49:323,1,225.399992433472,6|0,1:2|0:0,0:0:0:0:
37,316,13368,2,0,L|41:248,1,64.3999978381348
132,131,13561,1,2,0:2:0:0:
132,131,13658,1,2,0:2:0:0:
132,131,13755,2,0,B|140:162|140:162|106:195|48:192|28:143,1,160.999994595337,2|0,0:2|0:0,0:0:0:0:
22,135,14045,2,0,P|37:62|115:33,1,160.999994595337,2|0,0:2|0:0,0:0:0:0:
126,37,14335,2,0,P|162:56|195:54,1,64.3999978381348,6|0,0:2|0:0,0:0:0:0:
278,0,14529,5,8,0:2:0:0:
281,3,14723,6,0,P|301:43|302:89,1,92.3999997180176,2|0,1:2|0:0,0:0:0:0:
368,150,14916,2,0,P|353:193|321:226,1,92.3999997180176,14|0,1:1|0:0,0:0:0:0:
221,193,15110,2,0,P|196:165|234:182,1,107.100000653687
255,258,15303,6,0,L|248:330,1,72.7999995556641,2|2,1:2|0:2,0:0:0:0:
271,373,15593,1,8,0:2:0:0:
271,373,15690,1,2,1:2:0:0:
414,321,15884,1,10,0:2:0:0:
451,100,16077,38,0,P|434:131|437:184,1,88.1999973083497,6|0,1:1|0:0,0:0:0:0:
445,200,16464,1,2,3:2:0:0:
388,48,16658,2,0,P|371:43|329:45,1,58.7999982055665,2|2,1:2|3:2,0:0:0:0:
242,104,17045,1,2,0:2:0:0:
168,33,17239,1,2,3:2:0:0:
168,33,17432,1,2,0:2:0:0:
145,252,17626,6,0,P|146:231|131:187,1,58.7999982055665,2|2,1:2|0:2,0:0:0:0:
40,298,18013,1,2,3:2:0:0:
180,370,18206,1,2,1:2:0:0:
229,276,18400,1,2,3:2:0:0:
330,244,18594,1,2,0:2:0:0:
424,292,18787,1,2,3:2:0:0:
424,292,18981,1,2,0:2:0:0:
467,141,19174,6,0,P|491:167|512:253,1,117.600001435547,2|0,1:2|0:0,0:0:0:0:
511,267,19561,1,0,3:0:0:0:
313,283,19755,2,0,P|319:262|358:224,1,78.4000009570313,2|0,1:2|3:0,0:0:0:0:
390,295,20142,1,0,0:0:0:0:
287,368,20335,1,0,3:0:0:0:
207,254,20529,1,0,0:0:0:0:
206,261,20626,1,0,0:0:0:0:
205,268,20723,86,0,P|178:286|121:280,1,89.6,2|2,1:2|0:2,0:0:0:0:
82,161,21110,1,0,0:0:0:0:
222,254,21303,2,0,P|203:280|147:295,1,89.6,2|0,1:2|0:0,0:0:0:0:
82,161,21690,1,2,0:2:0:0:
157,222,21884,1,2,0:2:0:0:
205,145,22077,1,6,0:2:0:0:
354,173,22271,6,0,P|317:166|282:178,1,61.6000018798829,2|0,1:2|0:0,0:0:0:0:
303,262,22658,1,2,3:2:0:0:
384,189,22852,2,0,P|355:164|318:158,1,61.6000018798829,2|2,1:2|3:2,0:0:0:0:
303,262,23239,1,2,0:2:0:0:
363,324,23432,1,2,3:2:0:0:
431,287,23626,1,2,0:2:0:0:
512,376,23819,6,0,P|503:337|509:300,1,75.6000018457032,2|2,1:2|0:2,0:0:0:0:
421,199,24206,1,2,3:2:0:0:
330,74,24400,1,2,1:2:0:0:
339,163,24593,1,2,3:2:0:0:
266,216,24787,1,2,0:2:0:0:
183,179,24981,1,2,3:2:0:0:
173,88,25174,1,2,0:2:0:0:
266,216,25368,86,0,P|285:254|288:338,1,113.400002768555,2|0,1:2|0:0,0:0:0:0:
288,341,25755,1,0,3:0:0:0:
159,237,25948,2,0,P|160:199|174:164,1,75.6000018457032,2|0,1:2|3:0,0:0:0:0:
261,116,26335,1,0,0:0:0:0:
361,181,26529,1,0,3:0:0:0:
266,216,26723,5,0,0:0:0:0:
266,216,26819,1,0,0:0:0:0:
266,216,26916,2,0,P|289:246|293:286,1,75.6000018457032,2|0,1:2|0:0,0:0:0:0:
292,300,27110,2,0,P|268:330|264:370,1,75.6000018457032,2|0,0:2|0:0,0:0:0:0:
267,381,27303,1,0,3:0:0:0:
446,299,27497,2,0,B|429:258|429:258|420:300,1,88.1999973083497,2|0,1:2|0:0,0:0:0:0:
439,374,27884,5,2,0:2:0:0:
419,186,28077,1,2,3:2:0:0:
439,374,28271,1,6,0:2:0:0:
224,169,28464,70,0,P|255:173|284:187,1,64.3999978381348,2|0,1:2|0:0,0:0:0:0:
172,176,28658,2,0,P|201:164|233:162,1,64.3999978381348,2|0,0:2|0:0,0:0:0:0:
130,208,28852,2,0,P|149:183|176:165,1,64.3999978381348,2|0,3:2|0:0,0:0:0:0:
307,271,29045,102,0,P|295:242|292:210,1,64.3999978381348,2|0,1:2|0:0,0:0:0:0:
339,312,29239,2,0,P|314:293|296:267,1,64.3999978381348,2|0,3:2|0:0,0:0:0:0:
387,333,29433,2,0,P|356:328|327:314,1,64.3999978381348,2|0,0:2|0:0,0:0:0:0:
354,148,29626,102,0,P|329:178|294:196,1,64.3999978381348,2|0,3:2|0:0,0:0:0:0:
373,99,29820,2,0,P|366:137|346:170,1,64.3999978381348,2|0,0:2|0:0,0:0:0:0:
366,48,30014,2,0,P|379:84|378:123,1,64.3999978381348,2|0,1:2|0:0,0:0:0:0:
172,177,30206,102,0,P|209:163|248:165,1,64.3999978381348,2|0,0:2|0:0,0:0:0:0:
340,313,30400,2,0,P|309:288|291:253,1,64.3999978381348,2|0,3:2|0:0,0:0:0:0:
373,99,30593,2,0,P|366:137|346:170,1,64.3999978381348,2|0,1:2|0:0,0:0:0:0:
203,25,30787,2,0,P|246:49|299:38,2,90.9999994445801,2|2|0,3:2|0:0|0:0,0:0:0:0:
195,17,31368,1,2,0:2:0:0:
42,184,31561,86,0,P|104:209|114:144,1,151.200003691406,2|0,1:2|0:0,0:0:0:0:
103,136,31948,1,0,3:0:0:0:
164,261,32142,2,0,P|177:309|179:359,1,100.800002460938,2|0,1:2|3:0,0:0:0:0:
61,384,32529,1,0,0:0:0:0:
157,247,32723,1,0,3:0:0:0:
69,160,32916,1,0,0:0:0:0:
219,54,33110,101,0,1:0:0:0:
198,183,33303,1,2,0:2:0:0:
69,160,33497,1,2,3:2:0:0:
88,31,33690,2,0,P|124:66|139:113,1,100.800002460938,2|0,1:2|3:0,0:0:0:0:
111,243,34077,1,2,0:2:0:0:
198,183,34271,1,2,3:2:0:0:
351,285,34464,101,6,0:2:0:0:
351,285,34561,1,0,0:0:0:0:
351,285,34658,2,0,B|323:306|323:306|241:311|241:311|213:292,1,151.200003691406,2|0,1:2|0:0,0:0:0:0:
206,288,35045,1,2,3:2:0:0:
85,163,35239,22,0,P|120:163|151:181,1,72.7999995556641,0|2,1:0|3:2,0:0:0:0:
19,226,35626,1,2,0:2:0:0:
61,314,35819,1,2,3:2:0:0:
0,384,36013,1,2,0:2:0:0:
97,239,36206,102,0,B|120:237|142:244|142:244|169:235|169:235|197:241|197:241|216:231|243:230,1,151.200003691406,2|0,1:2|0:0,0:0:0:0:
257,229,36593,1,2,3:2:0:0:
179,384,36787,2,0,L|174:311,1,72.7999995556641,2|2,1:2|3:2,0:0:0:0:
164,163,37174,1,2,0:2:0:0:
257,229,37368,1,0,3:2:0:0:
335,116,37561,1,2,0:2:0:0:
335,116,37658,1,0,0:0:0:0:
335,116,37755,102,0,P|329:77|307:44,1,79.7964099593683,2|0,1:2|0:0,0:0:0:0:
431,161,38142,1,2,3:2:0:0:
512,0,38335,2,0,P|490:33|484:74,1,79.7999990258789,0|0,0:0|3:0,0:0:0:0:
431,161,38723,1,0,0:0:0:0:
335,116,38916,6,0,P|258:81|181:115,1,170.100004152832,2|0,0:2|0:0,0:0:0:0:
187,120,39110,6,0,P|258:89|329:121,1,159.599998051758,2|0,0:2|0:0,0:0:0:0:
325,127,39303,6,0,P|259:97|192:125,1,149.099992492218,2|0,1:2|0:0,0:0:0:0:
196,132,39497,6,0,P|257:105|319:133,1,138.599999577026,2|0,1:2|0:0,0:0:0:0:
315,140,39690,6,0,P|258:113|201:138,1,128.099994722443,2|0,1:2|0:0,0:0:0:0:
205,145,39884,6,0,P|257:122|309:146,1,117.600001435547,6|0,1:1|0:0,0:0:0:0:
256,192,40271,5,2,1:2:0:0:
256,192,40464,1,2,1:2:0:0:
149,327,40658,5,2,1:2:0:0:
149,327,40755,1,0,1:0:0:0:
149,327,40852,2,0,B|117:372|29:361|7:308|7:308|39:331|77:314,1,235.200002871094,6|0,1:1|0:0,0:0:0:0:
48,253,41239,1,0,0:0:0:0:
214,93,41432,6,0,P|179:75|141:74,1,78.4000009570313,6|0,1:2|0:0,0:0:0:0:
150,79,41626,2,0,B|188:80|212:101|212:101|255:74|255:74|301:92|301:92|321:66|358:58,1,235.200002871094,2|0,0:2|0:0,0:0:0:0:
373,56,42013,1,8,0:2:0:0:
274,164,42206,5,2,0:2:0:0:
274,164,42303,1,0,0:0:0:0:
274,164,42400,2,0,B|242:153|208:175|210:214|210:214|227:360,1,235.200002871094,2|2,1:2|0:2,0:0:0:0:
228,365,42787,1,0,0:0:0:0:
399,286,42981,2,0,P|367:250|412:266,1,130.199994834595,6|0,1:2|0:0,0:0:0:0:
330,363,43368,1,10,1:2:0:0:
256,207,43561,5,2,1:2:0:0:
265,219,43657,1,0,1:0:0:0:
272,232,43754,1,2,1:2:0:0:
276,246,43851,1,0,1:0:0:0:
278,260,43948,70,0,B|244:311|244:311|56:292,1,235.200002871094,2|0,1:2|0:0,0:0:0:0:
56,291,44335,1,0,0:0:0:0:
111,138,44529,6,0,P|135:107|169:89,1,78.4000009570313,6|0,1:2|0:0,0:0:0:0:
173,96,44723,2,0,B|116:112|106:183|106:183|82:115|23:112,1,235.200002871094,2|0,0:2|0:0,0:0:0:0:
9,111,45110,1,8,0:2:0:0:
278,84,45303,5,2,0:2:0:0:
278,84,45400,1,0,0:0:0:0:
278,84,45497,2,0,B|266:48|294:23|294:23|333:57|301:112|299:80|261:141|283:198,1,256.199989444886,2|0,1:2|0:0,0:0:0:0:
289,211,45884,1,2,0:2:0:0:
485,133,46077,2,0,P|460:121|487:152,1,130.199994834595,6|0,1:2|0:0,0:0:0:0:
385,85,46464,1,2,1:2:0:0:
293,274,46658,2,0,P|331:232|387:223,1,114.800001751709,2|0,1:2|1:0,0:0:0:0:
372,307,46948,1,0,1:0:0:0:
372,307,47045,6,0,B|425:318|441:276|444:230|382:196|298:231|297:297,1,256.199989444886,2|0,1:2|0:0,0:0:0:0:
295,310,47432,1,0,0:0:0:0:
442,96,47626,70,0,P|448:138|469:175,1,85.3999964816286,6|0,1:2|0:0,0:0:0:0:
474,171,47819,2,0,B|425:113|449:26|508:12|508:12|494:84,1,256.199989444886,2|0,0:2|0:0,0:0:0:0:
496,90,48206,1,8,0:2:0:0:
290,54,48400,5,2,0:2:0:0:
284,84,48496,1,0,0:0:0:0:
288,116,48593,2,0,P|320:142|354:16,1,256.199989444886,2|0,1:2|0:0,0:0:0:0:
345,16,48981,2,0,P|266:46|186:20,1,170.799992963257,2|0,0:2|1:0,0:0:0:0:
177,12,49271,1,0,1:0:0:0:
177,12,49368,6,0,B|217:33|217:33|243:195|243:195|211:227,1,256.199989444886,2|0,1:2|0:0,0:0:0:0:
122,150,49755,2,0,P|145:111|133:154,1,130.199994834595,14|0,0:2|0:2,0:0:0:0:
34,116,50142,2,0,B|-19:87|-17:-1|38:-29|95:17|69:58,1,214.200001307373,2|0,1:2|0:0,0:0:0:0:
55,186,50529,1,2,0:2:0:0:
61,346,50723,6,0,P|29:346|0:333,1,64.3999978381348,4|0,1:2|0:0,0:0:0:0:
0,326,50916,2,0,B|35:350|72:338|72:338|91:361|91:361|113:341|113:341|150:356|189:334,1,214.200001307373,2|0,0:2|0:0,0:0:0:0:
207,325,51303,1,10,0:2:0:0:
340,148,51497,69,0,0:0:0:0:
340,148,51593,1,0,0:0:0:0:
340,148,51690,2,0,B|362:174|356:210|356:210|445:161|372:30,1,256.199989444886,2|0,1:2|0:0,0:0:0:0:
369,31,52077,1,0,0:0:0:0:
283,195,52271,1,14,0:2:0:0:
488,348,52464,2,0,P|480:300|386:280,1,142.800000871582,2|0,0:2|1:0,0:0:0:0:
247,351,52852,5,8,0:2:0:0:
184,345,52948,1,8,0:2:0:0:
121,338,53045,1,0,1:0:0:0:
29,129,53239,6,0,B|97:119|132:203|132:203|139:113|207:100,1,277.199999154053,6|0,1:1|0:0,0:0:0:0:
111,71,53626,1,0,0:0:0:0:
112,339,53819,2,0,P|130:297|170:275,1,92.3999997180176,6|0,1:2|0:0,0:0:0:0:
256,352,54013,6,0,P|252:253|312:72,1,277.199999154053,2|2,0:2|0:2,0:0:0:0:
314,70,54400,1,8,0:2:0:0:
378,286,54593,1,2,0:2:0:0:
378,286,54690,1,0,0:0:0:0:
378,286,54787,2,0,B|416:294|432:330|432:330|465:251|418:197|351:209,1,257.957763149978,2|2,1:2|0:0,0:0:0:0:
335,213,55174,1,0,0:0:0:0:
399,91,55368,70,0,P|436:120|391:107,1,130.199994834595,6|0,1:2|0:0,0:0:0:0:
314,70,55755,2,0,P|288:57|243:52,1,57.4000008758545,10|0,1:2|0:0,0:0:0:0:
335,213,55948,5,2,1:2:0:0:
343,228,56044,1,0,1:0:0:0:
349,245,56141,1,0,1:0:0:0:
352,263,56238,1,0,1:0:0:0:
352,281,56335,6,0,P|309:327|247:195,1,277.199999154053,2|0,1:2|0:0,0:0:0:0:
251,192,56723,1,0,0:0:0:0:
276,341,56916,2,0,P|320:333|352:300,1,92.3999997180176,4|0,1:2|0:0,0:0:0:0:
182,283,57110,2,0,P|144:297|151:363,1,114.800001751709,2|0,0:2|0:0,0:0:0:0:
251,192,57497,1,8,0:2:0:0:
111,301,57690,1,2,0:2:0:0:
308,268,57884,6,0,P|364:274|413:304,1,114.800001751709,2|0,1:2|0:0,0:0:0:0:
505,130,58271,2,0,P|456:159|399:165,1,114.800001751709,2|4,0:2|1:2,0:0:0:0:
305,274,58658,2,0,P|360:285|405:320,1,114.800001751709,2|8,0:2|1:2,0:0:0:0:
508,124,59045,70,0,P|450:124|398:147,1,114.800001751709,2|0,1:2|1:0,0:0:0:0:
369,163,59335,1,0,1:0:0:0:
369,163,59432,6,0,B|310:167|282:123|282:123|315:188|305:283,1,256.199989444886,6|0,1:1|0:0,0:0:0:0:
303,293,59819,1,2,0:2:0:0:
221,68,60013,1,0,1:0:0:0:
389,270,60206,2,0,P|332:210|251:223,1,170.799992963257,2|0,1:2|0:0,0:0:0:0:
424,372,60593,1,10,0:2:0:0:
174,241,60787,1,0,0:0:0:0:
174,241,60884,1,0,0:0:0:0:
174,241,60981,6,0,B|157:205|157:205|182:131|295:122|339:187,1,256.199989444886,2|0,1:2|0:0,0:0:0:0:
348,204,61368,1,2,0:2:0:0:
141,65,61561,1,0,1:0:0:0:
376,73,61755,1,2,1:2:0:0:
251,243,61948,1,0,0:0:0:0:
261,0,62142,2,0,B|301:34|301:34|288:137,1,156.800001914063,10|0,0:2|0:0,0:0:0:0:
290,157,62432,1,0,0:0:0:0:
290,157,62529,5,2,1:2:0:0:
141,65,62723,1,0,1:0:0:0:
251,243,62916,69,8,0:2:0:0:
400,151,63110,1,0,0:0:0:0:
167,165,63303,6,0,P|125:246|136:336,1,184.799999436035,6|0,1:1|0:0,0:0:0:0:
136,336,63593,2,0,P|170:267|161:190,1,156.800001914063,2|0,1:2|0:0,0:0:0:0:
160,189,63884,2,0,P|148:213|151:241,1,57.4000008758545,2|0,1:2|0:0,0:0:0:0:
279,328,64077,5,10,1:2:0:0:
257,180,64271,1,10,1:2:0:0:
235,32,64464,1,10,1:2:0:0:
235,32,64852,101,10,1:2:0:0:
242,36,64948,1,8,0:2:0:0:
249,40,65045,2,0,L|246:97,1,57.4000008758545,0|2,1:2|1:2,0:0:0:0:
361,115,65239,5,8,1:2:0:0:
354,119,65335,1,8,0:2:0:0:
347,123,65432,2,0,L|350:180,1,57.4000008758545,2|8,1:2|1:0,0:0:0:0:
237,353,65626,6,0,B|177:312|190:201|258:180|258:180|276:232|229:256,1,298.199984984437,14|0,0:1|0:0,0:0:0:0:
92,111,66013,2,0,P|134:115|171:137,1,85.3999964816286,10|0,0:2|0:0,0:0:0:0:
28,172,66206,1,0,1:0:0:0:
312,22,66400,2,0,P|270:95|258:180,1,170.799992963257,10|0,0:2|1:0,0:0:0:0:
364,298,66787,2,0,P|401:247|358:292,1,170.799992963257,10|0,0:2|1:0,0:0:0:0:
497,344,67174,85,10,0:2:0:0:
406,144,67368,1,0,0:0:0:0:
495,26,67561,2,0,P|489:68|487:131,1,85.3999964816286,10|0,0:2|0:0,0:0:0:0:
364,298,67755,2,0,P|357:255|346:214,1,85.3999964816286,2|0,0:2|0:0,0:0:0:0:
274,28,67948,5,8,0:2:0:0:
342,204,68142,1,0,1:0:0:0:
202,339,68335,5,8,0:2:0:0:
227,149,68529,1,0,1:0:0:0:
306,321,68723,6,0,B|364:298|364:298|309:252|213:277|198:353,1,256.199989444886,10|0,0:2|0:0,0:0:0:0:
426,368,69110,2,0,P|455:311|399:213,1,170.799992963257,10|0,0:2|1:0,0:0:0:0:
227,149,69497,1,10,0:2:0:0:
306,321,69690,1,0,1:0:0:0:
59,261,69884,2,0,B|-2:272|-14:176|60:149|150:191|136:272,1,256.199989444886,10|0,0:2|0:0,0:0:0:0:
0,382,70271,69,10,0:2:0:0:
91,160,70464,1,0,0:0:0:0:
17,16,70658,2,0,P|34:54|41:96,1,85.3999964816286,10|0,0:2|0:0,0:0:0:0:
135,289,70852,2,0,P|141:246|159:208,1,85.3999964816286,2|0,1:2|0:0,0:0:0:0:
255,23,71045,5,8,0:2:0:0:
165,199,71239,1,0,1:0:0:0:
296,333,71432,5,8,0:2:0:0:
322,333,71528,1,8,0:2:0:0:
348,326,71625,1,2,1:0:0:0:
370,312,71723,1,0,1:0:0:0:
388,292,71819,6,0,B|440:233|416:140|352:124|352:124|390:159|379:210,1,298.199984984437,14|2,0:1|0:2,0:0:0:0:
292,171,72206,2,0,P|275:183|304:175,1,99.3999949948123,8|0,0:2|0:0,0:0:0:0:
477,4,72400,2,0,P|458:48|457:98,1,99.3999949948123,2|0,0:2|0:0,0:0:0:0:
512,262,72593,5,10,0:2:0:0:
383,57,72787,1,0,1:0:0:0:
322,257,72981,1,8,0:2:0:0:
512,145,73174,1,2,1:2:0:0:
298,159,73368,2,0,B|222:179|222:273|222:273|193:184|115:187,1,298.199984984437,10|0,0:2|0:0,0:0:0:0:
104,190,73755,1,8,0:2:0:0:
316,166,73948,1,2,1:2:0:0:
316,166,74045,1,2,0:2:0:0:
316,166,74142,5,10,0:2:0:0:
263,384,74335,1,0,1:0:0:0:
407,164,74529,1,8,0:2:0:0:
367,357,74723,2,0,P|366:304|344:240,1,99.3999949948123,2|0,1:2|0:0,0:0:0:0:
139,93,74916,6,0,P|269:144|294:24,1,298.199984984437,14|0,0:1|0:0,0:0:0:0:
203,65,75303,2,0,P|223:91|216:52,1,99.3999949948123,10|0,0:2|0:0,0:0:0:0:
46,44,75497,1,2,0:2:0:0:
134,218,75690,1,10,0:2:0:0:
39,365,75884,1,0,1:0:0:0:
72,161,76077,1,8,0:2:0:0:
223,230,76271,21,6,1:2:0:0:
223,230,76368,1,0,0:0:0:0:
223,230,76464,2,0,P|260:222|292:219,1,64.3999978381348,2|0,0:2|0:0,0:0:0:0:
423,315,76658,1,0,1:0:0:0:
230,374,76852,1,8,1:2:0:0:
298,219,77045,1,2,1:2:0:0:
190,67,77239,5,10,1:2:0:0:
204,86,77335,1,8,1:2:0:0:
213,108,77432,1,0,1:2:0:0:
217,132,77529,1,8,0:2:0:0:
233,162,77627,5,10,1:2:0:0:
222,175,77723,1,8,1:2:0:0:
216,190,77820,1,0,1:0:0:0:
213,206,77917,1,0,1:2:0:0:
214,223,78013,6,0,P|238:280|372:180,1,298.199984984437,14|0,0:1|0:0,0:0:0:0:
217,132,78400,2,0,P|169:123|121:136,1,99.3999949948123,10|0,0:2|0:0,0:0:0:0:
298,219,78593,1,0,1:0:0:0:
384,96,78787,2,0,P|381:46|364:0,1,99.3999949948123,10|0,0:2|0:0,0:0:0:0:
210,55,78981,1,0,1:0:0:0:
363,166,79174,2,0,P|395:267|385:387,1,198.799989989625,10|0,0:2|1:0,0:0:0:0:
379,376,79464,1,0,1:0:0:0:
379,376,79561,6,0,P|335:390|303:306,1,156.800001914063,10|0,0:2|0:0,0:0:0:0:
487,252,79948,1,10,0:2:0:0:
311,111,80142,2,0,P|264:110|224:132,1,92.3999997180176,2|0,1:2|0:0,0:0:0:0:
120,310,80335,5,8,0:2:0:0:
71,119,80529,1,0,1:0:0:0:
218,0,80723,5,8,0:2:0:0:
169,191,80917,1,0,1:0:0:0:
312,320,81110,22,0,B|267:270|267:270|238:327,1,130.199994834595,14|0,0:1|0:0,0:0:0:0:
323,318,81497,6,0,B|265:253|265:253|226:328,1,172.200002627564,10|0,0:2|0:0,0:0:0:0:
335,317,81884,6,0,B|263:236|263:236|214:329,1,214.200001307373,10|0,1:2|0:0,0:0:0:0:
347,316,82271,6,0,B|261:219|261:219|202:331,1,256.199989444886,10|0,0:2|0:0,0:0:0:0:
150,173,82658,6,0,P|262:218|352:137,1,256.199989444886,10|0,1:2|0:0,0:0:0:0:
242,107,83045,1,10,0:2:0:0:
265,253,83239,1,6,1:1:0:0:
173,88,83432,6,0,P|224:37|294:57,1,151.200003691406,2|0,0:2|0:0,0:0:0:0:
307,42,83819,2,0,P|218:17|153:81,1,193.199993514405,10|0,0:2|0:0,0:0:0:0:
265,253,84206,6,0,P|268:177|242:107,1,151.200003691406,14|0,0:1|0:0,0:0:0:0:
235,98,84593,1,8,0:2:0:0:
455,222,84787,1,0,0:2:0:0:
455,222,84884,1,0,0:2:0:0:
466,243,84981,22,0,L|459:292,1,50.4000012304688,6|0,1:2|0:0,0:0:0:0:
307,42,85368,21,10,1:2:0:0:
300,59,85464,1,8,0:2:0:0:
295,77,85561,1,0,1:0:0:0:
293,96,85658,1,0,1:0:0:0:
293,115,85755,102,0,B|380:107|380:107|418:139|418:139|513:135,1,229.600003503418,14|2,1:1|0:2,0:0:0:0:
353,194,86335,2,0,P|342:232|362:197,1,109.199999333496,4|0,0:2|0:0,0:0:0:0:
260,183,86723,1,0,1:0:0:0:
260,183,86819,1,0,1:0:0:0:
260,183,86916,2,0,P|251:216|239:298,1,109.199999333496,2|0,1:2|0:0,0:0:0:0:
256,313,87303,101,14,0:1:0:0:
256,313,87907,101,2,0:2:0:0:
172,371,88139,2,0,L|38:362,1,134.40000328125,2|0,0:2|0:0,0:0:0:0:
