osu file format v14

[General]
AudioFilename: audio.mp3
AudioLeadIn: 0
PreviewTime: 64755
Countdown: 0
SampleSet: Soft
StackLeniency: 0.4
Mode: 0
LetterboxInBreaks: 0
WidescreenStoryboard: 1

[Editor]
Bookmarks: 16077,17626,19174,20723,22271,23819,25368,27884,28464,31561,34271,38916,40271,40368,40464,40561,40658,40755,53239,59432,63303,65626,74916,78013,81110,87303
DistanceSpacing: 1
BeatDivisor: 4
GridSize: 16
TimelineZoom: 2.22

[Metadata]
Title:Nanairo Symphony (TV Size)
TitleUnicode:七色シンフォニー (TV Size)
Artist:Coalamode.
ArtistUnicode:コアラモード.
Creator:TheOneForce
Version:Reddish Extra
Source:四月は君の嘘
Tags:kelinimo FlyzyStyle shigatsu wa kimi no uso your lie in april opening op japanese female vocalist anime pop jpop j-pop
BeatmapID:2891180
BeatmapSetID:1280262

[Difficulty]
HPDrainRate:5.4
CircleSize:4.4
OverallDifficulty:8.4
ApproachRate:9
SliderMultiplier:2.44
SliderTickRate:1

[Events]
//Background and Video events
0,0,"Reddish_62485661.jpg",0,0
//Break Periods
//Storyboard Layer 0 (Background)
//Storyboard Layer 1 (Fail)
//Storyboard Layer 2 (Pass)
//Storyboard Layer 3 (Foreground)
//Storyboard Layer 4 (Overlay)
//Storyboard Sound Samples

[TimingPoints]
594,387.096774193548,4,2,14,54,1,0
1174,-227.272727272727,4,2,14,54,0,0
2335,-294.117647058824,4,2,14,54,0,0
2626,-227.272727272727,4,2,14,5,0,0
2723,-156.25,4,2,14,54,0,0
3013,-156.25,4,2,14,5,0,0
3110,-156.25,4,2,14,54,0,0
3497,-416.666666666667,4,2,14,54,0,0
4464,-135.135135135135,4,2,14,64,0,0
4658,-106.382978723404,4,2,14,5,0,0
4755,-106.382978723404,4,2,14,74,0,0
4948,-106.382978723404,4,2,14,5,0,0
5045,-106.382978723404,4,2,14,74,0,0
5239,-106.382978723404,4,2,14,64,0,0
6013,-106.382978723404,4,2,14,44,0,0
6303,-106.382978723404,4,2,14,54,0,0
6593,-106.382978723404,4,2,14,64,0,0
6787,-156.249999999999,4,2,14,64,0,0
7077,-156.249999999999,4,2,14,5,0,0
7174,-135.135135135134,4,2,14,64,0,0
7561,-106.382978723404,4,2,14,64,0,0
7852,-106.382978723404,4,2,14,5,0,0
7948,-135.135135135135,4,2,14,64,0,0
8239,-135.135135135135,4,2,14,5,0,0
8335,-156.25,4,2,14,64,0,0
8916,-156.25,4,2,14,64,0,0
9206,-156.25,4,2,14,5,0,0
9303,-227.272727272727,4,2,14,64,0,0
9497,-227.272727272727,4,2,14,64,0,0
9884,-156.25,4,2,14,64,0,0
10174,-156.25,4,2,14,5,0,0
10271,-135.135135135135,4,2,14,64,0,0
10658,-119.047619047619,4,2,14,64,0,0
10948,-119.047619047619,4,2,14,5,0,0
11045,-96.1538461538461,4,2,14,64,0,0
11335,-96.1538461538461,4,2,14,5,0,0
11432,-119.047619047619,4,2,14,64,0,0
12206,-135.135135135135,4,2,14,64,0,0
12593,-227.272727272727,4,2,14,64,0,0
12884,-227.272727272727,4,2,14,5,0,0
12981,-119.047619047619,4,2,14,64,0,0
13948,-119.047619047619,4,2,14,5,0,0
14045,-119.047619047619,4,2,14,64,0,0
14239,-119.047619047619,4,2,14,5,0,0
14335,-119.047619047619,4,2,14,64,0,0
14723,-96.1538461538461,4,2,14,64,0,0
15206,-96.1538461538461,4,2,14,5,0,0
15303,-119.047619047619,4,2,14,64,0,0
16077,-156.25,4,2,14,44,0,0
16368,-156.25,4,2,14,5,0,0
16464,-156.25,4,2,14,44,0,0
21303,-135.135135135135,4,2,14,44,0,0
21593,-156.25,4,2,14,5,0,0
21690,-156.25,4,2,14,44,0,0
26916,-106.382978723404,4,2,14,44,0,0
27013,-156.25,4,2,14,5,0,0
27110,-96.1538461538461,4,2,14,44,0,0
28464,-135.135135135135,4,2,14,44,0,0
28561,-135.135135135135,4,2,14,5,0,0
28658,-135.135135135135,4,2,14,44,0,0
28755,-135.135135135135,4,2,14,5,0,0
28852,-135.135135135135,4,2,14,44,0,0
28949,-135.135135135135,4,2,14,5,0,0
29045,-135.135135135135,4,2,14,44,0,0
29142,-135.135135135135,4,2,14,5,0,0
29239,-135.135135135135,4,2,14,44,0,0
29336,-135.135135135135,4,2,14,5,0,0
29432,-135.135135135135,4,2,14,44,0,0
29529,-135.135135135135,4,2,14,5,0,0
29626,-135.135135135135,4,2,14,44,0,0
29723,-135.135135135135,4,2,14,5,0,0
29819,-135.135135135135,4,2,14,44,0,0
29916,-135.135135135135,4,2,14,5,0,0
30013,-135.135135135135,4,2,14,44,0,0
30110,-135.135135135135,4,2,14,5,0,0
30206,-135.135135135135,4,2,14,44,0,0
30303,-135.135135135135,4,2,14,5,0,0
30400,-135.135135135135,4,2,14,44,0,0
30497,-135.135135135135,4,2,14,5,0,0
30593,-135.135135135135,4,2,14,44,0,0
30690,-135.135135135135,4,2,14,5,0,0
30787,-156.25,4,2,14,44,0,0
31561,-135.135135135135,4,2,14,44,0,0
31948,-156.25,4,2,14,44,0,0
33690,-135.135135135135,4,2,14,44,0,0
33981,-135.135135135135,4,2,14,5,0,0
34077,-156.25,4,2,14,44,0,0
35335,-156.25,4,2,14,44,0,0
35432,-156.25,4,2,14,44,0,0
38916,-156.25,4,2,14,64,0,0
39110,-156.25,4,2,14,54,0,0
39303,-156.25,4,2,14,44,0,0
39497,-156.25,4,2,14,54,0,0
39690,-156.25,4,2,14,64,0,0
39884,-156.25,4,2,14,74,0,0
40077,-156.25,4,2,14,54,0,0
40852,-80.6451612903226,4,2,14,64,0,1
40948,-80.6451612903226,4,2,14,64,0,0
41432,-87.719298245614,4,2,14,64,0,0
41626,-80.6451612903226,4,2,14,64,0,0
41916,-80.6451612903226,4,2,14,5,0,0
42013,-80.6451612903226,4,2,14,64,0,0
42206,-119.047619047619,4,2,14,64,0,0
42303,-119.047619047619,4,2,14,5,0,0
42400,-87.719298245614,4,2,14,64,0,0
42593,-87.719298245614,4,2,14,5,0,0
42690,-119.047619047619,4,2,14,64,0,0
42884,-119.047619047619,4,2,14,5,0,0
42981,-416.666666666667,4,2,14,64,0,0
43271,-416.666666666667,4,2,14,5,0,0
43368,-185.185185185185,4,2,14,64,0,0
43948,-96.1538461538461,4,2,14,64,0,0
44529,-135.135135135135,4,2,14,64,0,0
44626,-135.135135135135,4,2,14,5,0,0
44723,-87.719298245614,4,2,14,64,0,0
45013,-87.719298245614,4,2,14,5,0,0
45110,-87.719298245614,4,2,14,64,0,0
45303,-156.25,4,2,14,64,0,0
45400,-156.25,4,2,14,5,0,0
45497,-106.382978723404,4,2,14,64,0,0
45884,-156.25,4,2,14,64,0,0
45981,-156.25,4,2,14,5,0,0
46077,-416.666666666667,4,2,14,64,0,0
46367,-416.666666666667,4,2,14,5,0,0
46464,-185.185185185185,4,2,14,64,0,0
47045,-96.153846153846,4,2,14,64,0,0
47819,-106.382978723404,4,2,14,64,0,0
48110,-106.382978723404,4,2,14,5,0,0
48206,-106.382978723404,4,2,14,64,0,0
48400,-156.25,4,2,14,64,0,0
48497,-156.25,4,2,14,5,0,0
48593,-119.047619047619,4,2,14,64,0,0
48884,-119.047619047619,4,2,14,5,0,0
48981,-156.25,4,2,14,64,0,0
49368,-106.382978723404,4,2,14,64,0,0
49658,-106.382978723404,4,2,14,5,0,0
49755,-185.185185185185,4,2,14,64,0,0
49852,-185.185185185185,4,2,14,5,0,0
49948,-185.185185185185,4,2,14,64,0,0
50142,-96.1538461538461,4,2,14,64,0,0
50432,-96.1538461538461,4,2,14,5,0,0
50529,-106.382978723404,4,2,14,64,0,0
50916,-119.047619047619,4,2,14,64,0,0
51206,-119.047619047619,4,2,14,5,0,0
51303,-135.135135135135,4,2,14,64,0,0
51690,-80.6451612903226,4,2,14,64,0,0
52271,-96.1538461538461,4,2,14,64,0,0
52368,-96.1538461538461,4,2,14,5,0,0
52464,-96.1538461538461,4,2,14,64,0,0
52561,-96.1538461538461,4,2,14,5,0,0
52658,-96.1538461538461,4,2,14,64,0,0
53239,-80.6451612903226,4,2,14,64,0,1
53335,-80.6451612903226,4,2,14,64,0,0
53626,-87.719298245614,4,2,14,64,0,0
54013,-80.6451612903226,4,2,14,64,0,0
54593,-119.047619047619,4,2,14,64,0,0
54690,-119.047619047619,4,2,14,5,0,0
54787,-87.719298245614,4,2,14,64,0,0
54980,-87.719298245614,4,2,14,5,0,0
55077,-96.1538461538461,4,2,14,64,0,0
55271,-96.1538461538461,4,2,14,5,0,0
55368,-416.666666666667,4,2,14,64,0,0
55658,-416.666666666667,4,2,14,5,0,0
55755,-156.25,4,2,14,64,0,0
56335,-87.719298245614,4,2,14,64,0,0
56916,-135.135135135135,4,2,14,64,0,0
57013,-135.135135135135,4,2,14,5,0,0
57110,-119.047619047619,4,2,14,64,0,0
57303,-119.047619047619,4,2,14,5,0,0
57400,-119.047619047619,4,2,14,64,0,0
57497,-106.382978723404,4,2,14,64,0,0
57593,-106.382978723404,4,2,14,5,0,0
57690,-96.153846153846,4,2,14,64,0,0
57787,-96.153846153846,4,2,14,5,0,0
57884,-87.719298245614,4,2,14,64,0,0
58174,-87.719298245614,4,2,14,5,0,0
58271,-106.382978723404,4,2,14,64,0,0
58368,-106.382978723404,4,2,14,5,0,0
58464,-106.382978723404,4,2,14,64,0,0
58658,-106.382978723404,4,2,14,64,0,0
58755,-106.382978723404,4,2,14,5,0,0
58852,-135.135135135135,4,2,14,64,0,0
59432,-87.7192982456139,4,2,14,74,0,1
59529,-87.7192982456139,4,2,14,74,0,0
60593,-69.4444444444444,4,2,14,74,0,0
60884,-69.4444444444444,4,2,14,5,0,0
60981,-106.382978723404,4,2,14,74,0,0
61368,-119.047619047619,4,2,14,74,0,0
61755,-135.135135135135,4,2,14,74,0,0
62142,-96.1538461538461,4,2,14,74,0,0
62916,-156.25,4,2,14,74,0,0
63303,-69.4444444444444,4,2,14,94,0,0
63497,-69.4444444444444,4,2,14,5,0,0
63593,-87.719298245614,4,2,14,84,0,0
63787,-87.719298245614,4,2,14,5,0,0
63884,-87.7192982456139,4,2,14,74,0,0
63981,-87.7192982456139,4,2,14,5,0,0
64077,-106.382978723404,4,2,14,84,0,0
64755,-106.382978723404,4,2,14,74,0,0
65626,-80.6451612903226,4,2,14,94,0,1
65916,-80.6451612903226,4,2,14,5,0,1
66013,-80.6451612903226,4,2,14,94,0,1
67174,-74.6268656716418,4,2,14,94,0,1
67464,-74.6268656716418,4,2,14,5,0,1
67561,-80.6451612903226,4,2,14,94,0,1
68723,-87.719298245614,4,2,14,94,0,1
69497,-80.6451612903226,4,2,14,94,0,1
70271,-69.4444444444444,4,2,14,94,0,1
70561,-69.4444444444444,4,2,14,5,0,1
70658,-80.6451612903226,4,2,14,94,0,1
71626,-96.1538461538461,4,2,14,94,0,1
71819,-80.6451612903226,4,2,14,94,0,1
72013,-80.6451612903226,4,2,14,5,0,1
72110,-80.6451612903226,4,2,14,94,0,1
72303,-80.6451612903226,4,2,14,5,0,1
72400,-80.6451612903226,4,2,14,94,0,1
72787,-80.6451612903226,4,2,14,5,0,1
72884,-80.6451612903226,4,2,14,94,0,1
73077,-80.6451612903226,4,2,14,5,0,1
73174,-80.6451612903226,4,2,14,94,0,1
73658,-80.6451612903226,4,2,14,5,0,1
73755,-80.6451612903226,4,2,14,94,0,1
74819,-80.6451612903226,4,2,14,94,0,0
74916,-64.9350649350649,4,2,14,94,0,1
75303,-74.6268656716418,4,2,14,94,0,1
75400,-74.6268656716418,4,2,14,5,0,1
75497,-74.6268656716418,4,2,14,94,0,1
75594,-74.6268656716418,4,2,14,5,0,1
75690,-74.6268656716418,4,2,14,94,0,1
76658,-87.719298245614,4,2,14,94,0,1
77964,-87.719298245614,4,2,14,94,0,0
78013,-80.6451612903226,4,2,14,94,0,1
78303,-80.6451612903226,4,2,14,5,0,1
78400,-80.6451612903226,4,2,14,94,0,1
79561,-74.6268656716418,4,2,14,94,0,1
79852,-74.6268656716418,4,2,14,5,0,1
79948,-80.6451612903226,4,2,14,94,0,1
81013,-80.6451612903226,4,2,14,94,0,0
81110,-106.382978723404,4,2,14,94,0,1
81400,-106.382978723404,4,2,14,5,0,1
81497,-96.1538461538461,4,2,14,94,0,1
81787,-96.1538461538461,4,2,14,5,0,1
81884,-80.6451612903226,4,2,14,94,0,1
82174,-80.6451612903226,4,2,14,5,0,1
82271,-64.9350649350649,4,2,14,94,0,1
82561,-64.9350649350649,4,2,14,5,0,1
82658,-74.6268656716418,4,2,14,94,0,1
83432,-80.6451612903226,4,2,14,94,0,1
84206,-74.6268656716418,4,2,14,94,0,1
84981,-69.4444444444444,4,2,14,94,0,1
85755,-135.135135135135,4,2,14,84,0,0
87303,402.684563758389,4,2,14,84,1,0
87303,-134.048257372654,4,2,14,84,0,1
87403,-134.048257372654,4,2,14,84,0,0
87907,465.116279069767,4,2,14,84,1,0
88139,387.096774193548,4,2,14,84,1,0
89300,-133.994372236366,4,2,14,5,0,0

[Colours]
Combo1 : 235,18,46
Combo2 : 255,96,28
Combo3 : 255,242,79
Combo4 : 60,218,57
Combo5 : 148,235,255
Combo6 : 0,123,234
Combo7 : 193,96,255
Combo8 : 255,90,169

[HitObjects]
259,344,594,117,2,1:2:0:0:
325,310,787,1,2,0:2:0:0:
341,237,981,1,2,0:2:0:0:
238,147,1174,6,0,P|252:202|257:252,1,107.360003276367,2|2,1:2|0:2,0:0:0:0:
256,261,1948,1,2,1:2:0:0:
193,309,2142,1,2,0:2:0:0:
193,309,2335,2,0,P|164:315|134:332,1,62.2200003797607,2|0,0:2|0:0,0:0:0:0:
98,353,2723,6,0,P|119:296|99:233,1,117.12,2|0,1:2|0:0,0:0:0:0:
89,229,3110,1,2,0:2:0:0:
10,208,3303,1,2,0:2:0:0:
88,146,3497,6,0,P|137:162|170:221,1,117.12,2|0,1:2|0:0,0:0:0:0:
215,65,4464,6,0,B|252:50|252:50|308:71,1,90.2800022041016,2|0,0:2|0:0,0:0:0:0:
405,70,4755,2,0,B|358:90|358:90|288:63,1,114.679998250122,2|0,0:2|0:0,0:0:0:0:
201,81,5045,1,2,0:2:0:0:
406,180,5239,5,2,0:2:0:0:
380,277,5432,1,2,0:2:0:0:
354,374,5626,1,2,0:2:0:0:
354,374,6013,5,2,0:2:0:0:
487,337,6303,1,2,0:2:0:0:
487,337,6400,1,2,0:0:0:0:
468,249,6593,1,2,0:2:0:0:
366,293,6787,22,0,L|248:250,1,117.12,10|0,0:2|0:0,0:0:0:0:
141,258,7174,2,0,P|188:221|185:165,1,90.2800022041016,2|0,0:2|0:0,0:0:0:0:
157,16,7561,2,0,B|259:-13|210:79|312:48,1,172.019997375183,2|0,0:2|0:0,0:0:0:0:
430,15,7948,2,0,B|409:12|387:0|387:0|407:41|410:86,1,135.420003306152,2|0,0:2|0:0,0:0:0:0:
402,104,8335,5,2,1:2:0:0:
499,84,8723,1,2,0:2:0:0:
511,287,8916,2,0,B|454:281|496:225|417:216,1,117.12,2|0,0:2|0:0,0:0:0:0:
414,236,9303,1,2,0:2:0:0:
414,236,9497,2,0,L|346:245,1,53.6800016381836,2|0,0:2|0:0,0:0:0:0:
269,62,9884,6,0,P|217:78|200:139,1,117.12,10|0,0:2|0:0,0:0:0:0:
243,231,10271,2,0,B|217:206|217:206|165:222,1,90.2800022041016,2|0,0:2|0:0,0:0:0:0:
47,297,10658,2,0,B|31:294|13:294|13:294|17:247|80:234|106:275,1,153.719995308838,2|0,0:2|0:0,0:0:0:0:
144,335,11045,2,0,P|187:380|286:319,1,190.319998838379,2|0,0:2|0:0,0:0:0:0:
288,305,11432,5,2,1:2:0:0:
352,378,11819,1,2,0:2:0:0:
462,195,12013,1,2,0:2:0:0:
462,195,12206,2,0,P|422:218|415:280,1,90.2800022041016,2|0,0:2|0:0,0:0:0:0:
360,133,12593,6,0,P|357:172|331:202,1,80.5200024572755,2|0,0:2|0:0,0:0:0:0:
500,98,12981,6,0,B|451:115|451:115|381:41|381:41|333:58,1,204.959993745117,6|0,1:2|2:0,2:0:0:0:
297,166,13561,1,2,0:2:0:0:
305,191,13658,1,2,0:2:0:0:
313,216,13755,2,0,P|323:166|362:133,1,102.479996872559,2|0,0:2|0:0,0:0:0:0:
360,299,14045,2,0,P|311:315|263:298,1,102.479996872559,2|0,0:2|0:0,0:0:0:0:
409,217,14335,1,6,0:2:0:0:
420,225,14723,5,2,1:2:0:0:
219,108,14916,2,0,B|179:116|171:158|171:158|230:190|207:256,1,190.319998838379,14|0,1:1|0:0,0:0:0:0:
195,269,15303,2,0,P|154:242|107:264,1,102.479996872559,2|2,1:2|0:2,0:0:0:0:
101,291,15593,1,8,0:2:0:0:
101,291,15690,1,2,1:2:0:0:
0,247,15884,1,10,1:2:0:0:
53,64,16077,6,0,L|166:33,1,117.12,6|0,1:1|0:0,0:0:0:0:
182,46,16464,1,2,3:2:0:0:
243,96,16658,1,2,1:2:0:0:
347,19,16852,2,0,L|262:7,1,78.08,2|2,3:2|0:2,0:0:0:0:
386,125,17239,2,0,L|438:57,1,78.08,2|2,3:2|0:2,0:0:0:0:
255,105,17626,22,0,B|285:124|285:124|291:164,1,78.08,2|2,1:2|0:2,0:0:0:0:
206,232,18013,1,2,3:2:0:0:
182,156,18206,1,2,1:2:0:0:
95,214,18400,2,0,P|76:262|84:298,1,78.08,2|2,3:2|0:2,0:0:0:0:
134,372,18787,2,0,B|147:341|147:341|195:328,1,78.08,2|2,3:2|0:2,0:0:0:0:
266,384,19077,1,2,0:0:0:0:
266,384,19174,102,0,B|353:385|308:329|402:319,1,156.16,2|0,1:2|3:0,0:0:0:0:
462,187,19755,2,0,L|415:339,1,156.16,0|0,1:0|0:0,0:0:0:0:
352,243,20335,2,0,L|375:169,1,78.08,0|0,3:0|0:0,0:0:0:0:
512,60,20723,102,0,B|476:66|476:66|469:63|469:63|426:70,1,78.08,2|2,1:2|0:2,0:0:0:0:
475,148,21110,1,2,3:2:0:0:
298,13,21303,2,0,B|316:9|325:-8|325:-8|360:28|341:85,1,135.420003306152,2|0,1:2|0:0,0:0:0:0:
334,108,21690,1,2,0:2:0:0:
260,141,21884,1,2,3:2:0:0:
222,29,22077,1,2,0:2:0:0:
215,40,22174,1,2,0:0:0:0:
210,52,22271,22,0,B|172:52|163:82|163:82|168:114|145:135,1,117.12,2|0,1:2|0:0,0:0:0:0:
127,145,22658,1,2,3:2:0:0:
48,91,22852,1,2,1:2:0:0:
23,240,23045,2,0,P|44:208|53:170,1,78.08,2|2,3:2|0:2,0:0:0:0:
152,295,23432,2,0,P|144:257|123:224,1,78.08,2|2,3:2|0:2,0:0:0:0:
87,353,23819,102,0,P|117:375|156:381,1,78.08,2|2,1:2|0:2,0:0:0:0:
243,373,24206,1,2,3:2:0:0:
231,294,24400,1,2,1:2:0:0:
347,255,24593,2,0,B|350:299|318:323,1,78.08,2|2,3:2|0:2,0:0:0:0:
420,309,24981,2,0,B|455:332|492:316,1,78.08,2|2,3:2|0:2,0:0:0:0:
486,203,25271,1,2,0:0:0:0:
486,203,25368,102,0,B|488:227|461:240|461:240|437:228|426:203|431:170|450:147,1,156.16,2|0,1:2|3:0,0:0:0:0:
439,59,25948,2,0,P|384:102|354:182,1,156.16,2|0,1:2|0:0,0:0:0:0:
276,204,26529,2,0,P|276:158|287:120,1,78.08,0|0,3:0|0:0,0:0:0:0:
317,49,26819,21,2,0:0:0:0:
317,49,26916,2,0,B|292:19|292:19|261:24,1,57.3399991250611,2|0,1:2|0:0,0:0:0:0:
87,0,27110,102,0,B|105:12|77:40|68:57|68:57|68:38|60:1|87:0,1,126.879999225586,2|0,0:2|3:0,0:0:0:0:
175,179,27497,2,0,B|193:165|165:137|156:120|156:120|156:139|148:176|175:179,1,126.879999225586,2|0,1:2|3:0,0:0:0:0:
30,176,27884,101,2,0:2:0:0:
131,248,28077,1,2,3:2:0:0:
219,76,28271,1,2,0:2:0:0:
378,205,28464,22,0,P|363:228|343:246,1,45.1400011020508,6|0,1:1|0:0,0:0:0:0:
341,364,28658,2,0,P|326:339|322:314,1,45.1400011020508,2|0,0:2|0:0,0:0:0:0:
219,252,28852,2,0,P|247:252|272:260,1,45.1400011020508,2|0,3:2|0:0,0:0:0:0:
293,113,29045,102,0,P|306:94|324:80,1,45.1400011020508,2|0,1:2|0:0,0:0:0:0:
417,87,29239,2,0,P|427:107|430:130,1,45.1400011020508,2|0,3:2|0:0,0:0:0:0:
378,205,29432,2,0,P|355:204|334:195,1,45.1400011020508,2|0,0:2|0:0,0:0:0:0:
200,34,29626,102,0,L|126:49,1,45.1400011020508,2|0,3:2|0:0,0:0:0:0:
83,91,29819,2,0,L|132:146,1,45.1400011020508,2|0,0:2|0:0,0:0:0:0:
192,164,30013,2,0,L|216:92,1,45.1400011020508,2|0,1:2|0:0,0:0:0:0:
59,255,30206,22,0,L|103:247,1,45.1400011020508,2|0,0:2|0:0,0:0:0:0:
204,324,30400,2,0,L|175:289,1,45.1400011020508,2|0,3:2|0:0,0:0:0:0:
192,164,30593,2,0,L|176:206,1,45.1400011020508,2|0,1:2|0:0,0:0:0:0:
106,327,30787,101,2,3:2:0:0:
242,249,30981,1,2,0:2:0:0:
0,163,31368,101,2,0:2:0:0:
106,33,31561,2,0,B|225:-7|161:70|284:25,1,180.560004408203,2|0,1:2|3:0,0:0:0:0:
488,68,32142,2,0,P|436:11|360:6,1,156.16,2|0,1:2|0:0,0:0:0:0:
411,176,32723,2,0,P|409:137|392:103,1,78.08,0|0,3:0|0:0,0:0:0:0:
233,156,33110,22,0,L|311:165,1,78.08,2|2,1:2|0:2,0:0:0:0:
195,262,33497,1,2,3:2:0:0:
35,88,33690,2,0,P|97:112|127:171,1,135.420003306152,2|0,1:2|0:0,0:0:0:0:
127,194,34077,1,2,0:2:0:0:
183,83,34271,1,2,3:2:0:0:
27,189,34464,1,2,0:2:0:0:
237,237,34658,102,0,L|226:159,1,78.08,2|2,1:2|0:2,0:0:0:0:
303,53,35045,1,2,3:2:0:0:
392,87,35239,1,2,1:2:0:0:
346,215,35432,102,0,P|363:250|393:275,1,78.08,2|2,3:2|0:2,0:0:0:0:
323,345,35819,2,0,P|355:367|394:373,1,78.08,2|2,3:2|0:2,0:0:0:0:
325,127,36206,2,0,P|279:146|257:199,1,78.08,2|2,1:2|0:2,0:0:0:0:
143,200,36593,21,2,3:2:0:0:
221,251,36787,1,2,1:2:0:0:
161,353,36981,2,0,L|107:296,1,78.08,2|2,3:2|0:2,0:0:0:0:
0,324,37368,2,0,L|18:248,1,78.08,2|2,3:2|0:2,0:0:0:0:
42,66,37755,102,0,P|95:44|137:62,1,78.08,2|2,1:2|0:2,0:0:0:0:
168,110,38142,1,2,3:2:0:0:
317,38,38335,2,0,B|296:31|268:40|256:60|256:60|247:169,1,156.16,2|0,1:2|0:0,0:0:0:0:
461,228,38916,101,6,3:2:0:0:
417,153,39110,1,2,0:2:0:0:
317,384,39303,21,6,1:2:0:0:
332,169,39497,1,10,0:3:0:0:
461,228,39690,1,6,0:3:0:0:
503,152,39884,1,6,1:1:0:0:
506,155,40271,101,2,0:2:0:0:
464,231,40465,1,10,0:3:0:0:
335,172,40658,1,6,0:3:0:0:
75,366,40852,102,0,B|181:347|156:201|71:310|45:165|152:146,1,302.559987996582,6|0,1:1|0:0,0:0:0:0:
152,145,41432,1,6,1:2:0:0:
351,353,41626,22,0,B|393:363|410:319|410:319|377:293|335:306|341:313|298:327|266:300,1,226.919990997437,2|0,0:2|0:0,0:0:0:0:
252,286,42013,1,8,0:2:0:0:
386,28,42206,102,0,P|365:8|338:-1,1,51.2399984362793,2|0,0:2|0:0,0:0:0:0:
323,76,42400,2,0,B|313:102|323:131|323:131|281:149|248:113,1,139.079998302246,2|0,1:2|0:0,0:0:0:0:
165,79,42690,2,0,P|214:76|248:113,1,102.479996872559,2|0,0:2|0:0,0:0:0:0:
256,143,42981,102,0,L|249:185,1,43.9200010722657,6|0,1:2|0:0,0:0:0:0:
246,208,43368,1,2,1:2:0:0:
323,76,43561,1,10,0:3:0:0:
443,313,43755,1,6,0:3:0:0:
418,102,43948,22,0,B|452:90|464:50|464:50|481:149|402:133|416:217,1,253.759998451172,2|0,1:2|0:0,0:0:0:0:
269,333,44529,102,0,P|250:315|221:312,1,45.1400011020508,6|0,1:2|0:0,0:0:0:0:
99,356,44723,2,0,B|139:346|168:371|168:371|132:334|138:276|170:248,1,208.619997453369,2|0,0:2|0:0,0:0:0:0:
188,235,45110,1,8,0:2:0:0:
45,17,45303,102,0,P|60:47|53:80,1,39.04,2|0,0:2|0:0,0:0:0:0:
14,115,45497,2,0,B|38:134|70:135|95:122|95:122|102:109|114:102,1,114.679998250122,2|2,1:2|0:2,0:0:0:0:
233,17,45884,22,0,P|248:4|267:0,1,39.04,2|0,0:2|0:0,0:0:0:0:
298,9,46077,102,0,L|301:51,1,43.9200010722657,6|0,1:2|0:0,0:0:0:0:
303,73,46464,1,2,1:2:0:0:
205,157,46658,1,10,0:3:0:0:
412,132,46852,1,4,0:3:0:0:
417,335,47045,102,0,B|382:283|418:229|418:229|327:223|312:301,1,253.759998451172,2|0,1:2|0:0,0:0:0:0:
312,298,47626,1,6,1:2:0:0:
183,382,47819,22,0,P|152:300|166:215,1,172.019997375183,2|0,0:2|0:0,0:0:0:0:
176,199,48206,1,8,0:2:0:0:
312,298,48400,2,0,P|294:289|274:289,1,39.04,2|0,0:2|0:0,0:0:0:0:
259,207,48593,102,0,P|303:169|290:67,1,153.719995308838,2|0,1:2|0:0,0:0:0:0:
281,65,48981,2,0,P|240:90|186:76,1,78.08,2|0,0:2|1:0,0:0:0:0:
0,187,49368,102,0,B|11:146|11:146|97:132|97:132|108:91,1,172.019997375183,2|0,1:2|0:0,0:0:0:0:
136,76,49755,2,0,L|122:127,1,32.9400008041992,14|0,0:2|0:0,0:0:0:0:
52,269,49948,21,2,0:2:0:0:
52,269,50045,1,0,1:2:0:0:
52,269,50142,2,0,B|-6:247|-11:315|40:337|96:317|114:268,1,190.319998838379,2|0,1:2|0:0,0:0:0:0:
129,246,50529,2,0,P|194:210|240:229,1,114.679998250122,2|4,0:2|1:2,0:0:0:0:
481,269,50916,102,0,P|481:318|405:295,1,153.719995308838,2|0,0:2|0:0,0:0:0:0:
394,273,51303,2,0,P|338:264|294:298,1,90.2800022041016,10|0,0:2|0:2,0:0:0:0:
463,84,51690,102,0,B|488:102|480:132|480:132|449:140|425:120|425:120|392:98|355:112|355:112|327:125|298:110|298:110|298:78|327:67,1,302.559987996582,2|0,1:2|0:0,0:0:0:0:
139,93,52271,2,0,P|152:118|188:135,1,63.439999612793,6|0,1:2|0:0,0:0:0:0:
218,48,52464,2,0,P|236:20|262:-4,1,63.439999612793,2|0,0:2|0:0,0:0:0:0:
404,0,52658,1,8,0:3:0:0:
382,184,52852,21,8,1:2:0:0:
373,227,52948,1,8,1:2:0:0:
364,270,53044,1,4,0:3:0:0:
89,280,53239,102,0,B|71:260|42:263|42:263|60:216|123:203|177:248|122:299|172:340|227:333,1,302.559987996582,6|0,1:1|0:0,0:0:0:0:
226,333,53819,1,2,1:2:0:0:
356,108,54013,102,0,B|429:99|448:170|448:170|454:174|454:174|447:171|447:171|399:168|374:211,1,226.919990997437,2|2,0:2|0:2,0:0:0:0:
370,231,54400,1,8,0:2:0:0:
118,39,54593,22,0,P|106:61|103:87,1,51.2399984362793,2|0,0:2|0:0,0:0:0:0:
182,85,54787,2,0,P|245:125|262:199,1,139.079998302246,2|0,1:2|0:0,0:0:0:0:
258,207,55077,2,0,P|196:176|130:194,1,126.879999225586,2|0,0:2|0:0,0:0:0:0:
127,200,55368,102,0,L|119:247,1,43.9200010722657,6|0,1:2|0:0,0:0:0:0:
116,261,55755,1,2,1:2:0:0:
258,207,55948,1,10,0:3:0:0:
297,384,56142,1,6,0:3:0:0:
454,257,56335,102,0,B|510:266|513:338|459:372|390:352|354:290|374:228,1,278.159996604492,2|0,1:2|0:0,0:0:0:0:
465,79,56916,2,0,P|446:67|424:64,1,45.1400011020508,4|0,1:2|0:0,0:0:0:0:
404,75,57110,22,0,B|364:108|364:108|285:89,1,102.479996872559,2|0,0:2|0:0,0:0:0:0:
216,48,57400,1,2,0:2:0:0:
216,48,57497,2,0,P|236:35|269:33,1,57.3399991250611,8|0,0:2|0:0,0:0:0:0:
214,125,57690,2,0,P|183:121|157:103,1,63.439999612793,2|0,0:2|0:0,0:0:0:0:
38,63,57884,102,0,B|63:74|94:50|90:21|90:21|56:40|51:106|72:137,1,208.619997453369,2|0,1:2|0:0,0:0:0:0:
86,163,58271,2,0,P|11:155|-6:168,1,57.3399991250611,2|0,0:2|0:0,0:0:0:0:
5,158,58464,1,4,1:2:0:0:
102,259,58658,2,0,P|177:251|194:264,1,57.3399991250611,2|0,0:2|0:0,0:0:0:0:
185,279,58852,1,8,0:3:0:0:
47,377,59045,1,10,0:3:0:0:
0,286,59239,1,4,0:3:0:0:
292,264,59432,70,0,B|267:249|297:229|302:198|302:198|297:229|317:258|292:264,1,139.079998302246,6|0,1:1|0:0,0:0:0:0:
135,125,59819,102,0,B|159:110|129:90|124:59|124:59|129:90|109:119|135:125,1,139.079998302246,2|0,0:2|1:0,0:0:0:0:
349,57,60206,6,0,B|323:41|354:21|359:-9|359:-9|354:21|374:50|349:57,1,139.079998302246,2|0,1:2|0:0,0:0:0:0:
345,201,60593,70,0,P|207:195|296:260,1,263.520006433594,10|0,0:2|0:0,0:0:0:0:
163,303,60981,22,0,P|166:341|155:307,1,114.679998250122,2|0,1:2|0:0,0:0:0:0:
424,241,61368,6,0,P|436:273|430:241,1,102.479996872559,2|0,0:2|1:0,0:0:0:0:
270,155,61755,102,0,P|274:186|264:156,1,90.2800022041016,2|0,1:2|0:0,0:0:0:0:
493,116,62142,38,0,B|380:90|464:31|352:6,1,190.319998838379,10|0,0:2|0:0,0:0:0:0:
335,14,62529,21,2,1:2:0:0:
277,80,62723,1,0,1:0:0:0:
180,192,62916,1,8,0:2:0:0:
180,192,63303,102,0,P|256:155|332:192,1,175.680004289063,6|0,1:1|0:0,0:0:0:0:
316,200,63593,22,0,P|256:171|195:200,1,139.079998302246,2|0,1:2|0:0,0:0:0:0:
217,208,63884,6,0,P|256:189|295:208,1,69.5399991511231,2|0,1:2|0:0,0:0:0:0:
312,333,64077,21,10,1:2:0:0:
177,282,64271,1,10,1:2:0:0:
44,231,64465,1,10,1:2:0:0:
0,72,64852,37,10,1:2:0:0:
27,88,64948,1,8,0:2:0:0:
54,104,65045,1,0,1:0:0:0:
81,120,65142,1,2,1:2:0:0:
112,55,65239,5,8,1:2:0:0:
148,78,65335,1,8,0:2:0:0:
185,100,65432,1,10,0:3:0:0:
201,95,65529,1,4,0:3:0:0:
218,90,65626,6,0,B|272:66|322:113|292:128|348:183|417:154,1,226.919990997437,14|0,1:1|0:0,0:0:0:0:
512,65,66013,2,0,B|456:56|422:33|422:33|383:71,1,151.279993998291,10|0,0:2|1:0,0:0:0:0:
235,173,66400,5,10,0:2:0:0:
332,2,66593,1,0,1:0:0:0:
223,194,66787,1,10,0:2:0:0:
107,89,66981,1,0,1:0:0:0:
67,320,67174,6,0,B|131:292|132:225|132:225|155:287|225:291,1,245.219988400544,10|0,0:2|0:0,0:0:0:0:
237,377,67561,1,10,0:2:0:0:
342,207,67755,2,0,B|296:186|260:155|260:155|245:178|223:193,1,151.279993998291,2|10,0:2|0:2,0:0:0:0:
306,287,68142,1,0,1:0:0:0:
284,85,68335,1,8,0:2:0:0:
360,216,68529,1,0,1:0:0:0:
101,101,68723,6,0,P|17:136|5:206,1,139.079998302246,10|0,0:2|0:0,0:0:0:0:
191,45,69110,2,0,P|131:-1|55:6,1,139.079998302246,10|0,0:2|1:0,0:0:0:0:
193,199,69497,5,10,0:2:0:0:
256,105,69690,1,0,1:0:0:0:
86,184,69884,1,10,0:2:0:0:
234,384,70077,1,0,1:0:0:0:
408,108,70271,22,0,B|368:82|319:122|341:168|341:168|408:194|393:284,1,263.520006433594,10|0,0:2|0:0,0:0:0:0:
385,300,70658,1,10,0:2:0:0:
499,75,70852,2,0,B|508:100|521:119|521:119|492:156|492:156|508:179|513:207,1,151.279993998291,2|8,1:2|0:2,0:0:0:0:
460,0,71239,1,0,1:0:0:0:
264,88,71432,1,8,1:2:0:0:
249,123,71529,1,8,0:2:0:0:
238,152,71626,2,0,P|259:184|265:246,1,63.439999612793,2|0,1:0|1:0,0:0:0:0:
299,326,71819,6,0,B|284:301|265:283|265:283|224:292|170:303,1,151.279993998291,14|0,1:1|0:0,0:0:0:0:
65,364,72110,2,0,P|135:376|184:322,1,151.279993998291,2|0,0:2|0:0,0:0:0:0:
171,303,72400,1,2,0:2:0:0:
63,269,72593,6,0,B|44:268|26:278|26:278|8:242|37:213|40:218|57:201|61:178,1,151.279993998291,10|0,0:2|1:0,0:0:0:0:
6,30,72884,2,0,B|95:9|61:108|166:70,1,151.279993998291,2|0,0:2|0:0,0:0:0:0:
157,63,73174,1,2,1:2:0:0:
331,207,73368,6,0,B|374:210|391:170|357:142|303:144|273:184|301:196|267:237|217:223,1,226.919990997437,10|0,0:2|0:0,0:0:0:0:
198,211,73755,1,8,0:2:0:0:
410,74,73948,1,2,1:2:0:0:
410,74,74045,1,2,0:2:0:0:
410,74,74142,2,0,P|474:183|452:258,1,151.279993998291,8|0,0:2|1:0,0:0:0:0:
397,384,74529,1,8,0:2:0:0:
329,207,74723,1,2,1:2:0:0:
107,368,74916,6,0,B|200:350|200:350|203:353|203:353|312:334|312:334|308:334|308:334|246:272,1,281.819994409699,14|2,1:1|0:2,0:0:0:0:
180,241,75303,2,0,P|148:267|108:268,1,81.7399961335146,10|0,0:2|0:0,0:0:0:0:
65,150,75497,2,0,P|95:124|136:123,1,81.7399961335146,2|0,0:2|0:0,0:0:0:0:
221,58,75690,2,0,B|245:26|209:3|209:3|176:31|214:64|214:64|238:85|244:130|229:163,1,245.219988400544,10|2,0:2|0:2,0:0:0:0:
216,179,76077,1,8,0:2:0:0:
463,55,76271,1,2,1:2:0:0:
423,314,76658,5,0,1:0:0:0:
318,83,76852,1,8,1:2:0:0:
185,276,77045,2,0,P|218:285|251:276,1,69.5399991511231,2|2,1:2|0:2,0:0:0:0:
418,218,77238,5,10,1:2:0:0:
427,184,77335,1,8,0:2:0:0:
438,152,77432,1,0,1:0:0:0:
449,120,77529,1,0,1:0:0:0:
468,74,77626,21,8,1:2:0:0:
463,55,77723,1,8,0:2:0:0:
458,37,77819,1,8,0:3:0:0:
454,19,77916,1,4,0:3:0:0:
449,1,78013,6,0,B|422:33|397:62|397:62|331:43|239:17,1,226.919990997437,14|0,1:1|0:0,0:0:0:0:
216,229,78400,2,0,P|194:152|165:58,1,151.279993998291,10|0,0:2|1:0,0:0:0:0:
313,157,78787,5,10,0:2:0:0:
175,0,78981,1,0,1:0:0:0:
76,155,79174,1,10,0:2:0:0:
166,25,79368,1,0,1:0:0:0:
330,250,79561,6,0,B|323:316|258:350|201:309|201:309|245:316|277:283,1,245.219988400544,10|0,0:2|0:0,0:0:0:0:
216,229,79948,1,10,0:2:0:0:
431,313,80142,2,0,P|442:238|481:174,1,151.279993998291,2|8,1:2|0:2,0:0:0:0:
491,372,80529,1,0,1:0:0:0:
378,176,80723,1,8,0:2:0:0:
512,291,80916,1,0,1:0:0:0:
320,304,81110,70,0,B|362:304|362:359|320:359|320:359|275:359|275:304|320:304,1,172.019997375183,14|0,1:1|0:0,0:0:0:0:
160,240,81497,22,0,B|114:240|114:300|160:300|160:300|210:300|210:240|160:240,1,190.319998838379,10|0,0:2|0:0,0:0:0:0:
368,176,81884,6,0,B|422:176|422:104|368:104|368:104|311:104|311:176|368:176,1,226.919990997437,10|0,1:2|0:0,0:0:0:0:
112,112,82271,22,0,B|42:112|42:24|112:24|112:24|179:24|179:112|112:112,1,281.819994409699,10|0,0:2|0:0,0:0:0:0:
224,336,82658,6,0,L|387:336,1,163.479992267029,10|6,1:2|1:2,0:0:0:0:
122,380,83045,21,10,0:2:0:0:
239,98,83239,1,6,1:1:0:0:
136,272,83432,2,0,P|67:280|25:168,1,151.279993998291,2|4,0:2|1:2,0:0:0:0:
239,98,83819,5,10,0:2:0:0:
244,135,83916,1,8,0:2:0:0:
249,172,84013,1,8,0:3:0:0:
254,210,84110,1,4,0:3:0:0:
259,247,84206,6,0,P|323:220|305:102,1,163.479992267029,14|0,1:1|0:0,0:0:0:0:
464,336,84593,1,8,0:2:0:0:
512,127,84788,1,2,0:2:0:0:
481,118,84884,1,2,0:2:0:0:
448,129,84981,6,0,B|431:132|419:155|419:155|411:75|347:47,1,175.680004289063,2|2,1:2|0:2,0:0:0:0:
109,43,85368,1,10,1:2:0:0:
99,91,85464,1,8,0:2:0:0:
90,139,85561,1,8,0:3:0:0:
80,187,85658,1,4,0:3:0:0:
71,235,85755,6,0,L|202:205,1,90.2800022041016,6|0,1:1|0:0,0:0:0:0:
249,348,86142,2,0,P|198:366|146:316,1,90.2800022041016,2|4,0:2|0:2,0:0:0:0:
314,177,86529,1,2,0:2:0:0:
211,130,86723,1,8,0:3:0:0:
358,310,86916,2,0,P|411:309|443:245,1,90.2800022041016,6|0,0:3|0:0,0:0:0:0:
240,203,87303,38,0,B|241:190|251:180|265:179|265:179|283:178|298:188|305:203|305:203|312:217|309:235|299:247|299:247|280:271|248:280|220:271|220:271|191:262|172:235|170:205|170:205|169:175|186:147|214:136|214:136|238:125|254:103|254:77|254:77|254:51|238:27|215:17|215:17|181:48|238:173|238:173|302:315|249:349,1,902.800022041016,6|0,1:1|0:0,0:0:0:0:
