osu file format v14

[General]
AudioFilename: audio.mp3
AudioLeadIn: 0
PreviewTime: 64755
Countdown: 0
SampleSet: Soft
StackLeniency: 0.7
Mode: 0
LetterboxInBreaks: 0
WidescreenStoryboard: 1

[Editor]
Bookmarks: 53239,59432,86335
DistanceSpacing: 1
BeatDivisor: 4
GridSize: 4
TimelineZoom: 1.3

[Metadata]
Title:Nanairo Symphony (TV Size)
TitleUnicode:七色シンフォニー (TV Size)
Artist:Coalamode.
ArtistUnicode:コアラモード.
Creator:TheOneForce
Version:Greenish Hard
Source:四月は君の嘘
Tags:kelinimo FlyzyStyle shigatsu wa kimi no uso your lie in april opening op japanese female vocalist anime pop jpop j-pop
BeatmapID:2891179
BeatmapSetID:1280262

[Difficulty]
HPDrainRate:4
CircleSize:3.8
OverallDifficulty:6
ApproachRate:8
SliderMultiplier:1.44
SliderTickRate:1

[Events]
//Background and Video events
0,0,"Greenish_53872415.jpg",0,0
//Break Periods
//Storyboard Layer 0 (Background)
//Storyboard Layer 1 (Fail)
//Storyboard Layer 2 (Pass)
//Storyboard Layer 3 (Foreground)
//Storyboard Layer 4 (Overlay)
//Storyboard Sound Samples

[TimingPoints]
594,387.096774193548,4,2,14,54,1,0
594,-119.047619047619,4,2,14,54,0,0
3497,-156.25,4,2,14,54,0,0
4464,-119.047619047619,4,2,14,64,0,0
4658,-119.047619047619,4,2,14,5,0,0
4755,-119.047619047619,4,2,14,74,0,0
4948,-119.047619047619,4,2,14,5,0,0
5045,-119.047619047619,4,2,14,74,0,0
5239,-119.047619047619,4,2,14,64,0,0
6013,-119.047619047619,4,2,14,44,0,0
6303,-119.047619047619,4,2,14,54,0,0
6593,-119.047619047619,4,2,14,64,0,0
6787,-106.382978723404,4,2,14,64,0,0
12206,-119.047619047619,4,2,14,64,0,0
12981,-106.382978723404,4,2,14,64,0,0
13948,-106.382978723404,4,2,14,5,0,0
14045,-106.382978723404,4,2,14,64,0,0
14239,-106.382978723404,4,2,14,5,0,0
14335,-106.382978723404,4,2,14,64,0,0
15206,-106.382978723404,4,2,14,5,0,0
15303,-106.382978723404,4,2,14,64,0,0
16077,-135.135135135135,4,2,14,44,0,0
38916,-135.135135135135,4,2,14,64,0,0
39110,-135.135135135135,4,2,14,54,0,0
39303,-135.135135135135,4,2,14,44,0,0
39497,-135.135135135135,4,2,14,54,0,0
39690,-135.135135135135,4,2,14,64,0,0
39884,-119.047619047619,4,2,14,74,0,0
40852,-119.047619047619,4,2,14,64,0,0
59432,-106.382978723404,4,2,14,74,0,0
62432,-106.382978723404,4,2,14,5,0,0
62529,-106.382978723404,4,2,14,74,0,0
63303,-106.382978723404,4,2,14,94,0,0
63497,-106.382978723404,4,2,14,5,0,0
63593,-106.382978723404,4,2,14,84,0,0
63787,-106.382978723404,4,2,14,5,0,0
63884,-106.382978723404,4,2,14,74,0,0
64077,-106.382978723404,4,2,14,84,0,0
64755,-106.382978723404,4,2,14,74,0,0
65626,-87.719298245614,4,2,14,94,0,1
67464,-87.719298245614,4,2,14,5,0,1
67561,-87.719298245614,4,2,14,94,0,1
70561,-87.719298245614,4,2,14,5,0,1
70658,-87.719298245614,4,2,14,94,0,1
79852,-87.719298245614,4,2,14,5,0,1
79948,-87.719298245614,4,2,14,94,0,1
81400,-87.719298245614,4,2,14,5,0,1
81497,-87.719298245614,4,2,14,94,0,1
81787,-87.719298245614,4,2,14,5,0,1
81884,-87.719298245614,4,2,14,94,0,1
85755,-119.047619047619,4,2,14,84,0,0
87303,402.684563758389,4,2,14,84,1,0
87303,-156.25,4,2,14,84,0,0
87907,465.116279069767,4,2,14,84,1,0
88139,387.096774193548,4,2,14,84,1,0
89300,-156.25,4,2,14,5,0,0

[Colours]
Combo1 : 235,18,46
Combo2 : 255,96,28
Combo3 : 255,242,79
Combo4 : 60,218,57
Combo5 : 148,235,255
Combo6 : 0,123,234
Combo7 : 193,96,255
Combo8 : 173,255,0

[HitObjects]
332,212,594,118,0,L|392:219,1,60.4799981542969,2|2,1:2|0:2,0:0:0:0:
327,316,981,1,2,0:2:0:0:
248,249,1174,2,0,P|242:190|277:137,1,120.959996308594,2|2,1:2|0:2,0:0:0:0:
273,139,1948,2,0,P|214:67|119:89,1,181.439994462891,2|0,1:2|0:0,0:0:0:0:
49,156,2723,6,0,P|93:194|98:253,1,120.959996308594,2|2,1:2|0:2,0:0:0:0:
64,364,3303,1,2,0:2:0:0:
178,377,3497,2,0,B|225:362|268:384|268:384|286:339|327:317,1,184.32,2|0,1:2|0:0,0:0:0:0:
457,293,4464,6,0,L|487:240,1,60.4799981542969,2|0,0:2|0:0,0:0:0:0:
439,172,4755,2,0,L|491:141,1,60.4799981542969,2|0,0:2|0:0,0:0:0:0:
482,58,5045,1,2,0:2:0:0:
364,79,5239,5,2,0:2:0:0:
364,79,5432,1,2,0:2:0:0:
364,79,5626,1,2,0:2:0:0:
137,0,6013,6,0,P|113:37|124:85,1,90.7199972314454,2|2,0:2|0:2,0:0:0:0:
172,96,6400,2,0,P|196:133|196:156,1,60.4799981542969,2|2,0:0|0:2,0:0:0:0:
92,225,6787,6,0,P|124:188|217:195,1,135.35999793457,10|2,0:2|0:2,0:0:0:0:
213,315,7368,1,0,0:0:0:0:
213,315,7561,2,0,P|235:339|267:351,1,67.6799989672852,2|0,0:2|0:0,0:0:0:0:
345,230,7948,2,0,P|313:237|286:258,1,67.6799989672852,2|0,0:2|0:0,0:0:0:0:
416,356,8335,2,0,P|411:322|422:290,1,67.6799989672852,2|0,1:2|0:0,0:0:0:0:
506,221,8723,1,2,0:2:0:0:
434,140,8916,2,0,P|429:106|508:45,1,135.35999793457,2|2,0:2|0:2,0:0:0:0:
497,44,9497,1,2,0:2:0:0:
278,32,9884,6,0,P|249:13|216:8,1,67.6799989672852,10|0,0:2|0:0,0:0:0:0:
155,107,10271,2,0,P|188:108|219:96,1,67.6799989672852,2|0,0:2|0:0,0:0:0:0:
335,143,10658,2,0,B|347:176|347:176|340:208,1,67.6799989672852,2|0,0:2|0:0,0:0:0:0:
197,223,11045,2,0,B|219:196|219:196|249:185,1,67.6799989672852,2|0,0:2|0:0,0:0:0:0:
328,302,11432,2,0,L|260:293,1,67.6799989672852,2|0,1:2|0:0,0:0:0:0:
177,340,11819,1,2,0:2:0:0:
92,267,12013,1,2,0:2:0:0:
92,267,12206,2,0,B|99:317|47:336|47:336|2:305|21:258,1,181.439994462891,2|0,0:2|0:0,0:0:0:0:
67,166,12981,22,0,P|80:105|56:30,1,135.35999793457,6|0,1:2|0:0,0:0:0:0:
205,12,13561,1,2,0:2:0:0:
205,12,13658,1,2,0:2:0:0:
205,12,13755,2,0,P|251:20|274:56,1,67.6799989672852,2|0,0:2|0:0,0:0:0:0:
208,91,14045,2,0,P|234:129|225:170,1,67.6799989672852,2|0,0:2|0:0,0:0:0:0:
154,148,14335,1,6,0:2:0:0:
148,160,14723,5,2,1:2:0:0:
314,102,14916,2,0,P|365:75|419:99,1,101.519998450928,14|0,1:1|0:0,0:0:0:0:
436,115,15303,2,0,P|383:163|387:213,1,101.519998450928,2|8,1:2|0:2,0:0:0:0:
397,228,15690,1,2,1:2:0:0:
484,281,15884,1,10,1:2:0:0:
451,377,16077,22,0,P|390:364|340:358,1,106.560002601563,6|2,1:1|3:2,0:0:0:0:
227,384,16658,1,2,1:2:0:0:
227,384,16852,2,0,P|230:352|243:318,1,53.2800013007813,2|2,3:2|0:2,0:0:0:0:
125,258,17239,2,0,P|132:283|134:310,1,53.2800013007813,2|2,3:2|0:2,0:0:0:0:
18,382,17626,2,0,P|26:351|18:271,1,106.560002601563,2|2,1:2|3:2,0:0:0:0:
58,181,18206,1,2,1:2:0:0:
58,181,18400,2,0,P|90:159|128:156,1,53.2800013007813,2|2,3:2|0:2,0:0:0:0:
239,204,18787,2,0,P|213:195|193:178,1,53.2800013007813,2|2,3:2|0:2,0:0:0:0:
121,56,19174,102,0,P|173:54|219:80,1,106.560002601563,2|0,1:2|3:0,0:0:0:0:
332,45,19755,2,0,P|280:42|233:66,1,106.560002601563,0|0,1:0|0:0,0:0:0:0:
299,135,20335,2,0,P|321:151|347:159,1,53.2800013007813,0|0,3:0|0:0,0:0:0:0:
451,49,20723,2,0,B|425:82|425:82|449:165,1,106.560002601563,2|2,1:2|3:2,0:0:0:0:
457,256,21303,2,0,B|408:234|408:234|359:263,1,106.560002601563,2|2,1:2|0:2,0:0:0:0:
314,328,21884,2,0,L|260:314,1,53.2800013007813,2|2,3:2|0:2,0:0:0:0:
181,268,22271,70,0,P|192:202|168:156,1,106.560002601563,2|2,1:2|3:2,0:0:0:0:
97,221,22852,1,2,1:2:0:0:
0,217,23045,2,0,P|5:191|17:167,1,53.2800013007813,2|2,3:2|0:2,0:0:0:0:
101,125,23432,2,0,P|96:99|85:76,1,53.2800013007813,2|2,3:2|0:2,0:0:0:0:
178,60,23819,2,0,P|233:77|288:52,1,106.560002601563,2|2,1:2|3:2,0:0:0:0:
358,10,24400,1,2,1:2:0:0:
449,106,24593,2,0,L|396:99,1,53.2800013007813,2|2,3:2|0:2,0:0:0:0:
291,184,24981,2,0,L|344:177,1,53.2800013007813,2|2,3:2|0:2,0:0:0:0:
434,203,25368,54,0,B|459:213|475:237|475:237|476:264|463:288,1,106.560002601563,2|0,1:2|3:0,0:0:0:0:
417,382,25948,2,0,B|442:372|458:348|458:348|459:321|446:297,1,106.560002601563,2|0,1:2|0:0,0:0:0:0:
354,297,26529,2,0,L|301:290,1,53.2800013007813,0|0,3:0|0:0,0:0:0:0:
210,331,26916,1,2,1:2:0:0:
127,279,27110,2,0,P|102:223|102:222,1,53.2800013007813,2|0,0:2|3:0,0:0:0:0:
186,182,27497,2,0,P|211:126|211:125,1,53.2800013007813,2|0,1:2|3:0,0:0:0:0:
158,48,27884,101,2,0:2:0:0:
247,22,28077,1,2,3:2:0:0:
302,97,28271,1,2,0:2:0:0:
376,3,28464,70,0,P|425:21|446:35,2,53.2800013007813,6|2|2,1:1|0:2|3:2,0:0:0:0:
390,95,29045,2,0,P|423:135|435:157,2,53.2800013007813,2|2|2,1:2|3:2|0:2,0:0:0:0:
355,181,29626,2,0,P|364:232|363:257,1,53.2800013007813,2|2,3:2|0:2,0:0:0:0:
315,300,30013,1,2,1:2:0:0:
260,239,30206,2,0,P|263:212|269:186,2,53.2800013007813,2|2|2,0:2|3:2|1:2,0:0:0:0:
205,301,30787,53,2,3:2:0:0:
181,222,30981,1,2,0:2:0:0:
60,334,31367,1,2,0:2:0:0:
36,255,31561,102,0,P|50:169|58:139,1,106.560002601563,2|0,1:2|3:0,0:0:0:0:
23,40,32142,2,0,P|34:91|41:144,1,106.560002601563,2|0,1:2|0:0,0:0:0:0:
153,161,32723,2,0,P|182:160|209:154,1,53.2800013007813,0|0,3:0|0:0,0:0:0:0:
243,78,33110,1,2,1:2:0:0:
327,69,33303,1,2,0:2:0:0:
383,133,33497,1,2,3:2:0:0:
448,187,33690,2,0,P|461:164|469:138,1,53.2800013007813,2|0,1:2|3:0,0:0:0:0:
368,216,34077,2,0,P|382:238|401:256,1,53.2800013007813,2|2,0:2|3:2,0:0:0:0:
398,345,34464,1,2,0:2:0:0:
311,364,34658,70,0,P|288:350|201:349,1,106.560002601563,2|2,1:2|3:2,0:0:0:0:
128,384,35239,1,2,1:2:0:0:
78,288,35432,2,0,L|130:293,1,53.2800013007813,2|2,3:2|0:2,0:0:0:0:
239,212,35819,2,0,L|186:217,1,53.2800013007813,2|2,3:2|0:2,0:0:0:0:
101,178,36206,2,0,P|90:133|121:68,1,106.560002601563,2|2,1:2|3:2,0:0:0:0:
200,51,36787,1,2,1:2:0:0:
264,119,36981,2,0,L|316:111,1,53.2800013007813,2|2,3:2|0:2,0:0:0:0:
359,28,37368,2,0,L|411:35,1,53.2800013007813,2|2,3:2|0:2,0:0:0:0:
473,117,37755,54,0,P|421:151|433:210,1,106.560002601563,2|2,1:2|3:2,0:0:0:0:
493,278,38335,2,0,P|486:227|440:204,1,106.560002601563,2|0,1:2|0:0,0:0:0:0:
347,236,38916,1,6,3:2:0:0:
315,309,39110,1,2,0:2:0:0:
222,322,39303,101,6,1:2:0:0:
208,229,39497,1,10,0:3:0:0:
195,137,39691,1,6,0:3:0:0:
158,40,39884,70,0,B|134:23|125:-9|125:-9|109:21|82:32,1,120.959996308594,6|2,1:1|0:2,0:0:0:0:
35,125,40464,1,10,0:3:0:0:
21,217,40658,1,6,0:3:0:0:
7,310,40852,54,0,P|51:353|112:348,1,120.959996308594,6|0,1:1|0:0,0:0:0:0:
196,299,41432,1,6,1:2:0:0:
269,379,41626,2,0,P|313:336|374:341,1,120.959996308594,2|8,0:2|0:2,0:0:0:0:
474,351,42206,1,2,0:2:0:0:
487,246,42400,2,0,P|429:229|410:180,2,90.7199972314454,2|2|6,1:2|0:2|1:2,0:0:0:0:
420,26,43368,1,2,1:2:0:0:
327,72,43561,1,10,0:3:0:0:
245,8,43755,1,6,0:3:0:0:
327,72,43948,102,0,P|321:132|321:195,1,120.959996308594,2|0,1:2|0:0,0:0:0:0:
226,222,44529,1,6,1:2:0:0:
173,137,44723,2,0,P|132:116|52:145,1,120.959996308594,2|8,0:2|0:2,0:0:0:0:
92,235,45303,1,2,0:2:0:0:
92,235,45497,2,0,P|104:264|103:302,1,60.4799981542969,2|2,1:2|0:2,0:0:0:0:
128,384,45884,1,2,0:2:0:0:
221,375,46077,2,0,P|261:335|339:337,1,120.959996308594,6|2,1:2|1:2,0:0:0:0:
417,372,46658,1,10,0:3:0:0:
482,292,46852,1,4,0:3:0:0:
404,225,47045,70,0,P|399:125|414:85,1,120.959996308594,2|0,1:2|0:0,0:0:0:0:
429,9,47626,1,6,1:2:0:0:
334,40,47819,2,0,B|275:58|280:17|207:37,1,120.959996308594,2|8,0:2|0:2,0:0:0:0:
144,108,48400,1,2,0:2:0:0:
242,137,48593,54,0,B|238:166|221:193|221:193|230:228|228:252,1,120.959996308594,2|2,1:2|0:2,0:0:0:0:
296,321,49174,1,0,1:0:0:0:
296,321,49368,2,0,P|247:348|180:335,1,120.959996308594,2|14,1:2|0:2,0:0:0:0:
75,299,49948,1,2,0:2:0:0:
75,299,50045,1,0,1:0:0:0:
75,299,50142,2,0,L|15:311,1,60.4799981542969,2|0,1:2|0:0,0:0:0:0:
122,224,50529,2,0,L|181:236,1,60.4799981542969,2|4,0:2|1:2,0:0:0:0:
31,212,50916,2,0,P|39:183|57:159,1,60.4799981542969,2|0,0:2|1:0,0:0:0:0:
123,92,51303,2,0,P|141:116|148:146,1,60.4799981542969,10|0,0:2|0:0,0:0:0:0:
37,54,51690,102,0,P|76:10|134:0,1,120.959996308594,2|0,1:2|0:0,0:0:0:0:
250,0,52271,1,6,1:2:0:0:
235,114,52464,2,0,L|293:90,1,60.4799981542969,2|8,0:2|0:3,0:0:0:0:
375,148,52852,1,8,1:2:0:0:
375,148,52948,1,8,1:2:0:0:
375,148,53045,1,4,0:3:0:0:
472,65,53239,70,0,B|491:90|489:122|489:122|465:142|467:176,1,120.959996308594,6|0,1:1|0:0,0:0:0:0:
491,278,53819,1,2,1:2:0:0:
388,252,54013,2,0,P|349:291|341:368,1,120.959996308594,2|8,0:2|0:2,0:0:0:0:
240,384,54593,1,2,0:2:0:0:
155,326,54787,2,0,P|102:311|47:331,2,90.7199972314454,2|2|6,1:2|0:2|1:2,0:0:0:0:
192,117,55755,53,2,1:2:0:0:
129,23,55948,1,10,0:3:0:0:
57,110,56141,1,6,0:3:0:0:
129,23,56335,102,0,B|196:11|181:47|247:34,1,120.959996308594,2|0,1:2|0:0,0:0:0:0:
351,4,56916,1,4,1:2:0:0:
417,90,57110,2,0,P|476:79|504:40,2,90.7199972314454,2|2|2,0:2|0:2|0:2,0:0:0:0:
317,109,57884,2,0,P|330:151|325:191,1,60.4799981542969,2|0,1:2|0:0,0:0:0:0:
184,200,58271,2,0,P|214:168|251:152,1,60.4799981542969,2|4,0:2|1:2,0:0:0:0:
330,269,58658,2,0,P|287:259|255:235,1,60.4799981542969,2|8,0:2|0:3,0:0:0:0:
421,217,59045,1,10,0:3:0:0:
421,321,59239,1,4,0:3:0:0:
302,372,59432,70,0,B|252:361|252:361|218:377|218:377|158:369,1,135.35999793457,6|2,1:1|0:2,0:0:0:0:
47,334,60013,1,0,1:0:0:0:
47,334,60206,2,0,P|87:320|108:291,1,67.6799989672852,2|0,1:2|0:0,0:0:0:0:
0,200,60593,2,0,P|38:218|73:212,1,67.6799989672852,10|0,0:2|0:0,0:0:0:0:
80,81,60981,2,0,P|137:47|201:63,1,135.35999793457,2|2,1:2|0:2,0:0:0:0:
257,155,61561,1,0,1:0:0:0:
257,155,61755,2,0,P|290:154|319:138,1,67.6799989672852,2|0,1:2|0:0,0:0:0:0:
436,55,62142,2,0,P|411:104|426:160,1,101.519998450928,10|0,0:2|0:0,0:0:0:0:
465,181,62529,53,2,1:2:0:0:
393,269,62723,1,0,1:0:0:0:
393,269,62916,2,0,L|297:256,1,67.6799989672852,8|0,0:2|0:0,0:0:0:0:
174,366,63303,102,0,B|193:336|193:336|191:280,1,67.6799989672852,6|0,1:1|0:0,0:0:0:0:
134,248,63593,2,0,B|165:231|165:231|191:182,1,67.6799989672852,2|0,1:2|0:0,0:0:0:0:
158,125,63884,1,2,1:2:0:0:
44,111,64077,69,10,1:2:0:0:
22,227,64271,1,10,1:2:0:0:
0,343,64465,1,10,1:2:0:0:
256,234,64852,54,0,L|261:267,2,33.8399994836426,10|8|0,1:2|0:2|1:0,0:0:0:0:
302,150,65239,1,8,1:2:0:0:
302,150,65335,1,8,0:2:0:0:
302,150,65432,1,10,0:3:0:0:
424,299,65626,70,0,P|455:325|495:333,1,82.0799989980469,14|0,1:1|0:0,0:0:0:0:
419,202,66013,2,0,P|379:213|348:239,1,82.0799989980469,10|0,0:2|0:0,0:0:0:0:
385,32,66400,2,0,P|396:71|402:112,1,82.0799989980469,10|0,0:2|1:0,0:0:0:0:
492,142,66787,2,0,P|498:101|509:61,1,82.0799989980469,10|0,0:2|1:0,0:0:0:0:
370,16,67174,6,0,B|299:2|322:52|234:36,1,123.11999849707,10|0,0:2|0:0,0:0:0:0:
210,20,67561,1,10,0:2:0:0:
210,20,67755,2,0,P|191:57|191:98,1,82.0799989980469,2|10,0:2|0:2,0:0:0:0:
190,96,68142,1,0,1:0:0:0:
101,27,68335,1,8,0:2:0:0:
101,27,68529,1,0,1:0:0:0:
22,122,68723,6,0,P|2:157|0:197,1,82.0799989980469,10|0,0:2|0:0,0:0:0:0:
142,243,69110,2,0,P|122:207|88:185,1,82.0799989980469,10|0,0:2|0:0,0:0:0:0:
0,311,69497,2,0,B|39:298|39:298|73:320,1,82.0799989980469,10|0,0:2|0:0,0:0:0:0:
168,384,69884,2,0,B|176:343|176:343|213:325,1,82.0799989980469,10|0,0:2|0:0,0:0:0:0:
375,346,70271,6,0,B|380:299|380:299|363:277|363:277|369:229,1,123.11999849707,10|0,0:2|0:0,0:0:0:0:
361,183,70658,1,10,0:2:0:0:
361,183,70852,2,0,B|400:195|400:195|434:173,1,82.0799989980469,2|8,1:2|0:2,0:0:0:0:
434,173,71239,1,0,1:0:0:0:
380,80,71432,1,8,1:2:0:0:
380,80,71529,1,8,0:2:0:0:
380,80,71626,1,2,1:0:0:0:
224,69,71819,6,0,P|269:118|256:197,1,123.11999849707,14|2,1:1|0:2,0:0:0:0:
219,183,72206,2,0,P|205:225|201:279,1,82.0799989980469,8|2,0:2|0:2,0:0:0:0:
111,347,72593,2,0,P|81:320|41:317,1,82.0799989980469,10|0,0:2|1:2,0:0:0:0:
3,301,72884,1,2,0:2:0:0:
3,301,72981,2,0,P|30:271|34:232,1,82.0799989980469,8|2,0:2|1:2,0:0:0:0:
0,94,73368,6,0,B|93:58|64:131|158:91,1,164.159997996094,10|8,0:2|0:2,0:0:0:0:
264,19,73948,1,2,1:2:0:0:
264,19,74045,1,2,0:2:0:0:
264,19,74142,2,0,P|289:117|358:114,1,164.159997996094,10|8,0:2|0:2,0:0:0:0:
435,46,74723,1,2,1:2:0:0:
503,189,74916,6,0,B|476:170|445:169|445:169|419:184|403:214,1,123.11999849707,14|2,1:1|0:0,0:0:0:0:
407,259,75303,2,0,B|384:267|369:276|369:276|347:270|326:268,1,82.0799989980469,10|2,0:2|0:2,0:0:0:0:
189,163,75690,2,0,B|207:177|222:187|222:187|229:208|237:228,1,82.0799989980469,10|0,0:2|1:0,0:0:0:0:
238,271,75981,1,2,0:2:0:0:
238,271,76077,1,8,0:2:0:0:
126,257,76271,1,6,1:2:0:0:
77,15,76658,21,0,1:0:0:0:
0,111,76852,1,8,1:2:0:0:
122,129,77046,1,2,1:2:0:0:
47,210,77239,6,0,P|31:198|6:194,2,41.0399994990234,10|8|0,1:2|0:2|1:0,0:0:0:0:
32,309,77625,1,8,1:2:0:0:
32,309,77723,1,8,0:2:0:0:
32,309,77819,1,8,0:3:0:0:
137,382,78013,6,0,P|189:383|230:348,1,82.0799989980469,14|0,1:1|0:0,0:0:0:0:
186,213,78400,2,0,P|159:258|169:311,1,82.0799989980469,10|0,0:2|0:0,0:0:0:0:
337,297,78787,2,0,L|256:279,1,82.0799989980469,10|0,0:2|1:0,0:0:0:0:
280,184,79174,2,0,L|361:166,1,82.0799989980469,10|0,0:2|1:0,0:0:0:0:
463,51,79561,6,0,P|409:75|352:41,1,123.11999849707,10|0,0:2|0:0,0:0:0:0:
339,12,79948,1,10,0:2:0:0:
339,12,80142,2,0,P|290:7|250:49,1,82.0799989980469,2|8,1:2|0:2,0:0:0:0:
263,23,80529,1,0,1:0:0:0:
168,97,80723,1,8,0:2:0:0:
168,97,80916,1,0,1:0:0:0:
10,53,81110,6,0,P|61:92|56:154,1,123.11999849707,14|0,1:1|0:0,0:0:0:0:
88,188,81497,2,0,P|37:227|42:289,1,123.11999849707,10|0,0:2|0:0,0:0:0:0:
74,315,81884,2,0,B|109:293|109:293|148:303,1,82.0799989980469,10|0,1:2|1:0,0:0:0:0:
306,367,82271,2,0,B|270:347|270:347|259:308,1,82.0799989980469,10|0,0:2|0:0,0:0:0:0:
212,129,82658,6,0,L|208:211,1,82.0799989980469,10|6,1:2|1:2,0:0:0:0:
297,87,83045,1,10,0:2:0:0:
301,230,83239,1,6,1:1:0:0:
356,157,83432,2,0,P|395:143|436:141,1,82.0799989980469,2|4,0:2|1:2,0:0:0:0:
430,258,83819,1,10,0:2:0:0:
430,258,83916,1,8,0:2:0:0:
430,258,84013,1,8,0:3:0:0:
325,381,84206,6,0,P|366:378|404:364,1,82.0799989980469,14|0,1:1|0:0,0:0:0:0:
510,276,84593,2,0,P|469:273|431:259,1,82.0799989980469,8|2,0:2|0:2,0:0:0:0:
341,166,84981,2,0,P|379:152|420:149,1,82.0799989980469,2|2,1:2|0:2,0:0:0:0:
378,44,85368,1,10,1:2:0:0:
378,44,85464,1,8,0:2:0:0:
378,44,85561,1,8,0:3:0:0:
273,79,85755,22,0,P|247:133|256:192,1,120.959996308594,6|2,1:1|0:2,0:0:0:0:
237,290,86335,1,4,0:2:0:0:
237,290,86529,2,0,P|210:275|181:269,1,60.4799981542969,2|8,0:2|0:3,0:0:0:0:
104,204,86916,2,0,P|131:188|150:166,1,60.4799981542969,6|0,0:3|0:0,0:0:0:0:
256,192,87303,101,6,1:1:0:0:
256,192,87504,12,0,89300,0:0:0:0:
