osu file format v14

[General]
AudioFilename: audio.mp3
AudioLeadIn: 0
PreviewTime: 64755
Countdown: 0
SampleSet: Soft
StackLeniency: 0.7
Mode: 0
LetterboxInBreaks: 0
WidescreenStoryboard: 1

[Editor]
Bookmarks: 53239,59432
DistanceSpacing: 1
BeatDivisor: 4
GridSize: 16
TimelineZoom: 2.721634

[Metadata]
Title:Nanairo Symphony (TV Size)
TitleUnicode:七色シンフォニー (TV Size)
Artist:Coalamode.
ArtistUnicode:コアラモード.
Creator:TheOneForce
Version:Flyzy's Yellowish Insane
Source:四月は君の嘘
Tags:kelinimo FlyzyStyle shigatsu wa kimi no uso your lie in april opening op japanese female vocalist anime pop jpop j-pop
BeatmapID:2891178
BeatmapSetID:1280262

[Difficulty]
HPDrainRate:5
CircleSize:4.4
OverallDifficulty:8
ApproachRate:8.8
SliderMultiplier:2
SliderTickRate:1

[Events]
//Background and Video events
0,0,"Yellowish_52304210.jpg",0,0
//Break Periods
//Storyboard Layer 0 (Background)
//Storyboard Layer 1 (Fail)
//Storyboard Layer 2 (Pass)
//Storyboard Layer 3 (Foreground)
//Storyboard Layer 4 (Overlay)
//Storyboard Sound Samples

[TimingPoints]
594,387.096774193548,4,2,14,54,1,0
594,-117.647058823529,4,2,14,54,0,0
1464,-117.647058823529,4,2,14,5,0,0
1561,-117.647058823529,4,2,14,54,0,0
1852,-117.647058823529,4,2,14,5,0,0
1948,-117.647058823529,4,2,14,54,0,0
2335,-117.647058823529,4,2,14,54,0,0
2529,-117.647058823529,4,2,14,54,0,0
2723,-117.647058823529,4,2,14,54,0,0
4464,-95.238095238095,4,2,14,64,0,0
4658,-95.238095238095,4,2,14,5,0,0
4755,-95.238095238095,4,2,14,74,0,0
4948,-95.238095238095,4,2,14,5,0,0
5045,-95.238095238095,4,2,14,74,0,0
5142,-95.238095238095,4,2,14,5,0,0
5239,-95.238095238095,4,2,14,64,0,0
6013,-181.818181818182,4,2,14,44,0,0
6303,-181.818181818182,4,2,14,5,0,0
6400,-181.818181818182,4,2,14,54,0,0
6593,-181.818181818182,4,2,14,64,0,0
6690,-181.818181818182,4,2,14,5,0,0
6787,-133.333333333334,4,2,14,64,0,0
12981,-95.2380952380956,4,2,14,64,0,0
13658,-95.2380952380956,4,2,14,64,0,0
13755,-95.2380952380956,4,2,14,64,0,0
13948,-95.2380952380956,4,2,14,5,0,0
14045,-95.2380952380956,4,2,14,64,0,0
14239,-95.2380952380956,4,2,14,5,0,0
14335,-95.2380952380956,4,2,14,64,0,0
14626,-95.2380952380956,4,2,14,5,0,0
14723,-95.2380952380956,4,2,14,64,0,0
15206,-95.2380952380956,4,2,14,5,0,0
15303,-95.2380952380956,4,2,14,64,0,0
16077,-133.333333333333,4,2,14,44,0,0
27110,-95.2380952380951,4,2,14,44,0,0
27400,-95.2380952380951,4,2,14,5,0,0
27497,-95.2380952380951,4,2,14,44,0,0
27787,-95.2380952380951,4,2,14,5,0,0
27884,-95.2380952380951,4,2,14,44,0,0
28464,-133.333333333333,4,2,14,44,0,0
33690,-95.2380952380951,4,2,14,44,0,0
34271,-133.333333333333,4,2,14,44,0,0
38916,-133.333333333333,4,2,14,64,0,0
39110,-133.333333333333,4,2,14,54,0,0
39303,-133.333333333333,4,2,14,44,0,0
39497,-133.333333333333,4,2,14,54,0,0
39690,-133.333333333333,4,2,14,64,0,0
39884,-133.333333333333,4,2,14,74,0,0
40077,-133.333333333333,4,2,14,54,0,0
40852,-95.2380952380954,4,2,14,64,0,0
42013,-133.333333333333,4,2,14,64,0,0
42400,-95.2380952380952,4,2,14,64,0,0
45110,-133.333333333333,4,2,14,64,0,0
45497,-95.2380952380951,4,2,14,64,0,0
47045,-95.2380952380951,4,2,14,64,0,0
48593,-95.2380952380951,4,2,14,64,0,0
49658,-95.2380952380951,4,2,14,5,0,0
49755,-133.333333333333,4,2,14,64,0,0
50142,-95.2380952380951,4,2,14,64,0,0
51303,-133.333333333333,4,2,14,64,0,0
51690,-95.2380952380951,4,2,14,64,0,0
54400,-133.333333333333,4,2,14,64,0,0
54787,-95.2380952380951,4,2,14,64,0,0
57497,-133.333333333333,4,2,14,64,0,0
57884,-95.2380952380951,4,2,14,64,0,0
59432,-117.647058823529,4,2,14,74,0,0
63303,-79.9999999999998,4,2,14,94,0,0
63497,-79.9999999999998,4,2,14,5,0,0
63593,-79.9999999999998,4,2,14,84,0,0
63787,-79.9999999999998,4,2,14,5,0,0
63884,-79.9999999999998,4,2,14,74,0,0
64077,-79.9999999999998,4,2,14,84,0,0
64755,-79.9999999999998,4,2,14,74,0,0
64852,-86.9565217391304,4,2,14,74,0,0
65626,-86.9565217391304,4,2,14,94,0,0
72013,-86.9565217391304,4,2,14,5,0,0
72110,-86.9565217391304,4,2,14,94,0,0
72303,-86.9565217391304,4,2,14,5,0,0
72400,-86.9565217391304,4,2,14,94,0,0
72787,-86.9565217391304,4,2,14,5,0,0
72884,-86.9565217391304,4,2,14,94,0,0
73077,-86.9565217391304,4,2,14,5,0,0
73174,-86.9565217391304,4,2,14,94,0,0
75110,-86.9565217391304,4,2,14,5,0,0
75206,-86.9565217391304,4,2,14,94,0,0
75400,-86.9565217391304,4,2,14,5,0,0
75497,-86.9565217391304,4,2,14,94,0,0
75884,-86.9565217391304,4,2,14,5,0,0
75981,-86.9565217391304,4,2,14,94,0,0
76174,-86.9565217391304,4,2,14,5,0,0
76271,-86.9565217391304,4,2,14,94,0,0
76368,-86.9565217391304,4,2,14,5,0,0
76658,-86.9565217391304,4,2,14,94,0,0
81400,-86.9565217391304,4,2,14,5,0,0
81497,-86.9565217391304,4,2,14,94,0,0
81787,-86.9565217391304,4,2,14,5,0,0
81884,-86.9565217391304,4,2,14,94,0,0
82174,-86.9565217391304,4,2,14,5,0,0
82271,-86.9565217391304,4,2,14,94,0,0
82561,-86.9565217391304,4,2,14,5,0,0
82658,-86.9565217391304,4,2,14,94,0,0
82948,-86.9565217391304,4,2,14,5,0,0
83045,-86.9565217391304,4,2,14,94,0,0
85271,-86.9565217391304,4,2,14,5,0,0
85368,-86.9565217391304,4,2,14,94,0,0
85755,-133.333333333333,4,2,14,84,0,0
86432,-133.333333333333,4,2,14,5,0,0
86529,-133.333333333333,4,2,14,84,0,0
87303,402.684563758389,4,2,14,84,1,0
87303,-283.446712018141,4,2,14,84,0,0
87907,465.116279069767,4,2,14,84,1,0
88139,387.096774193548,4,2,14,84,1,0
89300,-283.28611898017,4,2,14,5,0,0

[Colours]
Combo1 : 235,18,46
Combo2 : 255,96,28
Combo3 : 255,242,79
Combo4 : 60,218,57
Combo5 : 148,235,255
Combo6 : 0,123,234
Combo7 : 193,96,255
Combo8 : 247,255,198

[HitObjects]
66,117,594,118,0,L|76:8,2,85.0000016212464,2|2|2,1:2|0:2|0:2,0:0:0:0:
138,190,1174,2,0,P|103:146|25:161,1,127.50000243187,2|0,1:2|0:0,0:0:0:0:
6,216,1561,2,0,B|45:266|45:266|2:343,1,127.50000243187,2|0,0:2|0:0,0:0:0:0:
70,369,1948,6,0,B|146:406|202:347|165:323|232:264|332:315,1,255.000004863739,2|0,1:2|0:0,0:0:0:0:
401,366,2723,2,0,L|379:252,1,85.0000016212464,2|0,1:2|0:0,0:0:0:0:
488,190,3110,1,2,0:2:0:0:
471,273,3303,1,2,0:2:0:0:
396,147,3497,6,0,B|327:122|289:185|289:185|253:247|191:230|191:230|255:212|262:134,1,340.000006484985,2|0,1:2|0:0,0:0:0:0:
196,48,4464,2,0,P|185:103|170:194,1,104.999996795654,2|0,0:2|0:0,0:0:0:0:
120,194,4755,2,0,P|146:150|121:100,1,104.999996795654,2|0,0:2|0:0,0:0:0:0:
65,63,5045,2,0,P|91:35|116:36,1,52.4999983978272,2|0,0:2|0:0,0:0:0:0:
13,138,5239,5,2,0:2:0:0:
35,261,5432,5,2,0:2:0:0:
58,384,5626,5,2,0:2:0:0:
58,384,6013,6,0,P|104:386|144:347,1,82.5000025177003,2|2,0:2|0:2,0:0:0:0:
182,315,6400,2,0,P|228:313|268:352,1,82.5000025177003,2|0,0:2|0:0,0:0:0:0:
304,384,6787,22,0,P|290:303|277:222,1,150.000005722046,10|2,0:2|0:2,0:0:0:0:
368,98,7368,1,0,0:0:0:0:
305,138,7561,2,0,B|225:110|248:215|142:161,1,150.000005722046,2|2,0:2|0:2,0:0:0:0:
169,172,8335,6,0,B|204:129|204:129|145:45,1,150.000005722046,2|2,1:2|0:2,0:0:0:0:
88,164,8916,2,0,P|101:236|123:346,1,150.000005722046,2|2,0:2|0:2,0:0:0:0:
198,369,9497,1,2,0:2:0:0:
286,314,9690,1,0,0:0:0:0:
295,320,9787,1,0,0:0:0:0:
304,325,9884,6,0,B|336:278|389:293|389:293|401:332|453:337,1,150.000005722046,10|2,0:2|0:2,0:0:0:0:
481,226,10464,1,0,0:0:0:0:
434,167,10658,2,0,B|457:85|457:85|437:41|374:53,1,150.000005722046,2|2,0:2|0:2,0:0:0:0:
326,126,11239,1,0,0:0:0:0:
319,135,11335,1,0,0:0:0:0:
312,144,11432,6,0,P|229:145|205:78,1,150.000005722046,2|2,1:2|0:2,0:0:0:0:
112,13,12013,1,2,0:2:0:0:
62,69,12206,2,0,B|49:137|49:137|50:141|50:141|36:226,1,150.000005722046,2|2,0:2|0:2,0:0:0:0:
37,216,12981,6,0,B|143:172|122:326|256:245,1,209.999993591309,6|0,1:2|0:0,0:0:0:0:
205,138,13561,2,0,L|185:227,1,52.4999983978272,2|2,0:2|0:2,0:0:0:0:
293,297,13755,2,0,P|260:251|294:189,1,104.999996795654,2|0,0:2|0:0,0:0:0:0:
327,160,14045,2,0,P|381:167|470:180,1,104.999996795654,2|0,0:2|0:0,0:0:0:0:
492,139,14335,2,0,B|437:171|437:171|485:284,1,157.499995193482,6|0,0:2|0:0,0:0:0:0:
509,318,14723,5,2,1:2:0:0:
263,373,14916,2,0,P|244:330|266:373,1,157.499995193482,14|0,1:1|0:0,0:0:0:0:
176,382,15303,2,0,P|127:359|66:330,1,104.999996795654,2|2,1:2|0:2,0:0:0:0:
45,274,15593,1,8,0:2:0:0:
53,260,15690,1,2,1:2:0:0:
6,142,15884,1,10,1:2:0:0:
77,38,16077,70,0,B|143:8|143:108|236:55,1,150.000005722046,6|2,1:1|3:2,0:0:0:0:
335,3,16658,1,2,1:2:0:0:
296,67,16852,2,0,P|280:110|305:158,1,75.0000028610231,2|2,3:2|0:2,0:0:0:0:
409,195,17239,2,0,P|398:154|385:107,1,75.0000028610231,2|2,3:2|0:2,0:0:0:0:
328,244,17626,102,0,P|371:218|451:279,1,150.000005722046,2|2,1:2|3:2,0:0:0:0:
372,359,18206,1,2,1:2:0:0:
308,317,18400,2,0,P|262:304|207:288,1,75.0000028610231,2|2,3:2|0:2,0:0:0:0:
158,384,18787,2,0,P|175:341|160:308,1,75.0000028610231,2|2,3:2|0:2,0:0:0:0:
48,215,19174,86,0,B|120:185|111:281|202:237,1,150.000005722046,2|0,1:2|3:0,0:0:0:0:
263,145,19755,2,0,P|242:59|220:-26,1,150.000005722046,0|0,1:0|0:0,0:0:0:0:
375,119,20335,2,0,P|366:155|357:192,1,75.0000028610231,0|0,3:0|0:0,0:0:0:0:
415,297,20723,38,0,P|454:294|485:262,2,75.0000028610231,2|2|2,1:2|0:2|3:2,0:0:0:0:
350,181,21303,2,0,P|359:137|371:84,1,75.0000028610231,2|0,1:2|3:0,0:0:0:0:
226,34,21690,1,2,0:2:0:0:
174,88,21884,1,2,3:2:0:0:
229,137,22077,1,2,0:2:0:0:
283,84,22271,102,0,B|245:128|245:128|297:237,1,150.000005722046,2|2,1:2|3:2,0:0:0:0:
223,317,22852,1,2,1:2:0:0:
170,263,23045,2,0,B|141:236|141:236|89:246,1,75.0000028610231,2|2,3:2|0:2,0:0:0:0:
23,366,23432,2,0,P|31:322|42:259,1,75.0000028610231,2|2,3:2|0:2,0:0:0:0:
0,158,23819,86,0,P|44:181|119:124,1,150.000005722046,2|2,1:2|3:2,0:0:0:0:
199,25,24400,1,2,1:2:0:0:
247,82,24593,2,0,P|283:57|334:75,1,75.0000028610231,2|2,3:2|0:2,0:0:0:0:
296,224,24981,2,0,P|288:184|280:141,1,75.0000028610231,2|2,3:2|0:2,0:0:0:0:
400,51,25368,38,0,P|383:135|367:219,1,150.000005722046,2|0,1:2|3:0,0:0:0:0:
480,305,25948,2,0,B|518:240|518:240|503:195|458:196,1,150.000005722046,2|0,1:2|0:0,0:0:0:0:
385,303,26529,2,0,P|395:348|406:400,1,75.0000028610231,0|0,3:0|0:0,0:0:0:0:
299,257,26916,101,2,1:2:0:0:
222,329,27110,2,0,B|145:297|154:399|65:346,1,157.499995193482,2|0,0:2|0:0,0:0:0:0:
39,293,27497,2,0,P|27:228|6:122,1,157.499995193482,2|0,1:2|0:0,0:0:0:0:
49,77,27884,1,2,0:2:0:0:
164,127,28077,1,2,3:2:0:0:
243,0,28271,1,2,0:2:0:0:
128,50,28464,86,0,P|134:85|146:147,1,75.0000028610231,6|2,1:1|0:2,0:0:0:0:
242,208,28852,1,2,3:2:0:0:
298,159,29045,2,0,P|333:136|374:148,1,75.0000028610231,2|2,1:2|3:2,0:0:0:0:
468,238,29432,1,2,0:2:0:0:
405,279,29626,2,0,P|364:288|324:297,1,75.0000028610231,2|2,3:2|0:2,0:0:0:0:
209,369,30013,37,2,1:2:0:0:
167,306,30206,2,0,P|179:267|159:227,1,75.0000028610231,2|2,0:2|3:2,0:0:0:0:
47,134,30593,1,2,1:2:0:0:
117,107,30787,1,2,3:2:0:0:
13,220,30981,2,0,P|26:176|36:141,1,75.0000028610231,2|0,0:2|3:0,0:0:0:0:
188,47,31368,1,2,0:2:0:0:
233,106,31561,102,0,B|311:79|291:181|394:130,1,150.000005722046,2|0,1:2|3:0,0:0:0:0:
476,57,32142,1,2,1:2:0:0:
422,4,32335,2,0,P|428:41|438:93,1,75.0000028610231,0|0,3:0|0:0,0:0:0:0:
500,209,32723,2,0,P|506:172|513:135,1,75.0000028610231,0|0,3:0|0:0,0:0:0:0:
365,266,33110,85,2,1:2:0:0:
467,311,33303,1,2,0:2:0:0:
417,209,33497,1,2,3:2:0:0:
337,346,33690,2,0,B|283:293|209:312|209:312|196:363|128:368,1,209.999993591309,2|2,1:2|0:2,0:0:0:0:
106,250,34271,1,2,3:2:0:0:
177,228,34464,1,2,0:2:0:0:
51,323,34658,38,0,P|87:283|37:194,1,150.000005722046,2|2,1:2|3:2,0:0:0:0:
0,68,35239,1,2,1:2:0:0:
61,110,35432,2,0,P|106:99|160:88,1,75.0000028610231,2|2,3:2|0:2,0:0:0:0:
225,0,35819,2,0,P|204:38|220:89,1,75.0000028610231,2|2,3:2|0:2,0:0:0:0:
333,171,36206,102,0,P|315:95|294:9,1,150.000005722046,2|2,1:2|3:2,0:0:0:0:
215,142,36787,1,2,1:2:0:0:
264,198,36981,2,0,P|251:247|239:296,1,75.0000028610231,2|2,3:2|0:2,0:0:0:0:
401,300,37368,2,0,P|375:269|329:273,1,75.0000028610231,2|2,3:2|0:2,0:0:0:0:
475,353,37755,86,0,P|484:285|499:191,1,150.000005722046,2|2,1:2|3:2,0:0:0:0:
449,113,38335,2,0,B|367:86|395:194|288:135,1,150.000005722046,2|0,1:2|0:0,0:0:0:0:
217,14,38916,1,6,3:2:0:0:
324,47,39110,1,2,0:2:0:0:
181,107,39303,37,6,1:2:0:0:
250,195,39497,1,10,0:3:0:0:
194,274,39690,1,6,0:3:0:0:
238,344,39884,2,0,B|276:308|330:327|330:327|340:358|379:368,1,150.000005722046,6|2,1:1|0:2,0:0:0:0:
454,256,40464,1,10,0:3:0:0:
393,301,40658,1,6,0:3:0:0:
501,384,40852,102,0,P|490:285|475:161,1,209.999993591309,6|0,1:1|0:0,0:0:0:0:
336,86,41432,2,0,B|301:30|395:-15|449:60|389:169,1,209.999993591309,6|0,1:2|0:0,0:0:0:0:
280,213,42013,2,0,P|231:208|205:167,1,75.0000028610231,8|2,0:2|0:2,0:0:0:0:
91,203,42400,86,0,B|142:173|189:210|177:220|221:287|300:229,1,209.999993591309,2|0,1:2|0:0,0:0:0:0:
61,130,42981,2,0,B|5:184|5:184|59:317,1,209.999993591309,6|2,1:2|1:2,0:0:0:0:
201,342,43561,1,10,0:3:0:0:
126,268,43755,1,6,0:3:0:0:
278,374,43948,38,0,B|301:321|376:329|366:363|434:384|482:293,1,209.999993591309,2|0,1:2|0:0,0:0:0:0:
372,186,44529,2,0,B|346:138|268:125|234:182|234:182|268:177|299:209,1,209.999993591309,6|0,1:2|0:0,0:0:0:0:
223,325,45110,2,0,P|233:278|247:225,1,75.0000028610231,8|2,0:2|0:2,0:0:0:0:
145,111,45497,102,0,B|118:151|79:151|79:151|121:293,1,209.999993591309,2|2,1:2|0:2,0:0:0:0:
0,384,46077,2,0,B|27:344|66:344|66:344|24:202,1,209.999993591309,6|2,1:2|1:2,0:0:0:0:
145,111,46658,1,10,0:3:0:0:
196,202,46852,1,6,0:3:0:0:
33,68,47045,86,0,B|75:20|135:50|135:50|168:113|243:79,1,209.999993591309,2|0,1:2|0:0,0:0:0:0:
357,173,47626,2,0,B|307:180|285:140|285:140|318:-9,1,209.999993591309,6|0,1:2|0:0,0:0:0:0:
459,120,48206,1,8,0:2:0:0:
419,217,48400,1,2,0:2:0:0:
424,225,48497,1,0,0:0:0:0:
430,232,48593,38,0,B|368:217|350:282|350:286|350:291|336:372|242:327,1,209.999993591309,2|2,1:2|0:2,0:0:0:0:
152,243,49174,1,0,1:0:0:0:
152,253,49271,1,0,0:0:0:0:
152,263,49368,2,0,B|135:160|135:160|134:158|134:158|119:61,1,157.499995193482,2|0,1:2|0:0,0:0:0:0:
165,43,49755,2,0,P|195:69|196:110,1,75.0000028610231,14|2,0:2|0:2,0:0:0:0:
75,206,50142,102,0,P|133:164|237:247,1,209.999993591309,2|2,1:2|0:2,0:0:0:0:
288,365,50723,2,0,B|305:252|305:252|307:250|307:250|323:145,1,209.999993591309,4|0,1:2|1:0,0:0:0:0:
438,274,51303,2,0,P|477:268|528:261,1,75.0000028610231,10|0,0:2|0:0,0:0:0:0:
359,81,51690,86,0,B|228:69|228:69|224:118|166:139,1,209.999993591309,2|0,1:2|0:0,0:0:0:0:
36,19,52271,2,0,B|81:74|81:74|25:224,1,209.999993591309,6|8,1:2|0:3,0:0:0:0:
164,282,52852,1,8,1:2:0:0:
170,267,52948,1,8,1:2:0:0:
176,252,53045,1,4,0:3:0:0:
307,342,53239,38,0,B|328:343|328:343|354:253|354:253|353:249|353:249|381:157,1,209.999993591309,6|0,1:1|0:0,0:0:0:0:
172,84,53819,2,0,B|246:93|246:93|248:97|248:97|321:106|321:106|292:192,1,209.999993591309,2|0,1:2|0:0,0:0:0:0:
170,267,54400,2,0,P|166:241|172:267,1,75.0000028610231,8|2,0:2|0:2,0:0:0:0:
56,361,54787,102,0,B|148:275|148:275|103:247|110:187,1,209.999993591309,2|0,1:2|0:0,0:0:0:0:
0,85,55368,2,0,B|53:59|91:97|81:102|126:180|211:108,1,209.999993591309,6|2,1:2|1:2,0:0:0:0:
319,12,55948,1,10,0:3:0:0:
298,115,56142,1,6,0:3:0:0:
267,269,56335,86,0,B|376:226|376:226|436:244|427:309,1,209.999993591309,2|0,1:2|0:0,0:0:0:0:
275,384,56916,2,0,P|214:363|59:311,1,209.999993591309,4|0,1:2|0:0,0:0:0:0:
174,202,57497,2,0,B|197:233|197:233|174:275,1,75.0000028610231,8|2,0:2|0:2,0:0:0:0:
15,176,57884,38,0,P|80:205|173:98,1,209.999993591309,2|2,1:2|0:2,0:0:0:0:
293,10,58464,2,0,B|236:47|236:47|277:190,1,209.999993591309,4|8,1:2|0:3,0:0:0:0:
421,131,59045,1,10,0:3:0:0:
327,83,59239,1,4,0:3:0:0:
338,228,59432,102,0,B|391:241|411:203|411:196|411:189|434:139|505:163,1,170.000003242493,6|2,1:1|0:2,0:0:0:0:
433,298,60013,1,0,1:0:0:0:
374,347,60206,2,0,P|323:354|259:364,1,85.0000016212464,2|0,1:2|0:0,0:0:0:0:
207,231,60593,2,0,P|241:274|231:309,1,85.0000016212464,10|0,0:2|0:0,0:0:0:0:
111,381,60981,86,0,P|123:297|137:196,1,170.000003242493,2|2,1:2|0:2,0:0:0:0:
218,92,61561,1,0,1:0:0:0:
270,147,61755,2,0,P|320:171|362:153,1,85.0000016212464,2|0,1:2|0:0,0:0:0:0:
462,261,62142,2,0,P|453:214|442:152,1,85.0000016212464,10|0,0:2|0:0,0:0:0:0:
497,24,62529,37,2,1:2:0:0:
371,50,62723,1,0,1:0:0:0:
246,76,62916,1,8,0:2:0:0:
236,70,63303,102,0,P|196:122|223:202,1,125,6|0,1:1|0:0,0:0:0:0:
258,220,63593,2,0,P|298:272|271:352,1,125,2|0,1:2|0:0,0:0:0:0:
234,373,63884,1,2,1:2:0:0:
466,295,64077,85,10,1:2:0:0:
259,213,64271,37,10,1:2:0:0:
458,109,64464,101,10,1:2:0:0:
469,109,64852,85,10,1:2:0:0:
482,83,64948,1,8,0:2:0:0:
477,54,65045,2,0,P|464:-5|490:-47,1,57.5000010967255,0|2,1:0|1:2,0:0:0:0:
381,115,65239,1,8,1:2:0:0:
375,143,65335,1,8,0:2:0:0:
368,171,65432,2,0,P|361:204|348:268,1,57.5000010967255,10|4,0:3|0:3,0:0:0:0:
225,68,65626,6,0,B|158:56|97:43|97:43|43:75|67:131,1,230.000004386902,14|10,1:1|0:2,0:0:0:0:
219,227,66206,1,0,0:0:0:0:
96,349,66400,1,10,0:2:0:0:
219,217,66593,1,0,1:0:0:0:
342,339,66787,1,10,0:2:0:0:
219,207,66981,1,0,1:0:0:0:
93,357,67174,6,0,P|44:328|41:266,1,115.000002193451,10|0,0:2|0:0,0:0:0:0:
175,137,67561,2,0,P|184:192|203:302,1,115.000002193451,10|2,0:2|0:2,0:0:0:0:
352,342,67948,1,10,0:2:0:0:
268,190,68142,1,0,1:0:0:0:
429,235,68335,1,8,0:2:0:0:
262,186,68529,1,0,1:0:0:0:
440,311,68723,6,0,P|452:249|471:155,1,115.000002193451,10|0,0:2|0:0,0:0:0:0:
328,49,69110,2,0,P|358:103|334:162,1,115.000002193451,10|0,0:2|0:0,0:0:0:0:
227,279,69497,1,10,0:2:0:0:
115,148,69690,1,0,1:0:0:0:
3,272,69884,1,10,0:2:0:0:
115,141,70077,1,0,1:0:0:0:
233,283,70271,6,0,B|301:246|346:301|330:310|377:379|471:315,1,230.000004386902,10|10,0:2|0:2,0:0:0:0:
338,184,70852,1,2,1:2:0:0:
495,116,71045,1,8,0:2:0:0:
344,54,71239,1,0,1:0:0:0:
503,117,71432,1,8,1:2:0:0:
504,157,71528,1,8,0:2:0:0:
506,197,71625,1,2,1:0:0:0:
507,237,71722,1,0,1:0:0:0:
509,277,71819,6,0,P|449:286|402:222,1,115.000002193451,14|0,1:1|0:0,0:0:0:0:
364,195,72110,2,0,P|303:186|256:250,1,115.000002193451,2|0,0:2|0:0,0:0:0:0:
243,288,72400,1,2,0:2:0:0:
125,169,72593,2,0,B|151:116|151:116|121:67,1,115.000002193451,10|0,0:2|1:0,0:0:0:0:
170,16,72884,2,0,B|144:69|144:69|174:118,1,115.000002193451,2|0,0:2|0:0,0:0:0:0:
240,146,73174,1,2,1:2:0:0:
385,37,73368,6,0,B|370:137|370:137|372:141|372:141|353:277,1,230.000004386902,10|8,0:2|0:2,0:0:0:0:
203,329,73948,1,2,1:2:0:0:
191,316,74045,1,2,0:2:0:0:
193,299,74142,1,8,0:2:0:0:
344,381,74335,1,0,1:0:0:0:
186,300,74529,1,8,0:2:0:0:
350,251,74722,1,2,1:2:0:0:
219,382,74916,6,0,P|204:315|188:242,1,115.000002193451,14|0,1:1|0:0,0:0:0:0:
241,214,75206,2,0,P|256:147|272:74,1,115.000002193451,2|0,0:2|0:0,0:0:0:0:
217,45,75497,1,2,0:2:0:0:
66,128,75690,2,0,P|95:165|78:236,1,115.000002193451,10|0,0:2|1:0,0:0:0:0:
30,272,75981,2,0,P|67:243|138:260,1,115.000002193451,2|0,0:2|0:0,0:0:0:0:
169,313,76271,2,0,P|198:279|200:246,1,57.5000010967255,6|0,1:2|0:0,0:0:0:0:
198,261,76658,21,0,1:0:0:0:
320,139,76852,2,0,B|404:111|384:241|512:167,1,172.500003290176,8|2,1:2|0:2,0:0:0:0:
511,243,77239,1,10,1:2:0:0:
495,266,77335,1,8,0:2:0:0:
467,275,77432,2,0,P|455:308|439:357,1,57.5000010967255,0|0,1:0|1:0,0:0:0:0:
311,210,77626,1,8,1:2:0:0:
327,233,77722,1,8,0:2:0:0:
355,242,77819,2,0,P|366:275|383:324,1,57.5000010967255,8|4,0:3|0:3,0:0:0:0:
270,369,78013,6,0,P|211:374|167:331,1,115.000002193451,14|0,1:1|0:0,0:0:0:0:
87,190,78400,2,0,P|110:240|88:300,1,115.000002193451,10|0,0:2|0:0,0:0:0:0:
18,129,78787,1,10,0:2:0:0:
157,27,78981,1,0,1:0:0:0:
296,122,79174,1,10,0:2:0:0:
157,20,79368,1,0,1:0:0:0:
209,197,79561,6,0,B|287:160|285:265|370:215|370:215|326:221|299:184,1,230.000004386902,10|10,0:2|0:2,0:0:0:0:
450,67,80142,1,2,1:2:0:0:
288,125,80335,1,8,0:2:0:0:
435,199,80529,1,0,1:0:0:0:
279,125,80722,1,8,0:2:0:0:
329,289,80916,1,0,1:0:0:0:
270,125,81110,6,0,P|230:106|133:206,1,172.500003290176,14|0,1:1|0:0,0:0:0:0:
149,238,81497,2,0,B|179:297|179:358|179:358|189:329|210:308,1,172.500003290176,10|0,0:2|0:0,0:0:0:0:
251,265,81884,2,0,B|333:231|323:365|444:284,1,172.500003290176,10|0,1:2|0:0,0:0:0:0:
467,263,82271,2,0,B|452:173|452:173|450:172|450:172|434:88,1,172.500003290176,10|0,0:2|0:0,0:0:0:0:
378,48,82658,5,10,1:2:0:0:
271,184,82852,2,0,P|240:177|171:165,1,57.5000010967255,6|0,1:2|0:0,0:0:0:0:
145,160,83045,1,10,0:2:0:0:
301,103,83239,2,0,B|364:150|364:150|321:318,1,230.000004386902,6|4,1:1|1:2,0:0:0:0:
156,363,83819,1,10,0:2:0:0:
190,343,83915,1,8,0:2:0:0:
205,307,84012,1,8,0:3:0:0:
194,269,84109,1,4,0:3:0:0:
162,246,84206,6,0,P|141:188|173:140,1,115.000002193451,14|0,1:1|0:0,0:0:0:0:
321,304,84593,2,0,P|380:291|459:273,1,115.000002193451,8|2,0:2|0:2,0:0:0:0:
400,78,84981,2,0,P|347:128|401:224,1,172.500003290176,2|0,1:2|0:0,0:0:0:0:
447,209,85368,1,10,1:2:0:0:
462,201,85464,1,8,0:2:0:0:
473,188,85561,1,8,0:3:0:0:
480,172,85658,1,4,0:3:0:0:
481,160,85755,6,0,P|464:102|367:96,1,150.000005722046,6|2,1:1|0:2,0:0:0:0:
281,181,86335,2,0,P|257:177|237:175,1,37.5000014305115,4|0,0:2|0:0,0:0:0:0:
192,125,86529,1,2,0:2:0:0:
185,114,86723,1,10,0:3:0:0:
123,207,86916,1,6,0:3:0:0:
28,146,87110,1,2,0:2:0:0:
89,51,87303,54,0,B|160:33|195:98|195:98|228:178|301:163|301:163|252:158|237:103,1,349.999989318848,6|0,1:1|0:0,0:0:0:0:
