osu file format v14

[General]
AudioFilename: audio.mp3
AudioLeadIn: 0
PreviewTime: 64755
Countdown: 0
SampleSet: Soft
StackLeniency: 0.4
Mode: 0
LetterboxInBreaks: 0
WidescreenStoryboard: 1

[Editor]
Bookmarks: 6013,16077,28464,31561,39303,40852,53239,59432,63303,65626,71819,76658,78013,81110,84206,85755,87303
DistanceSpacing: 1.1
BeatDivisor: 4
GridSize: 4
TimelineZoom: 1.7

[Metadata]
Title:Nanairo Symphony (TV Size)
TitleUnicode:七色シンフォニー (TV Size)
Artist:Coalamode.
ArtistUnicode:コアラモード.
Creator:TheOneForce
Version:Bluish Normal
Source:四月は君の嘘
Tags:kelinimo FlyzyStyle shigatsu wa kimi no uso your lie in april opening op japanese female vocalist anime pop jpop j-pop
BeatmapID:2891177
BeatmapSetID:1280262

[Difficulty]
HPDrainRate:3
CircleSize:3.5
OverallDifficulty:4
ApproachRate:5
SliderMultiplier:0.94
SliderTickRate:1

[Events]
//Background and Video events
0,0,"Bluish_80600804.jpg",0,0
//Break Periods
//Storyboard Layer 0 (Background)
//Storyboard Layer 1 (Fail)
//Storyboard Layer 2 (Pass)
//Storyboard Layer 3 (Foreground)
//Storyboard Layer 4 (Overlay)
//Storyboard Sound Samples

[TimingPoints]
594,387.096774193548,4,2,14,54,1,0
594,-87.719298245614,4,2,14,54,0,0
4464,-87.719298245614,4,2,14,64,0,0
4755,-87.719298245614,4,2,14,74,0,0
5239,-87.719298245614,4,2,14,64,0,0
6013,-87.719298245614,4,2,14,44,0,0
6303,-87.719298245614,4,2,14,54,0,0
6400,-87.719298245614,4,2,14,54,0,0
6593,-87.719298245614,4,2,14,64,0,0
6787,-87.719298245614,4,2,14,64,0,0
14723,-87.719298245614,4,2,14,64,0,0
16077,-87.719298245614,4,2,14,44,0,0
28464,-87.719298245614,4,2,14,44,0,0
29045,-87.719298245614,4,2,14,44,0,0
29626,-87.719298245614,4,2,14,44,0,0
38916,-87.719298245614,4,2,14,64,0,0
39110,-87.719298245614,4,2,14,54,0,0
39303,-87.719298245614,4,2,14,44,0,0
39497,-87.719298245614,4,2,14,54,0,0
39690,-87.719298245614,4,2,14,64,0,0
39884,-87.719298245614,4,2,14,74,0,0
40077,-87.719298245614,4,2,14,54,0,0
40852,-87.719298245614,4,2,14,64,0,0
59432,-87.719298245614,4,2,14,74,0,0
63303,-87.719298245614,4,2,14,94,0,0
63593,-87.719298245614,4,2,14,84,0,0
63884,-87.719298245614,4,2,14,74,0,0
64077,-87.719298245614,4,2,14,84,0,0
64755,-87.719298245614,4,2,14,74,0,0
65626,-80.6451612903226,4,2,14,94,0,1
84206,-80.6451612903226,4,2,14,94,0,1
85755,-80.6451612903226,4,2,14,84,0,0
87303,402.684563758389,4,2,14,84,1,0
87907,465.116279069767,4,2,14,84,1,0
88139,387.096774193548,4,2,14,84,1,0
89300,-80.6451612903226,4,2,14,5,0,0

[Colours]
Combo1 : 235,18,46
Combo2 : 255,96,28
Combo3 : 255,242,79
Combo4 : 60,218,57
Combo5 : 148,235,255
Combo6 : 0,123,234
Combo7 : 193,96,255
Combo8 : 37,255,215

[HitObjects]
0,114,594,118,0,P|59:149|101:127,1,107.159998691895,2|2,1:2|0:2,0:0:0:0:
121,87,1174,1,2,1:2:0:0:
229,39,1561,1,2,0:2:0:0:
278,146,1948,2,0,B|372:173|341:95|442:129,1,160.739998037842,2|0,1:2|0:0,0:0:0:0:
478,160,2723,1,2,1:2:0:0:
512,273,3110,1,2,0:2:0:0:
402,315,3497,2,0,B|342:315|308:358|308:358|268:321|209:331,1,214.319997383789,2|0,1:2|0:0,0:0:0:0:
186,278,4464,6,0,P|153:297|108:292,2,80.3699990189209,2|2|2,0:2|0:2|0:2,0:0:0:0:
189,218,5239,2,0,L|189:137,2,53.5799993459473,2|2|2,0:2|0:2|0:2,0:0:0:0:
301,257,6013,1,2,0:2:0:0:
407,206,6400,2,0,L|399:137,1,53.5799993459473,0|2,0:0|0:2,0:0:0:0:
411,95,6787,6,0,P|360:55|301:60,1,107.159998691895,10|2,0:2|0:2,0:0:0:0:
214,107,7561,1,2,0:2:0:0:
141,14,7948,1,2,0:2:0:0:
26,41,8335,2,0,L|2:165,1,107.159998691895,2|2,1:2|0:2,0:0:0:0:
56,177,8916,2,0,B|76:282|76:282|27:330,1,160.739998037842,2|2,0:2|0:2,0:0:0:0:
145,368,9884,6,0,P|198:385|254:367,1,107.159998691895,10|2,0:2|0:2,0:0:0:0:
305,270,10658,1,2,0:2:0:0:
387,355,11045,1,2,0:2:0:0:
496,311,11432,2,0,P|473:259|486:201,1,107.159998691895,2|2,1:2|0:2,0:0:0:0:
511,160,12013,2,0,P|473:93|397:101,1,160.739998037842,2|2,0:2|0:2,0:0:0:0:
305,172,12981,6,0,L|116:141,1,160.739998037842,6|2,1:2|0:2,0:0:0:0:
101,184,13755,2,0,P|113:221|102:260,2,80.3699990189209,2|2|6,0:2|0:2|0:2,0:0:0:0:
32,95,14723,1,2,1:2:0:0:
32,95,14916,2,0,P|82:97|103:81,1,53.5799993459473,14|0,1:1|0:0,0:0:0:0:
130,60,15303,2,0,B|169:63|169:63|192:78|192:78|232:82,1,107.159998691895,2|2,1:2|1:2,0:0:0:0:
346,50,16077,6,0,P|311:82|373:193,1,160.739998037842,6|2,1:1|1:2,0:0:0:0:
394,189,16852,1,2,3:2:0:0:
446,295,17239,1,2,3:2:0:0:
344,355,17626,2,0,B|301:322|301:322|250:341,1,107.159998691895,2|2,1:2|3:2,0:0:0:0:
138,384,18400,1,2,3:2:0:0:
32,331,18787,1,2,3:2:0:0:
108,241,19174,22,0,B|117:181|117:181|91:144|91:144|105:73,1,160.739998037842,2|0,1:2|1:0,0:0:0:0:
116,32,19948,1,0,3:0:0:0:
234,28,20335,1,0,3:0:0:0:
350,7,20723,2,0,B|390:43|390:43|373:124,1,107.159998691895,2|2,1:2|3:2,0:0:0:0:
363,152,21303,1,2,1:2:0:0:
192,198,21884,1,2,3:2:0:0:
218,313,22271,70,0,P|258:282|312:288,1,107.159998691895,2|2,1:2|3:2,0:0:0:0:
398,368,23045,1,2,3:2:0:0:
487,291,23432,1,2,3:2:0:0:
402,210,23819,2,0,L|395:73,1,107.159998691895,2|2,1:2|3:2,0:0:0:0:
340,0,24593,1,2,3:2:0:0:
226,33,24981,1,2,3:2:0:0:
108,25,25368,6,0,B|74:117|155:83|121:178,1,160.739998037842,2|2,1:2|1:2,0:0:0:0:
101,231,26142,1,0,3:0:0:0:
31,326,26529,1,0,3:0:0:0:
140,384,26916,1,2,1:2:0:0:
140,384,27110,1,2,0:2:0:0:
226,303,27497,2,0,P|223:234|278:181,1,107.159998691895,2|2,1:2|0:2,0:0:0:0:
295,178,28077,2,0,P|315:162|330:139,1,53.5799993459473,2|2,3:2|0:2,0:0:0:0:
332,80,28464,22,0,B|377:52|377:52|449:71,2,107.159998691895,6|2|2,1:1|3:2|3:2,0:0:0:0:
217,108,29626,1,2,3:2:0:0:
169,215,30013,2,0,B|124:243|124:243|52:224,2,107.159998691895,2|2|2,1:2|3:2|3:2,0:0:0:0:
226,230,30981,1,2,0:2:0:0:
321,308,31368,1,2,0:2:0:0:
321,308,31561,70,0,B|407:271|391:348|473:315,1,160.739998037842,2|2,1:2|1:2,0:0:0:0:
485,257,32335,1,0,3:0:0:0:
462,141,32723,1,0,3:0:0:0:
362,89,33110,1,2,1:2:0:0:
362,89,33303,2,0,L|385:7,2,53.5799993459473,2|2|2,0:2|3:2|1:2,0:0:0:0:
251,121,34077,1,2,0:2:0:0:
251,121,34271,1,2,3:2:0:0:
149,61,34658,6,0,P|84:58|31:111,1,107.159998691895,2|2,1:2|3:2,0:0:0:0:
46,201,35432,1,2,3:2:0:0:
46,201,35626,2,0,P|97:189|146:208,1,107.159998691895,2|2,0:2|0:2,0:0:0:0:
168,263,36206,2,0,P|219:275|268:256,1,107.159998691895,2|2,1:2|3:2,0:0:0:0:
292,140,36981,1,2,3:2:0:0:
406,110,37368,1,2,3:2:0:0:
464,212,37755,22,0,P|426:256|444:325,1,107.159998691895,2|2,1:2|3:2,0:0:0:0:
442,359,38335,2,0,B|388:337|388:337|318:359,1,107.159998691895,2|0,1:2|0:0,0:0:0:0:
289,380,38916,1,6,3:2:0:0:
200,301,39303,2,0,L|216:241,2,53.5799993459473,6|10|6,1:2|0:3|0:3,0:0:0:0:
141,306,39884,1,6,1:1:0:0:
101,194,40271,2,0,L|162:186,1,53.5799993459473,2|10,0:2|0:3,0:0:0:0:
178,134,40658,1,6,0:3:0:0:
178,134,40852,70,0,B|219:139|219:139|240:156|240:156|288:162,1,107.159998691895,6|0,1:1|0:0,0:0:0:0:
325,126,41432,2,0,B|357:169|357:169|338:219,1,107.159998691895,6|0,1:2|0:0,0:0:0:0:
316,274,42013,1,8,0:2:0:0:
275,384,42400,2,0,L|407:363,1,107.159998691895,2|0,1:2|0:0,0:0:0:0:
439,359,42981,1,6,1:2:0:0:
485,253,43368,1,2,1:2:0:0:
485,253,43561,2,0,L|498:188,1,53.5799993459473,10|6,0:3|0:3,0:0:0:0:
512,145,43948,6,0,B|463:125|463:125|451:70,1,107.159998691895,2|0,1:2|0:0,0:0:0:0:
478,22,44529,2,0,L|351:4,1,107.159998691895,6|0,1:2|0:0,0:0:0:0:
313,0,45110,1,8,0:2:0:0:
269,112,45497,1,2,1:2:0:0:
269,112,45690,2,0,L|265:190,1,53.5799993459473,2|2,0:2|0:2,0:0:0:0:
262,224,46077,1,6,1:2:0:0:
199,325,46464,1,2,1:2:0:0:
199,325,46658,2,0,L|121:321,1,53.5799993459473,10|4,0:3|0:3,0:0:0:0:
103,281,47045,22,0,P|43:302|0:281,1,107.159998691895,2|0,1:2|0:0,0:0:0:0:
5,226,47626,2,0,L|21:119,1,107.159998691895,6|0,1:2|0:0,0:0:0:0:
30,62,48206,1,8,0:2:0:0:
129,125,48593,2,0,B|176:152|176:152|227:130,1,107.159998691895,2|2,1:2|0:2,0:0:0:0:
267,90,49174,1,0,1:0:0:0:
267,90,49368,2,0,P|282:145|328:178,1,107.159998691895,2|14,1:2|0:2,0:0:0:0:
262,278,50142,70,0,P|210:254|155:268,1,107.159998691895,2|2,1:2|0:2,0:0:0:0:
143,319,50723,2,0,P|174:364|230:380,1,107.159998691895,4|0,1:2|1:0,0:0:0:0:
281,377,51303,1,10,0:2:0:0:
387,326,51690,2,0,B|374:274|374:274|414:235,1,107.159998691895,2|0,1:2|0:0,0:0:0:0:
464,208,52271,1,8,0:3:0:0:
464,208,52465,2,0,B|467:181|467:181|456:157,1,53.5799993459473,6|2,1:2|0:2,0:0:0:0:
433,108,52852,1,8,1:2:0:0:
348,25,53239,6,0,B|308:33|308:33|287:17|287:17|244:24,1,107.159998691895,6|0,1:1|0:0,0:0:0:0:
228,80,53819,2,0,B|181:105|181:105|128:94,1,107.159998691895,2|0,1:2|0:0,0:0:0:0:
71,80,54400,1,8,0:2:0:0:
129,182,54787,2,0,P|149:232|134:286,1,107.159998691895,2|0,1:2|0:0,0:0:0:0:
105,332,55368,1,6,1:2:0:0:
223,364,55755,1,2,1:2:0:0:
223,364,55948,2,0,L|290:352,1,53.5799993459473,10|6,0:3|0:3,0:0:0:0:
329,329,56335,22,0,P|398:344|445:311,1,107.159998691895,2|0,1:2|0:0,0:0:0:0:
443,272,56916,2,0,P|386:228|330:238,1,107.159998691895,4|0,1:2|0:0,0:0:0:0:
299,251,57497,1,8,0:2:0:0:
337,140,57884,2,0,B|354:90|354:90|323:47,1,107.159998691895,2|2,1:2|0:2,0:0:0:0:
286,0,58464,1,4,1:2:0:0:
201,81,58851,1,8,0:3:0:0:
201,81,59045,2,0,L|209:137,1,53.5799993459473,10|4,0:3|0:3,0:0:0:0:
214,193,59432,70,0,L|89:172,1,107.159998691895,6|2,1:1|0:2,0:0:0:0:
54,170,60013,1,0,1:0:0:0:
54,170,60207,2,0,L|62:226,1,53.5799993459473,2|0,1:2|0:0,0:0:0:0:
70,281,60593,1,10,0:2:0:0:
132,381,60981,2,0,P|177:336|231:342,1,107.159998691895,2|2,1:2|0:2,0:0:0:0:
277,359,61561,1,0,1:0:0:0:
277,359,61755,2,0,L|377:338,1,53.5799993459473,2|0,1:2|0:0,0:0:0:0:
387,335,62142,1,10,0:2:0:0:
494,384,62529,6,0,L|509:280,1,53.5799993459473,2|0,1:2|1:0,0:0:0:0:
512,273,62916,1,8,0:2:0:0:
454,170,63303,2,0,B|475:136|475:136|457:91,2,80.3699990189209,6|2|2,1:1|1:2|1:2,0:0:0:0:
402,180,64077,1,10,1:2:0:0:
402,180,64271,1,10,1:2:0:0:
402,180,64464,1,10,1:2:0:0:
285,196,64852,22,0,L|231:203,1,53.5799993459473,10|0,1:2|1:0,0:0:0:0:
200,153,65239,2,0,L|146:160,1,53.5799993459473,8|10,1:2|0:3,0:0:0:0:
99,203,65626,6,0,P|57:172|53:110,1,116.559995375733,14|10,1:1|0:2,0:0:0:0:
169,58,66400,2,0,P|204:60|227:51,1,58.2799976878663,10|0,0:2|1:0,0:0:0:0:
263,0,66787,2,0,P|298:-2|321:7,1,58.2799976878663,10|0,0:2|1:0,0:0:0:0:
376,36,67174,1,10,0:2:0:0:
382,168,67561,1,10,0:2:0:0:
382,168,67755,2,0,P|460:146|493:174,1,116.559995375733,2|0,0:2|1:0,0:0:0:0:
507,222,68335,2,0,L|497:290,1,58.2799976878663,8|0,0:2|1:0,0:0:0:0:
486,343,68723,5,10,0:2:0:0:
361,372,69110,1,10,0:2:0:0:
276,276,69497,2,0,P|247:277|220:292,1,58.2799976878663,10|0,0:2|1:0,0:0:0:0:
176,336,69884,2,0,P|147:334|120:319,1,58.2799976878663,10|0,0:2|1:0,0:0:0:0:
82,270,70271,1,10,0:2:0:0:
55,149,70658,1,10,0:2:0:0:
55,149,70852,2,0,L|171:112,1,116.559995375733,2|0,1:2|1:0,0:0:0:0:
218,151,71432,1,8,1:2:0:0:
267,33,71819,6,0,P|311:-3|368:0,1,116.559995375733,14|8,1:1|0:2,0:0:0:0:
434,110,72594,2,0,P|408:161|355:181,1,116.559995375733,10|8,0:2|0:2,0:0:0:0:
299,162,73174,1,2,1:2:0:0:
299,162,73368,2,0,P|349:198|378:270,1,116.559995375733,10|8,0:2|0:2,0:0:0:0:
386,373,74142,2,0,L|328:360,1,58.2799976878663,8|0,0:2|1:0,0:0:0:0:
269,383,74529,2,0,L|198:368,1,58.2799976878663,8|2,0:2|1:2,0:0:0:0:
187,312,74916,6,0,B|139:278|139:278|62:295,1,116.559995375733,14|10,1:1|0:2,0:0:0:0:
1,192,75690,2,0,B|35:144|35:144|23:88,1,116.559995375733,10|8,0:2|0:2,0:0:0:0:
1,27,76271,1,6,1:2:0:0:
130,4,76658,5,0,1:0:0:0:
130,4,76852,2,0,L|93:91,1,58.2799976878663,8|2,1:2|1:2,0:0:0:0:
153,102,77239,2,0,L|140:195,1,58.2799976878663,10|0,1:2|1:0,0:0:0:0:
207,176,77626,2,0,L|219:270,1,58.2799976878663,8|8,1:2|0:3,0:0:0:0:
223,298,78013,5,14,1:1:0:0:
341,349,78400,1,10,0:2:0:0:
409,240,78787,2,0,P|405:201|382:172,1,58.2799976878663,10|0,0:2|1:0,0:0:0:0:
337,159,79174,2,0,P|340:120|363:91,1,58.2799976878663,10|0,0:2|1:0,0:0:0:0:
382,49,79561,1,10,0:2:0:0:
260,30,79948,1,10,0:2:0:0:
260,30,80142,2,0,B|197:42|214:-7|151:5,1,116.559995375733,2|0,1:2|1:0,0:0:0:0:
90,24,80723,2,0,L|106:108,1,58.2799976878663,8|0,0:2|1:0,0:0:0:0:
64,134,81110,5,14,1:1:0:0:
189,162,81497,1,10,0:2:0:0:
201,290,81884,1,10,1:2:0:0:
84,341,82271,1,10,0:2:0:0:
0,244,82658,2,0,P|6:206|36:176,1,58.2799976878663,10|6,1:2|1:2,0:0:0:0:
79,221,83045,1,8,0:0:0:0:
79,221,83239,2,0,L|204:185,1,116.559995375733,6|4,1:1|1:2,0:0:0:0:
245,223,83819,1,10,0:2:0:0:
338,135,84206,22,0,P|296:90|306:31,1,116.559995375733,14|8,1:1|0:2,0:0:0:0:
369,36,84787,1,2,0:2:0:0:
369,36,84981,2,0,P|393:50|422:52,1,58.2799976878663,2|2,1:2|0:2,0:0:0:0:
472,10,85368,1,10,1:2:0:0:
462,138,85755,102,0,P|423:166|438:249,2,116.559995375733,6|2|2,1:1|0:2|0:2,0:0:0:0:
512,187,86723,1,8,0:3:0:0:
512,187,86916,1,6,0:3:0:0:
475,310,87303,1,6,1:1:0:0:
256,192,87504,12,0,89300,0:0:0:0:
