osu file format v14

[General]
AudioFilename: audio.mp3
AudioLeadIn: 0
PreviewTime: 64755
Countdown: 0
SampleSet: Soft
StackLeniency: 0.7
Mode: 0
LetterboxInBreaks: 0
WidescreenStoryboard: 1

[Editor]
DistanceSpacing: 1
BeatDivisor: 4
GridSize: 32
TimelineZoom: 1

[Metadata]
Title:Nanairo Symphony (TV Size)
TitleUnicode:七色シンフォニー (TV Size)
Artist:Coalamode.
ArtistUnicode:コアラモード.
Creator:Sotarks
Version:Normal
Source:四月は君の嘘
Tags:shigatsu wa kimi no uso your lie in april opening op japanese female vocalist anime pop
BeatmapID:2611170
BeatmapSetID:1256023

[Difficulty]
HPDrainRate:3
CircleSize:3.2
OverallDifficulty:4
ApproachRate:5
SliderMultiplier:1.12
SliderTickRate:1

[Events]
//Background and Video events
0,0,"bg.jpg",0,0
//Break Periods
//Storyboard Layer 0 (Background)
//Storyboard Layer 1 (Fail)
//Storyboard Layer 2 (Pass)
//Storyboard Layer 3 (Foreground)
//Storyboard Layer 4 (Overlay)
//Storyboard Sound Samples

[TimingPoints]
594,387.096774193548,4,2,22,52,1,0
594,-121.951219512195,4,2,22,52,0,0
16077,-108.695652173913,4,2,22,42,0,0
40852,-108.695652173913,4,2,22,52,0,0
59432,-108.695652173913,4,2,22,62,0,0
65626,-98.0392156862745,4,2,22,72,0,0
85755,-98.0392156862745,4,2,22,62,0,0
87400,-98.0392156862745,4,2,22,62,0,0
89432,-98.0392156862745,4,2,22,12,0,0

[Colours]
Combo1 : 253,255,166
Combo2 : 81,190,255

[HitObjects]
78,63,594,6,0,P|141:60|174:78,1,91.8400014013672,2|2,2:0|2:0,2:0:0:0:
199,103,1174,1,2,2:0:0:0:
276,53,1561,1,2,2:0:0:0:
363,80,1948,2,0,P|390:143|372:213,1,137.760002102051,2|0,2:0|2:0,2:0:0:0:
344,242,2723,2,0,P|301:226|256:233,1,91.8400014013672,2|0,2:0|2:0,2:0:0:0:
226,320,3497,2,0,P|213:229|197:124,1,183.680002802734,2|0,2:0|2:0,2:0:0:0:
210,93,4464,2,0,P|252:72|282:72,2,68.8800010510254,2|0|0,2:0|2:0|2:0,2:0:0:0:
169,71,5239,1,2,2:0:0:0:
89,117,5626,1,2,2:0:0:0:
117,204,6013,2,0,P|134:281|144:348,1,137.760002102051,2|2,2:0|2:0,2:0:0:0:
179,367,6787,6,0,P|227:378|275:347,1,91.8400014013672,2|2,2:0|2:0,2:0:0:0:
317,285,7561,2,0,P|365:274|413:305,1,91.8400014013672,2|2,2:0|2:0,2:0:0:0:
435,376,8335,2,0,P|440:331|447:272,1,91.8400014013672,2|2,2:0|2:0,2:0:0:0:
453,239,8916,1,2,2:0:0:0:
464,9,9884,2,0,P|417:5|366:37,1,91.8400014013672,2|2,2:0|2:0,2:0:0:0:
340,108,10658,2,0,P|293:112|242:80,1,91.8400014013672,2|2,2:0|2:0,2:0:0:0:
167,63,11432,6,0,P|161:108|156:154,1,91.8400014013672,2|2,2:0|2:0,2:0:0:0:
124,186,12013,2,0,B|234:169|178:254|309:237,1,183.680002802734,2|0,2:0|2:0,2:0:0:0:
326,209,12981,1,6,3:2:0:0:
445,287,13561,1,2,2:0:0:0:
445,287,13755,2,0,L|455:207,2,68.8800010510254,2|2|2,2:0|2:0|2:0,2:0:0:0:
395,364,14723,1,2,1:2:0:0:
395,364,14916,1,14,2:0:0:0:
332,297,15303,2,0,B|296:280|260:296|260:296|245:335|195:336,1,137.760002102051,10|10,2:3|2:0,2:0:0:0:
164,318,16077,6,0,P|151:261|175:213,1,103.039996541016,6|2,1:2|3:2,2:0:0:0:
254,165,16852,2,0,P|271:117|257:68,1,103.039996541016,2|2,3:2|3:2,0:0:0:0:
168,15,17626,1,2,1:2:0:0:
90,83,18013,1,2,3:2:0:0:
143,170,18400,2,0,B|169:222|169:222|151:280,1,103.039996541016,2|0,2:0|0:0,0:0:0:0:
105,354,19174,6,0,P|148:315|254:324,1,154.559994811524,2|2,1:2|1:2,2:0:0:0:
285,340,19948,2,0,P|339:356|396:335,1,103.039996541016,0|0,3:2|3:2,2:0:0:0:
449,264,20723,1,2,1:2:0:0:
436,161,21110,1,2,3:2:0:0:
368,83,21497,2,0,L|261:112,1,103.039996541016,2|2,3:2|3:2,2:0:0:0:
194,181,22271,5,2,1:2:0:0:
112,117,22658,1,2,3:2:0:0:
49,198,23045,2,0,P|29:257|47:305,1,103.039996541016,2|2,3:2|3:2,0:0:0:0:
132,338,23819,1,2,1:2:0:0:
226,296,24206,1,2,3:2:0:0:
303,364,24593,2,0,P|361:373|406:342,1,103.039996541016,2|0,3:2|3:2,0:0:0:0:
455,266,25368,6,0,B|456:234|479:206|479:206|472:165|429:124,1,154.559994811524,2|2,1:2|1:2,2:0:0:0:
440,78,26142,2,0,P|384:75|335:113,1,103.039996541016,0|0,3:2|3:2,2:0:0:0:
268,167,26916,1,2,1:2:0:0:
191,98,27303,1,0,3:2:0:0:
106,153,27690,1,0,3:2:0:0:
106,153,27884,2,0,L|117:210,1,51.5199982705079,2|0,2:0|3:2,2:0:0:0:
21,245,28464,6,0,P|66:244|109:289,1,103.039996541016,2|2,1:2|3:2,0:0:0:0:
138,322,29045,2,0,L|198:305,1,51.5199982705079,2|2,1:2|2:0,0:0:0:0:
281,351,29626,2,0,L|311:296,1,51.5199982705079,2|2,1:2|2:0,0:0:0:0:
408,299,30206,2,0,L|390:238,1,51.5199982705079,2|2,1:2|2:0,0:0:0:0:
452,164,30787,1,2,3:2:0:0:
452,164,30981,1,2,2:0:0:0:
421,70,31368,1,2,2:0:0:0:
421,70,31561,6,0,B|325:53|367:127|266:111,1,154.559994811524,2|0,1:2|1:2,2:0:0:0:
241,79,32335,2,0,P|200:47|149:45,1,103.039996541016,0|0,3:2|3:2,2:0:0:0:
67,105,33110,2,0,L|-2:85,2,51.5199982705079,2|2|2,1:2|2:0|3:2,0:0:0:0:
91,150,33690,1,2,1:2:0:0:
50,244,34077,2,0,P|44:272|52:311,1,51.5199982705079,2|0,2:0|3:2,2:0:0:0:
147,316,34658,5,2,1:2:0:0:
248,306,35045,1,2,3:2:0:0:
311,224,35432,2,0,P|307:172|266:120,1,103.039996541016,2|2,3:2|3:2,0:0:0:0:
207,56,36206,1,2,1:2:0:0:
129,123,36593,1,2,3:2:0:0:
194,202,36981,2,0,B|213:256|213:256|177:311,1,103.039996541016,2|2,3:2|3:2,0:0:0:0:
134,382,37755,5,2,1:2:0:0:
66,303,38142,1,0,3:2:0:0:
67,199,38529,2,0,P|73:144|107:96,1,103.039996541016,0|2,0:0|3:2,0:0:0:0:
197,76,39303,2,0,L|182:5,2,51.5199982705079,2|6|6,1:2|2:3|2:3,0:0:0:0:
201,127,39884,2,0,B|189:177|216:227|216:227|230:201|260:183,1,154.559994811524,6|8,1:2|2:3,2:0:0:0:
352,198,40852,6,0,P|412:210|432:299,1,154.559994811524,6|6,1:2|2:3,2:0:0:0:
386,302,41626,2,0,P|317:311|275:340,1,103.039996541016,2|8,1:2|2:0,2:0:0:0:
187,309,42400,1,2,1:2:0:0:
67,210,42981,1,2,1:2:0:0:
105,60,43561,1,6,2:3:0:0:
194,9,43948,6,0,P|237:52|242:148,1,154.559994811524,2|6,1:2|2:3,2:0:0:0:
221,188,44723,2,0,P|207:248|218:295,1,103.039996541016,2|8,1:2|2:0,2:0:0:0:
301,343,45497,1,2,1:2:0:0:
430,259,46077,1,2,1:2:0:0:
402,106,46658,1,6,2:3:0:0:
325,37,47045,6,0,B|234:25|274:96|166:77,1,154.559994811524,2|6,1:2|2:3,2:0:0:0:
141,48,47819,2,0,P|113:87|112:151,1,103.039996541016,2|8,1:2|2:0,2:0:0:0:
63,233,48593,2,0,L|222:206,1,154.559994811524,2|4,1:2|2:3,2:0:0:0:
266,198,49368,1,2,1:2:0:0:
343,265,49755,1,10,2:0:0:0:
428,207,50142,6,0,P|441:155|414:92,1,103.039996541016,2|2,1:2|2:0,2:0:0:0:
389,73,50723,1,4,2:3:0:0:
389,73,50916,2,0,P|331:84|269:95,1,103.039996541016,2|10,1:2|2:0,2:0:0:0:
202,33,51690,2,0,B|178:61|156:76|156:76|181:113|200:164,1,154.559994811524,2|6,1:2|2:3,2:0:0:0:
216,205,52464,1,2,1:2:0:0:
142,277,52852,2,0,L|154:335,1,51.5199982705079,8|4,2:2|1:3,0:0:0:0:
166,377,53239,6,0,P|220:330|311:345,1,154.559994811524,6|6,1:2|2:3,2:0:0:0:
341,366,54013,2,0,P|366:305|354:267,1,103.039996541016,2|8,1:2|2:0,2:0:0:0:
289,193,54787,1,2,1:2:0:0:
183,306,55368,1,2,1:2:0:0:
93,180,55948,1,6,2:3:0:0:
15,247,56335,6,0,P|-11:206|34:101,1,154.559994811524,2|4,1:2|2:3,2:0:0:0:
43,65,57110,2,0,B|107:54|85:93|163:81,1,103.039996541016,2|8,1:2|2:0,2:0:0:0:
224,21,57884,2,0,L|241:132,1,103.039996541016,2|2,1:2|2:0,2:0:0:0:
341,107,58658,2,0,L|324:218,1,103.039996541016,10|6,2:3|2:3,2:0:0:0:
372,300,59432,5,6,1:2:0:0:
287,359,59819,1,2,2:0:0:0:
214,285,60206,1,2,1:2:0:0:
129,344,60593,1,10,2:0:0:0:
44,284,60981,2,0,P|35:229|70:178,1,103.039996541016,2|2,1:2|2:0,2:0:0:0:
95,155,61561,1,4,2:3:0:0:
95,155,61755,2,0,L|212:173,1,103.039996541016,2|10,1:2|2:0,0:0:0:0:
270,98,62529,6,0,P|303:85|340:85,1,51.5199982705079,2|0,1:2|1:2,0:0:0:0:
369,92,62916,1,8,2:0:0:0:
452,152,63303,2,0,P|467:114|460:60,2,77.2799974057618,14|10|6,1:2|1:3|1:3,2:0:0:0:
428,198,64077,2,0,L|440:266,1,51.5199982705079,10|10,1:2|1:2,0:0:0:0:
450,298,64464,1,10,1:2:0:0:
376,370,64852,2,0,P|311:371|277:340,1,103.039996541016,10|8,2:0|2:0,0:0:0:0:
251,308,65432,1,6,2:3:0:0:
197,287,65626,6,0,P|135:299|76:310,2,114.240000697266,14|10|10,2:0|2:0|2:0,2:0:0:0:
270,199,66787,1,10,2:0:0:0:
348,282,67174,2,0,P|395:272|429:216,1,114.240000697266,10|10,2:0|2:0,2:0:0:0:
457,169,67755,2,0,L|433:56,1,114.240000697266,2|0,1:2|1:2,2:0:0:0:
415,3,68335,1,8,2:0:0:0:
314,58,68723,6,0,P|266:27|193:37,2,114.240000697266,10|10|10,2:0|2:0|2:0,2:0:0:0:
234,140,69884,1,10,2:0:0:0:
304,229,70271,2,0,P|312:293|322:369,1,114.240000697266,10|10,2:0|2:0,2:0:0:0:
274,378,70852,2,0,P|231:343|160:354,1,114.240000697266,2|0,1:2|1:2,0:0:0:0:
126,376,71432,1,8,2:0:0:0:
33,309,71819,6,0,P|26:238|41:191,1,114.240000697266,14|8,2:0|2:0,2:0:0:0:
132,131,72593,2,0,P|145:186|136:242,1,114.240000697266,10|8,2:0|2:0,2:0:0:0:
188,344,73368,2,0,P|246:298|297:304,1,114.240000697266,10|8,2:0|2:0,2:0:0:0:
329,332,73948,1,2,1:2:0:0:
329,332,74142,2,0,P|388:348|467:271,1,171.360001045898,10|2,2:0|1:2,2:0:0:0:
457,224,74916,6,0,P|449:167|438:87,1,114.240000697266,14|8,2:0|2:0,2:0:0:0:
342,53,75690,2,0,P|334:109|326:166,1,114.240000697266,10|8,2:0|2:0,2:0:0:0:
314,222,76271,1,6,1:2:0:0:
210,174,76658,1,2,1:2:0:0:
210,174,76852,2,0,P|178:178|146:194,1,57.1200003486328,10|2,2:0|1:2,0:0:0:0:
123,235,77239,2,0,P|96:245|68:248,1,57.1200003486328,10|2,2:0|1:2,2:0:0:0:
13,232,77626,1,10,2:0:0:0:
58,127,78013,6,0,P|51:70|95:21,2,114.240000697266,14|10|10,2:0|2:0|2:0,2:0:0:0:
155,187,79174,1,10,2:0:0:0:
233,103,79561,2,0,P|303:96|351:126,1,114.240000697266,10|10,2:0|2:0,2:0:0:0:
384,151,80142,2,0,L|404:279,1,114.240000697266,2|0,1:2|1:2,0:0:0:0:
382,317,80723,1,8,2:0:0:0:
282,261,81110,6,0,L|222:276,1,57.1200003486328,14|0,2:0|2:0,2:0:0:0:
172,292,81497,1,10,2:0:0:0:
79,224,81884,2,0,L|138:208,1,57.1200003486328,10|0,2:0|1:2,2:0:0:0:
189,193,82271,1,10,2:0:0:0:
247,94,82658,2,0,P|314:88|352:125,1,114.240000697266,10|10,2:0|2:0,0:0:0:0:
373,167,83239,2,0,P|418:199|473:189,1,114.240000697266,6|0,1:2|1:2,2:0:0:0:
511,146,83819,1,8,2:0:0:0:
459,44,84206,6,0,L|334:64,1,114.240000697266,10|8,2:0|2:0,2:0:0:0:
271,148,84981,1,0,1:2:0:0:
210,51,85368,1,10,2:0:0:0:
115,115,85755,2,0,P|73:245|127:316,1,228.480001394531,6|8,1:2|2:3,2:0:0:0:
229,346,86916,1,4,2:3:0:0:
301,257,87303,1,6,1:2:0:0:
256,192,87400,12,0,89432,2:0:0:0:
