osu file format v14

[General]
AudioFilename: audio.mp3
AudioLeadIn: 0
PreviewTime: 64755
Countdown: 0
SampleSet: Soft
StackLeniency: 0.7
Mode: 0
LetterboxInBreaks: 0
WidescreenStoryboard: 0

[Editor]
DistanceSpacing: 1
BeatDivisor: 4
GridSize: 32
TimelineZoom: 1

[Metadata]
Title:Nanairo Symphony (TV Size)
TitleUnicode:七色シンフォニー (TV Size)
Artist:Coalamode.
ArtistUnicode:コアラモード.
Creator:Sotarks
Version:Insane
Source:四月は君の嘘
Tags:shigatsu wa kimi no uso your lie in april opening op japanese female vocalist anime pop
BeatmapID:2610290
BeatmapSetID:1256023

[Difficulty]
HPDrainRate:5.2
CircleSize:3.8
OverallDifficulty:8.7
ApproachRate:8.7
SliderMultiplier:1.62
SliderTickRate:1

[Events]
//Background and Video events
0,0,"bg.jpg",0,0
//Break Periods
//Storyboard Layer 0 (Background)
//Storyboard Layer 1 (Fail)
//Storyboard Layer 2 (Pass)
//Storyboard Layer 3 (Foreground)
//Storyboard Layer 4 (Overlay)
//Storyboard Sound Samples

[TimingPoints]
594,387.096774193548,4,2,22,52,1,0
594,-121.951219512195,4,2,22,52,0,0
12013,-161.290322580645,4,2,22,52,0,0
12981,-121.951219512195,4,2,22,52,0,0
14916,-98.0392156862744,4,2,22,52,0,0
16077,-108.695652173913,4,2,22,42,0,0
40852,-108.695652173913,4,2,22,52,0,0
59432,-108.695652173913,4,2,22,62,0,0
63303,-81.9672131147541,4,2,22,62,0,0
65626,-98.0392156862745,4,2,22,72,0,0
85755,-138.888888888889,4,2,22,62,0,0
87303,-192.307692307692,4,2,22,62,0,0
89432,-192.307692307692,4,2,22,12,0,0

[Colours]
Combo1 : 253,255,166
Combo2 : 81,190,255

[HitObjects]
63,189,594,6,0,P|70:227|79:275,1,66.4532110134886,2|0,2:0|2:0,2:0:0:0:
34,343,981,1,2,2:0:0:0:
176,231,1174,2,0,P|169:263|163:296,1,66.4532110134886,2|0,2:0|2:0,2:0:0:0:
299,355,1561,2,0,P|292:322|286:289,1,66.4532110134886,2|0,2:0|2:0,2:0:0:0:
355,185,1948,6,0,B|302:155|253:197|277:216|227:254|158:225,1,199.359633040466,2|0,2:0|2:0,2:0:0:0:
62,129,2723,2,0,P|129:138|212:151,1,132.906422026978,2|0,2:0|2:0,2:0:0:0:
263,69,3303,1,2,2:0:0:0:
355,185,3497,2,0,P|442:161|350:81,1,265.812844053955,2|0,2:0|2:0,2:0:0:0:
262,189,4464,6,0,P|269:227|284:305,2,99.679816520233,2|0|0,2:0|2:0|2:0,2:0:0:0:
156,297,5239,1,2,2:0:0:0:
247,98,5432,1,2,2:0:0:0:
361,320,5626,1,2,2:0:0:0:
361,320,6013,2,0,P|406:292|459:297,2,99.679816520233,2|2|2,2:0|2:0|2:0,2:0:0:0:
301,383,6787,6,0,P|256:330|276:255,1,132.906422026978,2|2,2:0|2:0,2:0:0:0:
307,173,7368,1,0,3:2:0:0:
307,173,7561,2,0,P|252:185|220:194,1,66.4532110134886,2|0,2:0|2:0,2:0:0:0:
192,69,7948,2,0,P|224:75|256:83,1,66.4532110134886,2|0,2:0|2:0,2:0:0:0:
117,175,8335,2,0,P|105:117|90:36,1,132.906422026978,2|2,2:0|2:0,2:0:0:0:
0,30,8916,2,0,P|12:95|25:160,1,132.906422026978,2|0,2:0|2:0,2:0:0:0:
25,160,9497,1,0,2:0:0:0:
11,359,9884,6,0,P|62:314|139:329,1,132.906422026978,2|2,2:0|2:0,2:0:0:0:
211,375,10464,1,0,3:2:0:0:
211,375,10658,2,0,P|217:342|223:309,1,66.4532110134886,2|0,2:0|2:0,2:0:0:0:
316,239,11045,2,0,P|322:271|328:304,1,66.4532110134886,2|0,2:0|2:0,2:0:0:0:
426,384,11432,2,0,P|471:341|441:254,1,132.906422026978,2|2,2:0|2:0,2:0:0:0:
497,194,12013,2,0,B|442:166|390:205|411:229|369:263|299:232,1,200.980432030518,2|0,2:0|2:0,2:0:0:0:
218,113,12981,6,0,P|208:182|197:266,1,132.906422026978,6|0,3:2|2:0,2:0:0:0:
235,324,13561,1,2,2:0:0:0:
235,324,13658,1,2,2:0:0:0:
235,324,13755,2,0,P|199:297|128:308,2,99.679816520233,2|2|2,2:0|2:0|2:0,2:0:0:0:
98,65,14723,1,2,1:2:0:0:
10,243,14916,2,0,P|56:231|106:219,1,82.6613105042723,14|0,2:0|2:0,2:0:0:0:
281,141,15303,2,0,P|241:130|200:120,1,82.6613105042723,10|0,2:3|1:2,2:0:0:0:
172,138,15593,1,0,1:2:0:0:
172,138,15690,1,10,2:0:0:0:
282,298,15884,1,10,2:0:0:0:
342,77,16077,6,0,B|319:100|299:117|299:117|322:161|344:213,1,149.114514996826,6|2,1:2|3:2,2:0:0:0:
391,300,16658,1,0,1:2:0:0:
404,140,16852,1,2,3:2:0:0:
388,327,17045,1,0,2:0:0:0:
497,174,17239,2,0,P|490:137|483:101,1,74.557257498413,2|0,3:2|2:0,2:0:0:0:
337,198,17626,5,2,1:2:0:0:
495,281,17819,1,2,2:0:0:0:
318,190,18013,1,2,3:2:0:0:
482,100,18206,1,2,1:2:0:0:
398,291,18400,1,2,2:0:0:0:
492,81,18593,2,0,P|507:162|520:230,1,149.114514996826,2|2,2:0|2:0,2:0:0:0:
405,156,19174,6,0,B|356:140|329:169|344:177|313:208|257:189,1,149.114514996826,2|0,1:2|3:2,2:0:0:0:
176,133,19755,1,2,1:2:0:0:
299,40,19948,2,0,P|291:80|283:124,1,74.557257498413,0|0,3:2|2:0,2:0:0:0:
173,29,20335,2,0,P|181:69|189:113,1,74.557257498413,0|0,3:2|2:0,2:0:0:0:
157,176,20626,1,0,2:0:0:0:
157,176,20723,6,0,P|116:167|76:159,1,74.557257498413,2|0,1:2|2:0,2:0:0:0:
208,256,21110,2,0,P|220:296|233:334,1,74.557257498413,2|0,3:2|1:2,2:0:0:0:
255,177,21497,2,0,P|283:145|310:115,1,74.557257498413,2|0,3:2|2:0,2:0:0:0:
157,176,21884,1,2,3:2:0:0:
304,252,22077,1,2,3:2:0:0:
168,365,22271,5,2,1:2:0:0:
255,177,22464,1,0,2:0:0:0:
311,372,22658,1,2,3:2:0:0:
160,262,22852,1,0,1:2:0:0:
327,224,23045,1,2,3:2:0:0:
132,272,23239,1,0,2:0:0:0:
311,372,23432,2,0,P|318:335|325:299,1,74.557257498413,2|0,3:2|2:0,2:0:0:0:
409,181,23819,5,2,1:2:0:0:
240,256,24013,1,2,2:0:0:0:
415,325,24206,1,2,3:2:0:0:
313,170,24400,1,2,1:2:0:0:
268,350,24593,1,2,3:2:0:0:
426,208,24787,2,0,P|419:171|412:135,1,74.557257498413,2|0,2:0|3:2,2:0:0:0:
349,282,25174,1,2,2:0:0:0:
502,117,25368,6,0,P|429:101|356:86,1,149.114514996826,2|0,1:2|3:2,2:0:0:0:
259,170,25948,1,2,1:2:0:0:
156,60,26142,2,0,P|148:100|140:144,1,74.557257498413,0|0,3:2|2:0,2:0:0:0:
34,109,26529,2,0,P|42:149|50:193,1,74.557257498413,0|0,3:2|2:0,2:0:0:0:
169,319,26916,5,2,1:2:0:0:
169,319,27110,2,0,P|205:311|242:304,1,74.557257498413,2|0,2:0|3:2,2:0:0:0:
370,191,27497,2,0,P|334:183|297:176,1,74.557257498413,2|0,1:2|3:2,2:0:0:0:
187,285,27884,2,0,P|223:277|260:270,2,74.557257498413,2|0|2,2:0|3:2|3:2,2:0:0:0:
84,169,28464,5,2,1:2:0:0:
43,343,28658,1,2,2:0:0:0:
79,195,28852,1,2,3:2:0:0:
206,384,29045,5,2,1:2:0:0:
165,210,29239,1,2,2:0:0:0:
201,358,29432,1,2,3:2:0:0:
350,153,29626,5,2,1:2:0:0:
309,327,29819,1,2,2:0:0:0:
345,179,30013,1,2,3:2:0:0:
468,384,30206,5,2,1:2:0:0:
427,210,30400,1,2,2:0:0:0:
463,358,30593,1,2,3:2:0:0:
321,147,30787,5,2,3:2:0:0:
321,147,30981,2,0,P|284:138|248:131,1,74.557257498413,2|0,2:0|3:2,2:0:0:0:
194,310,31368,1,2,2:0:0:0:
194,310,31561,2,0,P|264:297|358:279,1,149.114514996826,2|0,1:2|3:2,2:0:0:0:
458,333,32142,1,0,1:2:0:0:
342,246,32335,2,0,P|305:253|269:261,1,74.557257498413,0|0,3:2|2:0,2:0:0:0:
388,130,32723,2,0,P|424:137|460:145,1,74.557257498413,0|0,3:2|2:0,2:0:0:0:
365,25,33110,5,2,1:2:0:0:
294,207,33303,1,2,2:0:0:0:
357,47,33497,1,2,3:2:0:0:
221,253,33690,2,0,P|214:216|206:179,1,74.557257498413,2|0,1:2|3:2,2:0:0:0:
239,33,34077,2,0,P|203:25|166:18,2,74.557257498413,2|0|2,2:0|3:2|3:2,2:0:0:0:
410,173,34658,5,2,1:2:0:0:
342,16,34852,1,0,2:0:0:0:
237,164,35045,2,0,P|245:200|252:237,1,74.557257498413,2|0,3:2|1:2,2:0:0:0:
332,108,35432,1,2,3:2:0:0:
166,17,35626,2,0,P|158:53|151:90,1,74.557257498413,0|2,2:0|3:2,2:0:0:0:
70,221,36013,1,0,2:0:0:0:
237,163,36206,5,2,1:2:0:0:
59,74,36400,1,2,2:0:0:0:
245,193,36593,1,2,3:2:0:0:
166,17,36787,1,2,1:2:0:0:
85,195,36981,1,2,3:2:0:0:
272,67,37174,1,2,2:0:0:0:
99,166,37368,1,2,3:2:0:0:
282,272,37561,1,2,2:0:0:0:
202,134,37755,5,2,1:2:0:0:
202,134,37948,2,0,P|196:171|188:208,1,74.557257498413,2|0,2:0|3:2,2:0:0:0:
287,40,38335,2,0,P|299:117|312:208,1,149.114514996826,2|0,1:2|2:0,2:0:0:0:
231,331,38916,1,2,3:2:0:0:
409,238,39110,1,2,2:0:0:0:
202,168,39303,5,2,1:2:0:0:
368,332,39497,1,6,2:3:0:0:
372,106,39690,1,6,2:3:0:0:
187,269,39884,2,0,P|124:241|112:156,1,149.114514996826,6|2,1:2|2:0,2:0:0:0:
197,50,40464,1,8,2:3:0:0:
30,108,40658,1,6,2:3:0:0:
202,168,40852,6,0,B|250:146|280:181|268:188|300:222|363:190,1,149.114514996826,6|0,1:2|2:0,2:0:0:0:
442,119,41432,1,6,2:3:0:0:
389,275,41626,2,0,P|351:242|251:240,1,149.114514996826,2|8,1:2|2:0,2:0:0:0:
153,313,42206,1,10,2:3:0:0:
269,164,42400,2,0,P|261:200|255:237,1,74.557257498413,2|0,1:2|2:0,2:0:0:0:
227,250,42690,2,0,P|232:213|240:176,1,74.557257498413,2|0,2:0|2:0,2:0:0:0:
234,93,42981,2,0,P|168:89|126:173,1,149.114514996826,2|10,1:2|2:3,2:0:0:0:
219,268,43561,1,6,2:3:0:0:
219,268,43948,6,0,B|267:246|297:281|285:288|317:322|380:290,1,149.114514996826,2|0,1:2|2:0,2:0:0:0:
239,354,44529,1,6,2:3:0:0:
380,207,44723,2,0,P|392:283|404:358,1,149.114514996826,2|8,1:2|2:0,2:0:0:0:
480,224,45303,1,10,2:3:0:0:
355,299,45497,2,0,P|318:290|282:284,1,74.557257498413,2|0,1:2|2:0,2:0:0:0:
276,261,45787,2,0,P|312:267|348:275,1,74.557257498413,2|0,2:0|2:0,2:0:0:0:
425,324,46077,2,0,P|457:283|382:204,1,149.114514996826,2|10,1:2|2:3,2:0:0:0:
292,367,46658,1,6,2:3:0:0:
292,367,47045,6,0,B|252:384|217:352|229:345|193:319|148:337,1,149.114514996826,2|0,1:2|2:0,2:0:0:0:
52,376,47626,1,6,2:3:0:0:
216,256,47819,2,0,P|148:306|75:285,1,149.114514996826,2|8,1:2|2:0,2:0:0:0:
30,212,48400,1,10,2:3:0:0:
148,139,48593,2,0,P|140:175|135:212,1,74.557257498413,2|0,1:2|2:0,2:0:0:0:
188,328,48981,1,10,2:3:0:0:
51,250,49174,1,4,2:3:0:0:
230,179,49368,2,0,P|237:215|242:252,1,74.557257498413,2|0,1:2|2:0,2:0:0:0:
298,377,49755,1,10,2:0:0:0:
152,307,49948,1,10,2:3:0:0:
323,206,50142,6,0,P|359:212|395:220,1,74.557257498413,2|0,1:2|2:0,2:0:0:0:
465,92,50529,2,0,P|428:98|392:106,1,74.557257498413,2|4,2:0|2:3,2:0:0:0:
280,29,50916,2,0,P|272:65|267:102,1,74.557257498413,2|0,1:2|2:0,2:0:0:0:
166,195,51303,2,0,P|161:158|153:121,1,74.557257498413,10|0,2:0|2:0,2:0:0:0:
45,45,51690,2,0,P|91:89|192:60,1,149.114514996826,2|0,1:2|2:0,2:0:0:0:
257,3,52271,1,6,2:3:0:0:
141,133,52464,2,0,P|148:169|153:206,1,74.557257498413,2|0,1:2|1:2,2:0:0:0:
268,110,52852,1,8,2:2:0:0:
268,110,52948,1,8,2:2:0:0:
268,110,53045,1,4,1:3:0:0:
113,303,53239,6,0,B|152:320|187:288|175:281|211:255|256:273,1,149.114514996826,6|0,1:2|2:0,2:0:0:0:
377,342,53819,1,6,2:3:0:0:
303,181,54013,2,0,B|282:204|261:220|261:220|285:265|302:311,1,149.114514996826,2|8,1:2|2:0,2:0:0:0:
378,235,54593,1,10,2:3:0:0:
250,271,54787,2,0,P|213:262|176:256,1,74.557257498413,2|0,1:2|2:0,2:0:0:0:
170,232,55077,2,0,P|206:238|243:246,1,74.557257498413,2|0,2:0|2:0,2:0:0:0:
354,244,55368,2,0,P|357:195|269:162,1,149.114514996826,2|10,1:2|2:3,2:0:0:0:
185,340,55948,1,6,2:3:0:0:
185,340,56335,6,0,P|109:344|61:274,1,149.114514996826,2|0,1:2|2:0,2:0:0:0:
131,152,56916,1,4,2:3:0:0:
218,254,57110,2,0,P|181:260|144:268,1,74.557257498413,2|0,1:2|2:0,2:0:0:0:
64,292,57400,2,0,L|75:243,1,37.4711387492066,2|8,2:0|2:0,2:0:0:0:
185,340,57690,1,10,2:3:0:0:
131,152,57884,2,0,P|94:158|57:166,1,74.557257498413,2|0,1:2|2:0,2:0:0:0:
0,96,58271,2,0,P|36:87|73:81,1,74.557257498413,2|4,2:0|3:2,2:0:0:0:
162,42,58658,2,0,P|155:78|150:115,1,74.557257498413,10|8,2:3|2:3,2:0:0:0:
226,149,59045,2,0,P|230:112|238:75,1,74.557257498413,6|0,2:3|2:0,2:0:0:0:
346,2,59432,6,0,P|401:14|419:118,1,149.114514996826,6|2,1:2|2:0,2:0:0:0:
345,228,60013,1,4,2:3:0:0:
482,139,60206,2,0,P|445:130|408:124,1,74.557257498413,2|0,1:2|2:0,2:0:0:0:
345,228,60593,2,0,P|381:219|418:213,1,74.557257498413,10|0,2:0|2:0,2:0:0:0:
267,64,60981,2,0,P|260:100|255:137,1,74.557257498413,2|0,1:2|2:0,2:0:0:0:
166,200,61368,2,0,P|161:163|153:126,1,74.557257498413,2|4,2:0|2:3,2:0:0:0:
68,29,61755,1,2,1:2:0:0:
238,65,61948,1,8,2:3:0:0:
62,142,62142,2,0,P|66:105|74:68,1,74.557257498413,10|0,2:0|2:0,2:0:0:0:
203,200,62529,5,2,1:2:0:0:
6,276,62723,1,0,1:2:0:0:
232,192,62916,1,8,2:0:0:0:
232,192,63303,6,0,P|224:250|215:309,1,98.8694059287414,14|0,1:2|2:0,2:0:0:0:
295,334,63593,2,0,P|302:285|308:236,1,98.8694059287414,10|0,1:3|2:0,2:0:0:0:
350,171,63884,1,6,1:3:0:0:
193,384,64077,5,10,1:2:0:0:
277,62,64271,1,10,1:2:0:0:
390,361,64464,1,10,1:2:0:0:
412,384,64852,5,10,2:0:0:0:
412,384,64948,1,8,2:0:0:0:
412,384,65045,2,0,L|422:325,1,49.6899879643708,0|2,1:2|1:2,2:0:0:0:
329,209,65239,1,8,2:0:0:0:
329,209,65335,1,8,2:3:0:0:
329,209,65432,1,6,2:3:0:0:
329,209,65529,1,4,2:3:0:0:
329,209,65626,6,0,P|322:163|314:117,1,82.6613105042723,14|0,2:0|2:0,2:0:0:0:
205,15,66013,1,10,2:0:0:0:
420,81,66206,1,0,1:2:0:0:
216,191,66400,1,10,2:0:0:0:
434,49,66593,1,0,1:2:0:0:
310,274,66787,1,10,2:0:0:0:
219,42,66981,1,0,1:2:0:0:
387,230,67174,6,0,P|434:219|483:207,1,82.6613105042723,10|0,2:0|2:0,2:0:0:0:
328,49,67561,1,10,2:0:0:0:
219,282,67755,2,0,P|172:271|123:259,1,82.6613105042723,2|8,1:2|2:0,2:0:0:0:
13,175,68142,1,0,1:2:0:0:
102,372,68335,1,8,2:0:0:0:
205,169,68529,1,0,1:2:0:0:
205,169,68626,1,0,1:0:0:0:
205,169,68723,6,0,P|198:123|190:77,1,82.6613105042723,10|0,2:0|2:0,2:0:0:0:
108,263,69110,1,10,2:0:0:0:
303,141,69303,1,0,1:2:0:0:
103,53,69497,1,10,2:0:0:0:
255,274,69690,1,0,1:2:0:0:
346,31,69884,1,10,2:0:0:0:
114,156,70077,1,0,1:2:0:0:
375,257,70271,6,0,P|377:187|291:142,1,165.322621008545,10|10,2:0|2:0,2:0:0:0:
233,311,70852,1,2,1:2:0:0:
459,187,71045,2,0,P|452:141|444:95,1,82.6613105042723,8|0,2:0|1:2,2:0:0:0:
287,231,71432,1,8,2:0:0:0:
287,231,71529,1,8,2:3:0:0:
287,231,71626,1,6,2:3:0:0:
287,231,71723,1,4,2:3:0:0:
287,231,71819,6,0,P|280:185|272:139,1,82.6613105042723,14|0,2:0|2:0,2:0:0:0:
285,70,72110,2,0,L|233:88,1,41.5440902521362,2|8,2:0|2:0,2:0:0:0:
361,290,72400,1,2,1:2:0:0:
186,199,72593,2,0,P|145:208|105:218,1,82.6613105042723,10|0,2:0|1:2,2:0:0:0:
27,239,72884,2,0,L|41:178,1,41.5440902521362,2|8,2:0|2:0,2:0:0:0:
205,353,73174,1,2,1:2:0:0:
90,132,73368,6,0,P|154:75|256:111,1,165.322621008545,10|8,2:0|2:0,2:0:0:0:
365,201,73948,1,2,1:2:0:0:
365,201,74045,1,2,2:0:0:0:
365,201,74142,2,0,P|358:155|350:109,1,82.6613105042723,10|0,2:0|1:2,2:0:0:0:
491,32,74529,2,0,P|484:72|477:113,1,82.6613105042723,8|2,2:0|1:2,2:0:0:0:
512,331,74916,6,0,P|471:321|431:311,1,82.6613105042723,14|0,2:0|2:0,2:0:0:0:
355,304,75206,2,0,L|369:365,1,41.5440902521362,2|8,2:0|2:0,2:0:0:0:
471,156,75497,1,2,1:2:0:0:
271,371,75690,2,0,P|264:325|256:279,1,82.6613105042723,10|0,2:0|1:2,2:0:0:0:
234,214,75981,2,0,L|293:224,1,41.5440902521362,2|8,2:0|2:0,2:0:0:0:
144,384,76271,1,6,1:2:0:0:
144,384,76658,5,2,1:2:0:0:
252,107,76852,1,10,2:0:0:0:
381,381,77045,1,2,1:2:0:0:
381,381,77142,1,2,1:2:0:0:
381,381,77239,2,0,L|323:369,1,41.5440902521362,10|0,2:0|1:2,2:0:0:0:
225,299,77432,2,0,L|265:290,1,41.5440902521362,2|0,1:2|1:2,2:0:0:0:
337,199,77626,1,10,2:0:0:0:
337,199,77723,1,8,2:3:0:0:
337,199,77819,1,6,2:3:0:0:
337,199,77916,1,4,2:3:0:0:
337,199,78013,6,0,P|344:153|352:107,1,82.6613105042723,14|0,2:0|2:0,2:0:0:0:
202,0,78400,2,0,P|208:40|215:81,1,82.6613105042723,10|0,2:0|1:2,2:0:0:0:
131,199,78787,1,10,2:0:0:0:
321,110,78981,1,0,1:2:0:0:
136,45,79174,1,10,2:0:0:0:
292,248,79368,1,0,1:2:0:0:
284,0,79561,6,0,B|260:20|237:38|237:38|263:91|286:144,1,165.322621008545,10|10,2:0|2:0,2:0:0:0:
183,305,80142,1,2,1:2:0:0:
386,175,80335,1,8,2:0:0:0:
175,105,80529,1,0,1:2:0:0:
340,310,80723,1,8,2:0:0:0:
379,58,80916,1,0,1:2:0:0:
102,324,81110,6,0,P|143:314|183:304,1,82.6613105042723,14|0,2:0|2:0,2:0:0:0:
409,269,81497,2,0,P|368:259|328:249,1,82.6613105042723,10|0,2:0|1:2,2:0:0:0:
46,189,81884,2,0,P|87:179|127:169,1,82.6613105042723,10|0,2:0|1:2,2:0:0:0:
444,107,82271,2,0,P|403:97|363:87,1,82.6613105042723,10|0,2:0|1:2,2:0:0:0:
148,268,82658,5,10,2:0:0:0:
293,0,82852,1,2,1:2:0:0:
409,269,83045,1,10,2:0:0:0:
188,122,83239,2,0,P|99:143|2:167,1,165.322621008545,6|0,1:2|1:2,2:0:0:0:
201,322,83819,1,8,2:0:0:0:
221,301,83916,1,8,2:3:0:0:
229,274,84013,1,4,2:3:0:0:
222,246,84110,1,4,2:3:0:0:
202,225,84206,6,0,B|162:207|118:246|134:256|97:292|36:266,1,165.322621008545,10|8,2:0|2:0,2:0:0:0:
122,110,84787,1,0,1:2:0:0:
194,310,84981,2,0,P|235:300|275:290,1,82.6613105042723,0|4,1:2|2:3,2:0:0:0:
376,154,85368,2,0,P|388:188|393:205,1,41.5440902521362,10|8,2:0|2:3,2:0:0:0:
495,213,85561,2,0,P|483:247|478:264,1,41.5440902521362,4|4,2:3|2:3,2:3:0:0:
449,335,85755,6,0,P|436:231|420:78,1,233.396645695313,6|8,1:2|2:3,2:0:0:0:
334,4,86723,1,4,2:3:0:0:
512,61,86916,1,4,2:3:0:0:
512,61,87303,6,0,B|392:13|310:137|353:167|273:287|123:241,1,463.319997172119,6|0,1:2|2:0,2:0:0:0:
