osu file format v14

[General]
AudioFilename: audio.mp3
AudioLeadIn: 0
PreviewTime: 64658
Countdown: 0
SampleSet: Soft
StackLeniency: 0.7
Mode: 0
LetterboxInBreaks: 0
WidescreenStoryboard: 1

[Editor]
Bookmarks: 6593,14335,15883,40658,59238,63883,65432,87109
DistanceSpacing: 0.9
BeatDivisor: 4
GridSize: 32
TimelineZoom: 0.9599999

[Metadata]
Title:Nanairo Symphony (TV Size)
TitleUnicode:七色シンフォニー (TV Size)
Artist:Coalamode.
ArtistUnicode:コアラモード.
Creator:Iceluin
Version:Normal
Source:Your lie in April
Tags:四月は君の嘘 shigatsu wa kimi no uso opening op japanese anime pop jpop j-pop kimiuso
BeatmapID:2194542
BeatmapSetID:1047883

[Difficulty]
HPDrainRate:4
CircleSize:3.4
OverallDifficulty:5
ApproachRate:5
SliderMultiplier:1.2
SliderTickRate:1

[Events]
//Background and Video events
Video,0,"video.mp4"
0,0,"shigatsu.jpg",0,0
//Break Periods
//Storyboard Layer 0 (Background)
//Storyboard Layer 1 (Fail)
//Storyboard Layer 2 (Pass)
//Storyboard Layer 3 (Foreground)
//Storyboard Layer 4 (Overlay)
//Storyboard Sound Samples

[TimingPoints]
400,387.096774193548,4,2,1,40,1,0
6593,-100,4,2,1,50,0,0
14335,-100,4,2,1,65,0,0
15883,-100,4,2,2,50,0,0
40658,-100,4,2,1,65,0,0
65432,-100,4,2,1,75,0,1
87109,-100,4,2,1,60,0,0
87496,-100,4,2,1,51,0,0
87883,-100,4,2,1,42,0,0
88270,-100,4,2,1,33,0,0
88658,-100,4,2,1,24,0,0
89045,-100,4,2,1,15,0,0

[Colours]
Combo1 : 89,255,172
Combo2 : 255,179,217
Combo3 : 255,255,176
Combo4 : 85,170,255

[HitObjects]
160,128,400,6,0,L|160:68,2,60,2|2|2,0:0|0:0|0:0,0:0:0:0:
121,166,980,2,0,P|65:185|10:165,2,120,2|2|2,0:0|0:0|0:0,0:0:0:0:
256,334,2529,6,0,P|311:314|366:334,1,120,2|2,0:0|0:0,0:0:0:0:
409,366,3109,1,2,0:0:0:0:
409,366,3303,1,2,0:0:0:0:
409,96,4270,6,0,B|446:96|446:96|461:88|461:88|497:88,2,90,2|2|2,0:0|0:0|0:0,0:0:0:0:
367,60,5045,2,0,L|307:60,1,60,2|2,0:0|0:0,0:0:0:0:
266,96,5432,1,2,0:0:0:0:
172,41,5819,2,0,P|152:96|172:151,1,120,2|0,0:0|0:0,0:0:0:0:
265,205,6593,6,0,P|287:259|266:313,1,120,2|2,0:0|0:0,0:0:0:0:
225,349,7174,1,0,0:0:0:0:
225,349,7367,2,0,L|105:349,1,120,2|2,0:0|0:0,0:0:0:0:
32,269,8141,2,0,L|32:149,1,120,2|2,0:0|0:0,0:0:0:0:
32,94,8722,2,0,L|152:94,1,120,2|0,0:0|0:0,0:0:0:0:
206,94,9303,1,0,0:0:0:0:
289,21,9690,6,0,P|343:-1|397:20,1,120,2|2,0:0|0:0,0:0:0:0:
439,63,10270,1,0,0:0:0:0:
439,63,10464,2,0,L|439:183,1,120,2|2,0:0|0:0,0:0:0:0:
492,277,11238,2,0,P|438:299|384:278,1,120,2|2,0:0|0:0,0:0:0:0:
335,251,11819,2,0,B|313:222|313:222|313:138,1,120,2|0,0:0|0:0,0:0:0:0:
313,84,12400,1,0,0:0:0:0:
205,84,12787,6,0,B|205:167|205:167|183:196,1,120,6|0,1:2|0:0,0:0:0:0:
144,233,13367,1,2,0:0:0:0:
144,233,13561,2,0,B|123:223|106:209|106:209|89:223|68:233,2,90,2|2|2,0:0|0:0|0:0,0:0:0:0:
227,309,14529,1,2,1:2:0:0:
227,309,14722,2,0,B|280:335|280:335|335:310,1,120,14|2,0:0|1:2,0:0:0:0:
383,281,15303,1,0,3:0:0:0:
383,281,15496,1,0,1:0:0:0:
475,333,15883,6,0,P|497:279|476:225,1,120,6|10,1:2|0:0,0:0:0:0:
437,193,16464,1,2,1:2:0:0:
437,193,16658,1,10,0:0:0:0:
508,111,17045,1,10,0:0:0:0:
436,31,17432,2,0,P|382:9|328:30,1,120,2|10,1:2|0:0,0:0:0:0:
286,65,18012,1,0,1:0:0:0:
286,65,18206,2,0,L|166:65,1,120,10|10,0:0|0:0,0:0:0:0:
72,11,18980,6,0,P|50:65|72:119,1,120,2|8,1:2|0:0,0:0:0:0:
111,157,19561,2,0,B|181:157|181:157|212:177|212:177|285:177,1,180,2|10,1:2|0:0,0:0:0:0:
356,258,20529,2,0,L|416:258,2,60,0|2|8,1:0|0:0|0:0,0:0:0:0:
317,295,21109,2,0,B|290:316|290:316|204:316,1,120,2|2,1:2|0:0,0:0:0:0:
150,316,21690,1,10,0:0:0:0:
57,371,22077,6,0,P|35:317|57:263,1,120,2|10,1:2|0:0,0:0:0:0:
97,226,22658,1,2,1:2:0:0:
97,226,22851,1,10,0:2:0:0:
29,141,23238,1,10,0:0:0:0:
97,57,23625,2,0,L|217:57,1,120,2|10,1:2|0:0,0:0:0:0:
275,57,24206,1,0,1:0:0:0:
275,57,24399,2,0,L|275:177,1,120,10|10,0:0|0:0,0:0:0:0:
344,261,25174,6,0,P|398:282|452:260,1,120,2|8,1:2|0:0,0:0:0:0:
497,228,25754,2,0,B|524:196|509:135|480:154|465:92|496:59,1,180,2|10,1:2|0:0,0:0:0:0:
387,59,26722,2,0,P|394:87|386:116,2,60,0|2|8,1:0|0:0|0:0,0:0:0:0:
352,17,27303,2,0,L|232:17,1,120,2|2,1:2|0:0,0:0:0:0:
178,17,27883,1,10,0:0:0:0:
101,92,28270,6,0,L|41:92,2,60,6|2|10,1:2|0:0|0:0,0:0:0:0:
132,135,28851,2,0,L|192:135,2,60,2|10|2,1:2|0:0|0:0,0:0:0:0:
101,179,29432,2,0,L|41:179,2,60,10|2|2,0:0|0:0|1:2,0:0:0:0:
132,222,30012,2,0,L|192:222,2,60,2|10|2,0:0|0:0|1:2,0:0:0:0:
101,266,30593,2,0,L|26:266,1,75,10|2,0:0|0:0,0:0:0:0:
23,364,31174,1,2,0:0:0:0:
23,364,31367,6,0,L|143:364,1,120,2|8,1:2|0:0,0:0:0:0:
186,331,31948,2,0,L|306:331,1,120,2|0,1:2|0:0,0:0:0:0:
346,368,32529,1,10,0:0:0:0:
416,286,32916,2,0,B|444:296|444:296|472:285,2,60,2|2|10,1:2|0:0|0:0,0:0:0:0:
374,253,33496,2,0,B|335:233|335:233|258:233,1,120,2|2,1:2|0:0,0:0:0:0:
204,233,34077,1,10,0:0:0:0:
141,321,34464,6,0,P|87:342|32:321,1,120,2|10,1:2|0:0,0:0:0:0:
4,280,35045,1,2,1:2:0:0:
4,280,35238,1,10,0:0:0:0:
87,212,35625,1,10,0:0:0:0:
0,149,36012,2,0,B|0:56|0:56|17:35,1,120,2|10,1:2|0:0,0:0:0:0:
64,8,36592,1,2,1:2:0:0:
64,8,36787,1,10,0:0:0:0:
149,72,37174,1,10,0:0:0:0:
235,8,37561,6,0,B|252:29|252:29|252:122,1,120,2|8,1:2|0:0,0:0:0:0:
211,156,38141,2,0,P|188:210|209:265,1,120,2|0,1:2|0:0,0:0:0:0:
252,297,38722,1,10,0:0:0:0:
316,210,39109,2,0,L|376:210,1,60,4|4,0:3|0:3,0:0:0:0:
434,210,39496,1,4,0:3:0:0:
434,210,39690,2,0,B|434:117|434:117|416:97,1,120,6|0,1:2|0:0,0:0:0:0:
376,60,40270,1,8,0:3:0:0:
278,11,40658,6,0,B|156:11,1,120,6|0,1:2|0:0,0:0:0:0:
104,11,41238,2,0,L|104:71,1,60,2|2,3:2|3:2,0:0:0:0:
181,146,41819,1,8,0:0:0:0:
104,221,42206,2,0,P|61:207|19:222,2,90,2|2|2,1:2|0:0|1:2,0:0:0:0:
181,296,43174,2,0,L|181:368,2,60,4|4|4,0:3|0:3|0:3,0:0:0:0:
219,258,43754,6,0,P|273:236|328:257,1,120,2|0,1:2|0:0,0:0:0:0:
366,296,44335,2,0,L|426:296,1,60,2|2,3:2|3:2,0:0:0:0:
502,219,44916,1,8,0:0:0:0:
426,141,45303,2,0,L|426:51,2,90,2|2|2,1:2|0:0|1:2,0:0:0:0:
318,141,46270,2,0,L|318:81,2,60,4|4|4,0:3|0:3|0:3,0:0:0:0:
280,179,46851,6,0,B|265:200|265:200|265:295,1,120,2|0,1:2|0:0,0:0:0:0:
265,349,47432,2,0,L|205:349,1,60,2|2,3:2|3:2,0:0:0:0:
112,293,48012,1,8,0:0:0:0:
19,349,48399,2,0,P|-3:294|19:239,1,120,2|2,1:2|0:0,0:0:0:0:
56,200,48980,1,0,1:0:0:0:
56,200,49174,1,2,1:2:0:0:
0,107,49561,1,10,0:0:0:0:
56,15,49948,6,0,L|176:15,1,120,2|2,1:2|0:0,0:0:0:0:
218,57,50529,1,0,1:0:0:0:
218,57,50722,2,0,L|338:57,1,120,2|10,0:0|0:0,0:0:0:0:
435,10,51496,2,0,B|454:46|454:46|424:143|424:143|445:175,1,180,2|2,1:2|1:2,0:0:0:0:
473,220,52270,1,2,0:0:0:0:
418,310,52658,2,0,L|358:310,1,60,8|4,0:0|0:3,0:0:0:0:
303,310,53045,6,0,B|303:188,1,120,6|0,1:2|0:0,0:0:0:0:
303,136,53625,2,0,L|243:136,1,60,2|2,3:2|3:2,0:0:0:0:
172,55,54206,1,8,0:0:0:0:
100,136,54593,2,0,B|74:143|74:143|38:128|38:128|14:134,2,90,2|2|2,1:2|0:0|1:2,0:0:0:0:
100,244,55561,2,0,B|72:234|72:234|43:244,2,60,4|4|4,0:3|0:3|0:3,0:0:0:0:
128,290,56141,6,0,B|198:290|198:290|229:310|229:310|302:310,1,180,2|2,1:2|1:2,0:0:0:0:
457,357,57303,1,8,0:0:0:0:
510,263,57690,2,0,B|540:230|525:168|496:187|481:126|508:94,1,180,2|2,1:2|1:2,0:0:0:0:
399,94,58658,2,0,P|407:122|399:150,2,60,4|4|4,0:3|0:3|0:3,0:0:0:0:
364,52,59238,6,0,L|244:52,1,120,6|2,1:2|0:0,0:0:0:0:
193,55,59819,1,0,1:0:0:0:
193,55,60012,1,2,1:2:0:0:
111,127,60399,1,10,0:0:0:0:
189,201,60787,2,0,L|309:201,1,120,2|2,1:2|0:0,0:0:0:0:
367,201,61368,1,0,1:0:0:0:
367,201,61561,1,2,1:2:0:0:
443,276,61948,1,10,0:0:0:0:
364,349,62335,6,0,L|304:349,1,60,0|0,1:0|1:0,0:0:0:0:
249,349,62722,1,8,0:0:0:0:
152,301,63109,2,0,B|85:301|85:301|66:314,2,90,6|4|4,1:2|0:3|0:3,0:0:0:0:
189,261,63883,2,0,L|189:196,1,60,10|10,0:0|0:0,0:0:0:0:
189,146,64270,1,10,0:0:0:0:
258,63,64658,5,8,0:0:0:0:
365,63,65045,1,8,0:0:0:0:
433,146,65432,6,0,B|433:266,1,120,14|10,0:0|0:0,0:0:0:0:
433,324,66012,1,0,0:0:0:0:
433,324,66206,2,0,L|373:324,1,60,10|0,0:0|1:0,0:0:0:0:
330,357,66593,2,0,L|270:357,1,60,10|0,0:0|1:0,0:0:0:0:
226,324,66980,2,0,B|136:324|136:324|109:309,1,120,10|10,0:0|0:0,0:0:0:0:
71,279,67561,1,2,0:0:0:0:
71,279,67754,1,8,0:0:0:0:
2,194,68141,1,8,0:0:0:0:
70,110,68529,6,0,P|124:88|179:108,1,120,10|10,0:0|0:0,0:0:0:0:
226,145,69110,1,0,0:0:0:0:
226,145,69303,2,0,L|226:205,1,60,10|0,0:0|1:0,0:0:0:0:
266,240,69690,2,0,L|326:240,1,60,10|0,0:0|1:0,0:0:0:0:
367,205,70077,2,0,P|389:151|369:96,1,120,10|10,0:0|0:0,0:0:0:0:
330,65,70658,1,2,1:2:0:0:
330,65,70851,1,8,0:0:0:0:
235,12,71238,2,0,B|175:12,1,60,8|4,0:0|0:3,0:0:0:0:
120,12,71625,6,0,B|120:132,1,120,14|8,0:0|0:0,0:0:0:0:
86,174,72205,1,2,0:0:0:0:
86,174,72399,2,0,P|43:160|1:173,2,90,10|2|2,0:0|0:0|1:2,0:0:0:0:
120,215,73174,2,0,B|170:237|243:197|210:167|284:126|335:155,1,240,10|10,0:0|0:0,0:0:0:0:
417,84,74335,1,8,0:0:0:0:
497,155,74722,6,0,P|518:209|497:263,1,120,14|8,0:0|0:0,0:0:0:0:
450,285,75303,1,2,0:0:0:0:
450,285,75496,2,0,L|449:380,2,90,10|2|2,0:0|0:0|1:3,0:0:0:0:
372,217,76464,1,2,1:2:0:0:
372,217,76657,1,14,0:0:0:0:
288,285,77045,2,0,L|228:285,1,60,8|0,0:0|1:0,0:0:0:0:
191,324,77432,2,0,L|131:324,1,60,8|4,0:0|0:3,0:0:0:0:
76,324,77819,6,0,B|76:204,1,120,14|10,0:0|0:0,0:0:0:0:
38,174,78400,1,0,0:0:0:0:
38,174,78593,2,0,L|38:114,1,60,10|0,0:0|1:0,0:0:0:0:
77,77,78980,2,0,L|137:77,1,60,10|0,0:0|1:0,0:0:0:0:
178,42,79367,2,0,P|232:20|287:40,1,120,10|10,0:0|0:0,0:0:0:0:
329,82,79948,1,2,1:2:0:0:
329,82,80141,1,8,0:0:0:0:
411,11,80529,1,8,0:0:0:0:
495,78,80916,5,14,0:0:0:0:
495,185,81303,1,10,0:0:0:0:
411,253,81690,2,0,B|383:265|383:265|356:252,1,60,2|0,1:2|1:0,0:0:0:0:
310,225,82077,1,10,0:0:0:0:
206,254,82464,2,0,B|194:226|194:226|206:199,1,60,2|2,1:2|1:2,0:0:0:0:
234,153,82851,1,10,0:0:0:0:
234,153,83045,2,0,B|234:58|234:58|215:40,1,120,6|0,1:2|1:0,0:0:0:0:
170,11,83625,1,10,0:0:0:0:
66,40,84012,6,0,L|66:160,1,120,10|8,0:0|0:0,0:0:0:0:
70,218,84593,1,0,0:0:0:0:
70,218,84787,1,0,1:0:0:0:
152,291,85174,2,0,L|212:291,1,60,10|4,0:0|0:3,0:0:0:0:
256,260,85561,2,0,P|235:206|257:151,2,120,6|0|2,1:2|0:0|0:0,0:0:0:0:
307,291,86529,1,4,0:3:0:0:
307,291,86722,1,4,0:3:0:0:
378,210,87109,5,6,1:2:0:0:
256,192,87303,12,0,89045,0:0:0:0:
