osu file format v14

[General]
AudioFilename: audio.mp3
AudioLeadIn: 0
PreviewTime: 64658
Countdown: 0
SampleSet: Soft
StackLeniency: 0.4
Mode: 0
LetterboxInBreaks: 0
WidescreenStoryboard: 0

[Editor]
Bookmarks: 6593,14335,15883,40658,59238,63883,65432,85561
DistanceSpacing: 1.3
BeatDivisor: 4
GridSize: 32
TimelineZoom: 1.6

[Metadata]
Title:Nanairo Symphony (TV Size)
TitleUnicode:七色シンフォニー (TV Size)
Artist:Coalamode.
ArtistUnicode:コアラモード.
Creator:Iceluin
Version:Insane
Source:Your lie in April
Tags:四月は君の嘘 shigatsu wa kimi no uso opening op japanese anime pop jpop j-pop kimiuso
BeatmapID:2190350
BeatmapSetID:1047883

[Difficulty]
HPDrainRate:6
CircleSize:4
OverallDifficulty:7.5
ApproachRate:8.5
SliderMultiplier:1.8
SliderTickRate:1

[Events]
//Background and Video events
Video,0,"video.mp4"
0,0,"shigatsu.jpg",0,0
//Break Periods
//Storyboard Layer 0 (Background)
//Storyboard Layer 1 (Fail)
//Storyboard Layer 2 (Pass)
//Storyboard Layer 3 (Foreground)
//Storyboard Layer 4 (Overlay)
//Storyboard Sound Samples

[TimingPoints]
400,387.096774193548,4,2,1,40,1,0
400,-142.857142857143,4,2,1,40,0,0
5045,-100,4,2,1,40,0,0
5141,-100,4,2,1,5,0,0
5238,-100,4,2,1,40,0,0
5335,-100,4,2,1,5,0,0
5432,-100,4,2,1,40,0,0
5529,-100,4,2,1,5,0,0
5819,-100,4,2,1,40,0,0
6593,-125,4,2,1,50,0,0
12399,-250,4,2,1,50,0,0
12690,-250,4,2,1,5,0,0
12787,-125,4,2,1,50,0,0
14335,-100,4,2,1,65,0,0
15883,-125,4,2,2,50,0,0
40658,-111.111111111111,4,2,1,65,0,0
56141,-181.818181818182,4,2,1,65,0,0
56722,-111.111111111111,4,2,1,65,0,0
57690,-181.818181818182,4,2,1,65,0,0
58270,-111.111111111111,4,2,1,65,0,0
59238,-100,4,2,1,65,0,0
63109,-80,4,2,1,65,0,0
63303,-80,4,2,1,5,0,0
63399,-80,4,2,1,65,0,0
63593,-80,4,2,1,5,0,0
63690,-80,4,2,1,65,0,0
63883,-100,4,2,1,65,0,0
63980,-100,4,2,1,5,0,0
64077,-100,4,2,1,65,0,0
64174,-100,4,2,1,5,0,0
64270,-100,4,2,1,65,0,0
64367,-100,4,2,1,5,0,0
64658,-100,4,2,1,65,0,0
65432,-86.9565217391304,4,2,1,75,0,1
76077,-153.846153846154,4,2,1,75,0,1
76367,-153.846153846154,4,2,1,5,0,1
76464,-86.9565217391304,4,2,1,75,0,1
80916,-80,4,2,1,75,0,1
81303,-86.9565217391304,4,2,1,75,0,1
81690,-80,4,2,1,75,0,1
82077,-86.9565217391304,4,2,1,75,0,1
82464,-80,4,2,1,75,0,1
84012,-86.9565217391304,4,2,1,75,0,1
85561,-142.857142857143,4,2,1,75,0,1
87109,-200,4,2,1,60,0,0
87496,-200,4,2,1,51,0,0
87883,-200,4,2,1,42,0,0
88270,-200,4,2,1,33,0,0
88658,-200,4,2,1,24,0,0
89045,-200,4,2,1,15,0,0

[Colours]
Combo1 : 89,255,172
Combo2 : 255,179,217
Combo3 : 255,255,176
Combo4 : 85,170,255

[HitObjects]
96,128,400,5,2,0:0:0:0:
10,155,593,1,2,0:0:0:0:
77,212,787,1,2,0:0:0:0:
143,53,980,2,0,P|83:38|30:70,1,125.999996154785,2|2,0:0|0:0,0:0:0:0:
77,212,1754,6,0,B|116:229|172:197|146:174|205:141|246:164,1,188.999994232178,2|0,0:0|0:0,0:0:0:0:
322,217,2529,2,0,P|293:161|320:106,1,125.999996154785,2|2,0:0|0:0,0:0:0:0:
460,16,3109,1,2,0:0:0:0:
478,99,3303,6,0,B|432:111|374:94|407:53|370:12|301:15|275:92|317:107,1,251.999992309571,2|0,0:0|0:0,0:0:0:0:
402,187,4270,2,0,P|356:186|321:216,2,94.499997116089,2|2|2,0:0|0:0|0:0,0:0:0:0:
397,318,5045,6,0,L|389:273,1,45,2|0,0:0|0:0,0:0:0:0:
304,346,5238,2,0,L|296:301,1,45,2|0,0:0|0:0,0:0:0:0:
211,374,5432,2,0,L|203:329,1,45,2|0,0:0|0:0,0:0:0:0:
164,119,5819,6,0,L|185:252,2,135,2|2|2,0:0|0:0|0:0,0:0:0:0:
217,48,6496,1,0,0:0:0:0:
217,48,6593,6,0,P|149:30|90:68,1,144,2|2,0:0|0:0,0:0:0:0:
258,133,7174,1,0,0:0:0:0:
176,190,7367,2,0,L|164:119,1,72,2|0,0:0|0:0,0:0:0:0:
5,36,7754,2,0,L|21:142,1,108,2|0,0:0|0:0,0:0:0:0:
21,142,8141,6,0,L|163:119,1,144,2|2,0:0|0:0,0:0:0:0:
52,291,8722,2,0,L|194:268,1,144,2|0,0:0|0:0,0:0:0:0:
194,267,9303,1,0,0:0:0:0:
266,321,9690,6,0,P|284:253|246:194,1,144,2|2,0:0|0:0,0:0:0:0:
181,361,10271,1,0,0:0:0:0:
123,280,10464,2,0,L|194:268,1,72,2|0,0:0|0:0,0:0:0:0:
339,372,10851,2,0,L|445:355,1,108,2|0,0:0|0:0,0:0:0:0:
445,354,11238,6,0,B|465:316|465:316|449:216,1,144,2|2,0:0|0:0,0:0:0:0:
339,372,11819,2,0,B|359:334|359:334|343:234,1,144,2|0,0:0|0:0,0:0:0:0:
343,234,12399,2,0,L|289:242,1,54,0|0,0:0|0:0,0:0:0:0:
219,193,12787,6,0,B|160:202|160:202|139:220|139:220|84:229,1,144,6|0,1:2|0:0,0:0:0:0:
8,266,13367,1,2,0:0:0:0:
8,266,13464,1,2,0:0:0:0:
8,266,13561,2,0,P|-1:212|25:167,2,108,2|2|2,0:0|0:0|0:0,0:0:0:0:
83,229,14529,5,2,1:2:0:0:
22,354,14722,2,0,L|8:266,1,90,14|0,0:0|0:0,0:0:0:0:
130,39,15109,2,0,L|145:128,1,90,2|0,1:2|3:0,0:0:0:0:
164,206,15399,1,8,0:0:0:0:
164,206,15496,1,0,1:0:0:0:
271,352,15690,1,8,0:0:0:0:
303,268,15883,6,0,P|268:258|233:266,1,72,6|0,1:2|0:0,0:0:0:0:
163,330,16270,1,10,0:0:0:0:
163,330,16464,1,2,1:2:0:0:
24,268,16658,2,0,P|58:277|93:269,1,72,10|0,0:0|0:0,0:0:0:0:
164,206,17045,1,10,0:0:0:0:
164,206,17239,1,2,0:0:0:0:
24,144,17432,6,0,P|58:134|93:142,1,72,2|0,1:2|0:0,0:0:0:0:
233,265,17819,2,0,P|267:274|302:266,1,72,10|0,0:0|1:0,0:0:0:0:
427,136,18205,1,10,0:0:0:0:
397,54,18399,1,2,0:0:0:0:
312,38,18593,1,10,0:0:0:0:
257,104,18787,1,2,0:0:0:0:
426,219,18980,6,0,B|395:233|352:208|372:190|327:165|295:183,1,144,2|8,1:2|0:0,0:0:0:0:
426,312,19561,2,0,B|395:298|352:323|372:341|327:366|295:348,1,144,2|0,1:2|0:0,0:0:0:0:
138,265,20141,1,10,0:0:0:0:
138,265,20529,5,0,1:0:0:0:
302,265,20723,2,0,L|223:265,1,72,2|8,0:0|0:0,0:0:0:0:
69,330,21109,2,0,P|97:265|67:201,1,144,2|2,1:2|0:0,0:0:0:0:
172,48,21690,1,10,0:0:0:0:
68,202,21883,1,2,0:0:0:0:
45,109,22077,6,0,L|116:120,1,72,2|0,1:2|0:0,0:0:0:0:
205,135,22464,1,10,0:0:0:0:
205,135,22658,1,2,1:2:0:0:
320,32,22851,2,0,L|391:43,1,72,10|0,0:0|0:0,0:0:0:0:
480,58,23238,1,10,0:0:0:0:
480,58,23432,1,2,0:0:0:0:
447,211,23625,6,0,L|459:140,1,72,2|0,1:2|0:0,0:0:0:0:
320,32,24012,2,0,L|309:103,1,72,10|0,0:0|1:0,0:0:0:0:
294,277,24399,1,10,0:0:0:0:
221,221,24593,1,2,0:0:0:0:
229,135,24787,1,10,0:0:0:0:
308,103,24981,1,2,0:0:0:0:
447,211,25174,6,0,L|304:188,1,144,2|8,1:2|0:0,0:0:0:0:
209,316,25754,2,0,L|66:293,1,144,2|0,1:2|0:0,0:0:0:0:
209,316,26335,1,10,0:0:0:0:
209,316,26722,5,0,1:0:0:0:
77,221,26916,2,0,L|66:293,1,72,2|8,0:0|0:0,0:0:0:0:
231,173,27303,2,0,L|208:315,1,144,2|2,1:2|0:0,0:0:0:0:
77,221,27883,1,10,0:0:0:0:
231,173,28077,1,2,0:0:0:0:
89,73,28270,6,0,L|78:145,1,72,6|2,1:2|0:0,0:0:0:0:
7,94,28658,1,10,0:0:0:0:
160,123,28851,6,0,L|149:195,1,72,2|10,1:2|0:0,0:0:0:0:
78,144,29239,1,2,0:0:0:0:
231,173,29432,6,0,L|220:245,1,72,10|2,0:0|0:0,0:0:0:0:
149,194,29820,1,2,1:2:0:0:
302,223,30012,6,0,L|291:295,1,72,2|10,0:0|0:0,0:0:0:0:
220,244,30400,1,2,1:2:0:0:
373,273,30593,6,0,L|358:361,1,90,10|2,0:0|0:0,0:0:0:0:
358,361,31174,1,2,0:0:0:0:
428,202,31367,6,0,P|360:185|302:223,1,144,2|8,1:2|0:0,0:0:0:0:
445,328,31948,2,0,P|464:261|427:201,1,144,2|0,1:2|0:0,0:0:0:0:
373,273,32529,1,10,0:0:0:0:
373,273,32916,5,2,1:2:0:0:
427,201,33110,1,2,0:0:0:0:
411,87,33303,1,10,0:0:0:0:
282,6,33496,2,0,B|252:-7|208:17|228:35|183:60|152:42,1,144,2|2,1:2|0:0,0:0:0:0:
0,135,34077,1,10,0:0:0:0:
152,42,34270,1,2,0:0:0:0:
67,8,34464,6,0,P|56:42|67:76,1,72,2|0,1:2|0:0,0:0:0:0:
143,138,34851,1,10,0:0:0:0:
143,138,35045,1,2,1:2:0:0:
66,268,35238,2,0,P|57:234|67:200,1,72,10|0,0:0|0:0,0:0:0:0:
143,138,35625,2,0,P|177:127|211:137,1,72,10|0,0:0|0:0,0:0:0:0:
286,269,36012,6,0,L|286:197,1,72,2|0,1:2|0:0,0:0:0:0:
210,136,36399,1,10,0:0:0:0:
210,136,36592,1,2,1:2:0:0:
286,3,36787,2,0,L|286:75,1,72,10|0,0:0|0:0,0:0:0:0:
362,136,37174,2,0,L|434:136,1,72,10|0,0:0|0:0,0:0:0:0:
497,302,37561,6,0,B|466:327|466:327|361:327,1,144,2|8,1:2|0:0,0:0:0:0:
150,294,38141,2,0,B|181:269|181:269|286:269,1,144,2|0,1:2|0:0,0:0:0:0:
362,136,38722,2,0,L|362:208,1,72,10|2,0:0|0:0,0:0:0:0:
278,360,39109,5,4,0:3:0:0:
150,294,39303,1,4,0:3:0:0:
130,188,39497,1,4,0:3:0:0:
193,124,39690,2,0,P|129:153|66:124,1,144,6|0,1:2|0:0,0:0:0:0:
193,0,40270,1,8,0:3:0:0:
129,64,40464,1,8,0:3:0:0:
0,184,40658,6,0,L|25:344,1,161.999995056153,6|0,1:2|0:0,0:0:0:0:
224,354,41238,1,2,3:2:0:0:
224,354,41335,1,0,3:0:0:0:
224,354,41432,2,0,L|212:274,1,80.9999975280763,2|0,3:2|0:0,0:0:0:0:
307,120,41819,1,8,0:0:0:0:
211,273,42012,1,2,0:0:0:0:
173,191,42206,6,0,P|211:179|249:191,1,80.9999975280763,2|0,1:2|0:0,0:0:0:0:
319,232,42496,2,0,P|357:220|395:231,1,80.9999975280763,2|0,0:0|0:0,0:0:0:0:
470,267,42787,2,0,B|492:238|478:184|453:200|439:144|467:115,1,161.999995056153,2|4,1:2|0:3,0:0:0:0:
307,0,43367,1,4,0:3:0:0:
233,61,43561,1,4,0:3:0:0:
159,122,43754,6,0,B|91:111|91:111|68:91|68:91|5:81,1,161.999995056153,2|0,1:2|0:0,0:0:0:0:
18,262,44335,1,2,3:2:0:0:
18,262,44432,1,0,3:0:0:0:
18,262,44529,2,0,L|30:181,1,80.9999975280763,2|0,3:2|0:0,0:0:0:0:
145,20,44916,1,8,0:0:0:0:
29,181,45109,1,2,0:0:0:0:
6,81,45303,6,0,L|86:93,1,80.9999975280763,2|0,1:2|0:0,0:0:0:0:
164,107,45593,2,0,L|244:119,1,80.9999975280763,2|0,0:0|0:0,0:0:0:0:
323,129,45883,2,0,B|304:249|304:249|324:283,1,161.999995056153,2|4,1:2|0:3,0:0:0:0:
495,373,46464,1,4,0:3:0:0:
409,327,46658,1,4,0:3:0:0:
324,283,46851,6,0,L|163:308,1,161.999995056153,2|0,1:2|0:0,0:0:0:0:
29,181,47432,1,2,3:2:0:0:
29,181,47529,1,0,3:0:0:0:
29,181,47625,2,0,L|109:168,1,80.9999975280763,2|0,3:2|0:0,0:0:0:0:
248,56,48012,1,8,0:0:0:0:
109,168,48206,1,2,0:0:0:0:
198,193,48399,6,0,P|203:153|186:117,1,80.9999975280763,2|0,1:2|0:0,0:0:0:0:
49,6,48787,1,2,0:0:0:0:
26,92,48980,1,0,1:0:0:0:
26,92,49174,2,0,L|106:79,1,80.9999975280763,2|0,1:2|0:0,0:0:0:0:
291,138,49561,2,0,B|341:129|341:129|358:114|358:114|405:107,1,121.499996292114,10|0,0:0|0:0,0:0:0:0:
405,107,49948,6,0,L|417:187,1,80.9999975280763,2|0,1:2|0:0,0:0:0:0:
278,57,50335,2,0,L|290:137,1,80.9999975280763,2|0,0:0|1:0,0:0:0:0:
151,7,50722,2,0,L|163:87,1,80.9999975280763,2|0,0:0|0:0,0:0:0:0:
35,237,51109,2,0,P|4:188|33:138,1,121.499996292114,10|0,0:0|0:0,0:0:0:0:
33,138,51496,6,0,B|66:124|115:151|93:171|143:199|179:180,1,161.999995056153,2|0,1:2|0:0,0:0:0:0:
163,87,52077,1,2,1:2:0:0:
35,237,52270,2,0,L|48:316,1,80.9999975280763,2|4,0:0|0:3,0:0:0:0:
178,180,52658,1,8,0:0:0:0:
182,193,52754,1,8,0:0:0:0:
186,206,52851,1,4,0:3:0:0:
120,374,53045,6,0,B|153:345|153:345|269:363,1,161.999995056153,6|0,1:2|0:0,0:0:0:0:
415,275,53625,1,2,3:2:0:0:
415,275,53722,1,0,3:0:0:0:
415,275,53819,2,0,L|334:262,1,80.9999975280763,2|0,3:2|0:0,0:0:0:0:
335,262,54109,2,0,L|342:221,1,40.4999987640381,2|8,0:0|0:0,0:0:0:0:
374,36,54399,1,2,0:0:0:0:
398,134,54593,6,0,L|314:119,1,80.9999975280763,2|0,1:2|0:0,0:0:0:0:
243,101,54883,2,0,L|163:86,1,80.9999975280763,2|0,0:0|0:0,0:0:0:0:
88,69,55174,2,0,L|115:228,1,161.999995056153,2|4,1:2|0:3,0:0:0:0:
0,384,55754,1,4,0:3:0:0:
57,306,55948,1,4,0:3:0:0:
115,228,56141,6,0,P|160:210|205:229,1,99.0000030212403,2|0,1:2|0:0,0:0:0:0:
280,345,56722,2,0,B|258:316|271:262|296:278|311:222|282:193,1,161.999995056153,2|0,1:2|0:0,0:0:0:0:
127,78,57303,1,8,0:0:0:0:
282,193,57496,1,0,0:0:0:0:
342,124,57690,6,0,P|387:106|432:125,1,99.0000030212403,2|0,1:2|0:0,0:0:0:0:
506,241,58270,2,0,B|484:212|497:158|522:174|537:118|508:89,1,161.999995056153,2|4,1:2|0:3,0:0:0:0:
342,0,58851,1,4,0:3:0:0:
265,61,59045,1,4,0:3:0:0:
188,122,59238,6,0,P|126:145|64:121,1,135,6|0,1:2|0:0,0:0:0:0:
64,121,59625,1,2,0:0:0:0:
4,289,59819,1,0,1:0:0:0:
4,289,60012,2,0,P|65:265|127:289,1,135,2|0,1:2|0:0,0:0:0:0:
126,288,60399,2,0,P|111:329|125:372,1,90,10|0,0:0|0:0,0:0:0:0:
327,366,60787,6,0,B|299:377|258:354|276:337|235:314|205:331,1,135,2|0,1:2|0:0,0:0:0:0:
205,330,61174,1,2,0:0:0:0:
325,192,61367,1,0,1:0:0:0:
325,192,61561,2,0,B|353:181|394:204|376:221|417:244|447:227,1,135,2|0,1:2|0:0,0:0:0:0:
446,227,61948,2,0,P|463:187|446:144,1,90,10|0,0:0|0:0,0:0:0:0:
323,276,62335,5,0,1:0:0:0:
447,145,62529,1,0,1:0:0:0:
323,276,62722,2,0,L|234:261,1,90,8|0,0:0|0:0,0:0:0:0:
48,105,63109,6,0,B|64:125|54:162|37:151|27:189|47:209,1,112.5,6|0,1:2|0:0,0:0:0:0:
141,183,63399,2,0,B|157:203|147:240|130:229|120:267|140:287,1,112.5,4|0,0:3|0:0,0:0:0:0:
234,261,63690,1,4,0:3:0:0:
48,105,63883,6,0,L|92:97,1,45,10|0,0:0|0:0,0:0:0:0:
141,183,64077,2,0,L|185:175,1,45,10|0,0:0|0:0,0:0:0:0:
234,261,64270,2,0,L|278:253,1,45,10|0,0:0|0:0,0:0:0:0:
502,81,64658,5,8,0:0:0:0:
448,86,64754,1,8,0:0:0:0:
413,127,64851,1,0,1:0:0:0:
415,181,64948,1,0,1:0:0:0:
451,221,65045,5,8,0:0:0:0:
499,219,65141,1,8,0:0:0:0:
512,193,65238,1,4,0:3:0:0:
508,170,65335,1,0,1:0:0:0:
494,160,65432,6,0,B|430:169|430:169|410:185|410:185|345:195,1,155.250002961159,14|0,0:0|0:0,0:0:0:0:
262,155,65819,2,0,L|278:257,1,103.500001974106,10|0,0:0|0:0,0:0:0:0:
88,380,66206,6,0,B|71:365|71:365|50:233,1,155.250002961159,10|0,0:0|0:0,0:0:0:0:
13,155,66593,2,0,P|62:145|107:169,1,103.500001974106,10|0,0:0|1:0,0:0:0:0:
274,341,66980,6,0,B|306:355|352:328|331:309|378:282|412:302,1,155.250002961159,10|0,0:0|0:0,0:0:0:0:
400,384,67367,1,10,0:0:0:0:
278,257,67561,1,2,0:0:0:0:
484,359,67754,5,8,0:0:0:0:
278,257,67948,1,0,1:0:0:0:
512,275,68141,1,8,0:0:0:0:
306,173,68335,1,0,1:0:0:0:
476,30,68529,6,0,B|492:49|490:74|490:74|474:180,1,155.250002961159,10|0,0:0|0:0,0:0:0:0:
512,275,68916,2,0,L|409:258,1,103.500001974106,10|0,0:0|0:0,0:0:0:0:
230,378,69303,6,0,L|76:353,1,155.250002961159,10|0,0:0|0:0,0:0:0:0:
0,336,69690,2,0,L|16:233,1,103.500001974106,10|0,0:0|1:0,0:0:0:0:
261,146,70077,6,0,B|272:165|272:165|251:297,1,155.250002961159,10|0,0:0|0:0,0:0:0:0:
230,378,70464,1,10,0:0:0:0:
168,184,70658,1,2,1:2:0:0:
320,354,70851,5,8,0:0:0:0:
168,184,71045,1,0,1:0:0:0:
320,354,71238,1,8,0:0:0:0:
323,340,71335,1,8,0:0:0:0:
326,327,71432,1,4,0:3:0:0:
185,81,71625,6,0,L|168:183,1,103.500001974106,14|0,0:0|0:0,0:0:0:0:
95,242,71916,2,0,L|43:233,1,51.7500009870529,2|8,0:0|0:0,0:0:0:0:
261,146,72206,1,2,0:0:0:0:
112,344,72399,2,0,L|95:242,1,103.500001974106,10|0,0:0|1:0,0:0:0:0:
82,153,72690,2,0,L|73:102,1,51.7500009870529,2|8,0:0|0:0,0:0:0:0:
112,344,72980,1,2,1:2:0:0:
305,238,73174,6,0,B|347:219|409:255|370:275|444:317|489:290,1,207.000003948212,10|8,0:0|0:0,0:0:0:0:
319,143,73754,1,2,0:0:0:0:
319,143,73851,1,2,0:0:0:0:
319,143,73948,2,0,P|294:187|304:237,1,103.500001974106,10|0,0:0|1:0,0:0:0:0:
476,383,74335,2,0,P|500:338|490:288,1,103.500001974106,8|2,0:0|1:2,0:0:0:0:
319,143,74722,6,0,L|216:159,1,103.500001974106,14|0,0:0|0:0,0:0:0:0:
186,76,75013,2,0,L|237:67,1,51.7500009870529,2|8,0:0|0:0,0:0:0:0:
391,206,75303,1,2,0:0:0:0:
334,40,75496,2,0,L|318:143,1,103.500001974106,10|0,0:0|1:0,0:0:0:0:
305,238,75787,2,0,L|293:307,1,51.7500009870529,2|8,0:0|0:0,0:0:0:0:
472,219,76077,2,0,P|433:199|390:205,1,87.749995983124,2|0,1:3|0:0,0:0:0:0:
390,205,76464,5,2,1:2:0:0:
230,358,76658,1,14,0:0:0:0:
419,293,76851,1,2,0:0:0:0:
232,178,77045,5,8,0:0:0:0:
183,145,77141,1,8,0:0:0:0:
130,153,77238,1,0,1:0:0:0:
96,195,77335,1,0,1:0:0:0:
44,210,77432,5,8,0:0:0:0:
9,183,77529,1,8,0:0:0:0:
5,144,77625,1,4,0:3:0:0:
27,123,77722,1,0,1:0:0:0:
47,126,77819,6,0,L|21:279,1,155.250002961159,14|0,0:0|0:0,0:0:0:0:
0,365,78206,2,0,L|102:381,1,103.500001974106,10|0,0:0|0:0,0:0:0:0:
232,178,78593,6,0,B|297:188|297:188|317:204|317:204|381:213,1,155.250002961159,10|0,0:0|0:0,0:0:0:0:
445,271,78980,2,0,P|469:226|459:176,1,103.500001974106,10|0,0:0|1:0,0:0:0:0:
269,31,79367,6,0,B|251:49|251:49|231:177,1,155.250002961159,10|0,0:0|0:0,0:0:0:0:
216,262,79754,1,10,0:0:0:0:
380,212,79948,1,2,1:2:0:0:
145,204,80141,5,8,0:0:0:0:
359,297,80335,1,0,1:0:0:0:
125,291,80529,1,8,0:0:0:0:
339,384,80723,1,0,1:0:0:0:
398,101,80916,6,0,L|379:211,1,112.5,14|0,0:0|0:0,0:0:0:0:
219,337,81303,2,0,B|252:351|298:323|277:304|325:277|359:297,1,155.250002961159,10|0,0:0|0:0,0:0:0:0:
423,364,81690,6,0,P|451:316|442:262,1,112.5,2|0,1:2|1:0,0:0:0:0:
256,101,82077,2,0,L|231:254,1,155.250002961159,10|0,0:0|0:0,0:0:0:0:
219,337,82464,5,2,1:2:0:0:
74,241,82658,1,2,1:2:0:0:
256,101,82851,1,10,0:0:0:0:
111,5,83045,2,0,B|71:25|98:84|135:97|192:76|166:20|211:9|251:12,1,225,6|0,1:2|1:0,0:0:0:0:
393,168,83625,1,10,0:0:0:0:
445,173,83721,1,8,0:0:0:0:
485,137,83818,1,4,0:3:0:0:
482,82,83915,1,0,1:0:0:0:
441,48,84012,6,0,B|398:29|336:65|364:90|301:127|255:100,1,207.000003948212,10|8,0:0|0:0,0:0:0:0:
111,5,84593,1,0,0:0:0:0:
255,192,84787,2,0,P|275:145|255:99,1,103.500001974106,0|0,1:0|0:0,0:0:0:0:
8,127,85174,1,10,0:0:0:0:
48,134,85270,1,8,0:0:0:0:
89,141,85367,1,4,0:3:0:0:
131,148,85464,1,0,1:0:0:0:
172,154,85561,6,0,B|145:187|162:250|190:231|208:295|173:329,1,188.999994232178,6|2,1:2|0:3,0:0:0:0:
92,285,86335,1,2,0:0:0:0:
256,192,86529,1,4,0:3:0:0:
256,192,86722,1,4,0:3:0:0:
256,192,87109,6,0,B|357:102|492:219|492:219|393:234|401:294|376:275|345:299|308:273,1,450,6|0,1:2|0:0,0:0:0:0:
