osu file format v14

[General]
AudioFilename: audio.mp3
AudioLeadIn: 0
PreviewTime: 64658
Countdown: 0
SampleSet: Soft
StackLeniency: 0.4
Mode: 0
LetterboxInBreaks: 0
WidescreenStoryboard: 1

[Editor]
Bookmarks: 6593,14335,15883,40658,59238,65432,87109
DistanceSpacing: 1.5
BeatDivisor: 4
GridSize: 32
TimelineZoom: 1.96

[Metadata]
Title:Nanairo Symphony (TV Size)
TitleUnicode:七色シンフォニー (TV Size)
Artist:Coalamode.
ArtistUnicode:コアラモード.
Creator:Iceluin
Version:Hard
Source:Your lie in April
Tags:四月は君の嘘 shigatsu wa kimi no uso opening op japanese anime pop jpop j-pop kimiuso
BeatmapID:3099673
BeatmapSetID:1047883

[Difficulty]
HPDrainRate:5
CircleSize:3.8
OverallDifficulty:6
ApproachRate:7.5
SliderMultiplier:1.5
SliderTickRate:1

[Events]
//Background and Video events
Video,0,"video.mp4"
0,0,"shigatsu.jpg",0,0
//Break Periods
//Storyboard Layer 0 (Background)
//Storyboard Layer 1 (Fail)
//Storyboard Layer 2 (Pass)
//Storyboard Layer 3 (Foreground)
//Storyboard Layer 4 (Overlay)
//Storyboard Sound Samples

[TimingPoints]
400,387.096774193548,4,2,1,40,1,0
400,-142.857142857143,4,2,1,40,0,0
6593,-125,4,2,1,50,0,0
14335,-100,4,2,1,65,0,0
15883,-125,4,2,2,50,0,0
40658,-111.111111111111,4,2,1,65,0,0
59238,-100,4,2,1,65,0,0
65432,-90.9090909090909,4,2,1,75,0,1
85561,-111.111111111111,4,2,1,75,0,1
87109,-142.857142857143,4,2,1,60,0,0
87496,-142.857142857143,4,2,1,51,0,0
87883,-142.857142857143,4,2,1,42,0,0
88270,-142.857142857143,4,2,1,33,0,0
88658,-142.857142857143,4,2,1,24,0,0
89045,-142.857142857143,4,2,1,15,0,0

[Colours]
Combo1 : 89,255,172
Combo2 : 255,179,217
Combo3 : 255,255,176
Combo4 : 85,170,255

[HitObjects]
96,288,400,5,2,0:0:0:0:
96,288,593,2,0,L|96:235,1,52.4999983978272,2|2,0:0|0:0,0:0:0:0:
47,160,980,2,0,P|95:142|144:160,1,104.999996795654,2|2,0:0|0:0,0:0:0:0:
256,297,1754,6,0,B|289:312|336:286|314:266|363:239|397:258,1,157.499995193482,2|0,0:0|0:0,0:0:0:0:
478,311,2529,2,0,L|478:206,1,104.999996795654,2|2,0:0|0:0,0:0:0:0:
423,135,3109,1,2,0:0:0:0:
478,64,3303,6,0,B|502:29|453:-18|390:7|424:40|384:65|354:73|324:60,1,209.999993591309,2|0,0:0|0:0,0:0:0:0:
243,97,4270,2,0,P|230:60|243:24,2,78.7499975967408,2|2|2,0:0|0:0|0:0,0:0:0:0:
313,152,5045,5,2,0:0:0:0:
243,207,5238,1,2,0:0:0:0:
313,261,5432,1,2,0:0:0:0:
313,261,5819,2,0,L|391:261,2,78.7499975967408,2|2|2,0:0|0:0|0:0,0:0:0:0:
288,299,6496,5,0,0:0:0:0:
288,299,6593,2,0,B|239:299|239:299|219:312|219:312|172:312,1,120,2|2,0:0|0:0,0:0:0:0:
100,366,7174,1,0,0:0:0:0:
27,312,7367,2,0,P|5:257|27:202,1,120,2|2,0:0|0:0,0:0:0:0:
171,97,8141,6,0,L|291:97,1,120,2|2,0:0|0:0,0:0:0:0:
364,44,8722,2,0,P|385:98|363:153,1,120,2|0,0:0|0:0,0:0:0:0:
291,207,9303,1,0,0:0:0:0:
291,207,9690,6,0,L|171:207,1,120,2|2,0:0|0:0,0:0:0:0:
100,261,10270,1,0,0:0:0:0:
27,207,10464,2,0,L|27:87,1,120,2|2,0:0|0:0,0:0:0:0:
171,87,11238,6,0,L|171:207,1,120,2|2,0:0|0:0,0:0:0:0:
100,261,11819,2,0,P|78:315|99:370,1,120,2|0,0:0|0:0,0:0:0:0:
171,317,12399,1,0,0:0:0:0:
171,317,12787,6,0,B|196:306|232:325|215:341|252:361|279:347,1,120,6|0,1:2|0:0,0:0:0:0:
351,292,13367,1,2,0:0:0:0:
351,292,13464,1,2,0:0:0:0:
351,292,13561,2,0,P|393:280|435:294,2,90,2|2|2,0:0|0:0|0:0,0:0:0:0:
256,87,14529,5,2,1:2:0:0:
325,29,14722,2,0,B|360:16|360:16|396:29,1,75,14|0,0:0|0:0,0:0:0:0:
464,87,15109,2,0,L|464:186,1,75,2|0,1:2|3:0,0:0:0:0:
467,210,15399,1,8,0:0:0:0:
467,210,15496,1,0,1:0:0:0:
401,272,15690,1,8,0:0:0:0:
467,341,15883,6,0,B|441:363|441:363|355:363,1,120,6|10,1:2|0:0,0:0:0:0:
283,307,16464,1,2,1:2:0:0:
212,363,16658,2,0,L|152:363,1,60,10|0,0:0|0:0,0:0:0:0:
86,308,17045,1,10,0:0:0:0:
86,308,17238,1,2,0:0:0:0:
152,247,17432,6,0,P|174:192|151:138,1,120,2|10,1:2|0:0,0:0:0:0:
86,77,18012,1,0,1:0:0:0:
151,14,18206,2,0,L|211:14,2,60,10|2|10,0:0|0:0|0:0,0:0:0:0:
86,77,18787,1,2,0:0:0:0:
151,138,18980,6,0,B|200:138|200:138|220:151|220:151|267:151,1,120,2|8,1:2|0:0,0:0:0:0:
339,96,19561,2,0,P|361:150|339:204,1,120,2|0,1:2|0:0,0:0:0:0:
267,257,20141,1,10,0:0:0:0:
451,264,20529,5,0,1:0:0:0:
451,264,20722,2,0,L|451:204,1,60,2|8,0:0|0:0,0:0:0:0:
511,137,21109,2,0,P|533:82|510:28,1,120,2|2,1:2|0:0,0:0:0:0:
442,86,21690,1,10,0:0:0:0:
442,86,21883,1,2,0:0:0:0:
372,28,22077,6,0,B|252:28,1,120,2|10,1:2|0:0,0:0:0:0:
183,86,22658,1,2,1:2:0:0:
118,27,22852,2,0,P|89:18|60:26,1,60,10|0,0:0|0:0,0:0:0:0:
0,89,23239,1,10,0:0:0:0:
0,89,23432,1,2,0:0:0:0:
61,154,23626,6,0,B|89:173|89:173|175:173,1,120,2|10,1:2|0:0,0:0:0:0:
243,230,24206,1,0,1:0:0:0:
315,177,24400,2,0,L|315:117,2,60,10|2|10,0:0|0:0|0:0,0:0:0:0:
387,230,24981,1,2,0:0:0:0:
459,177,25174,6,0,P|481:232|458:286,1,120,2|8,1:2|0:0,0:0:0:0:
387,341,25754,2,0,L|267:341,1,120,2|0,1:2|0:0,0:0:0:0:
177,341,26335,1,10,0:0:0:0:
31,243,26722,5,0,1:0:0:0:
31,243,26916,2,0,P|23:214|31:185,1,60,2|8,0:0|0:0,0:0:0:0:
112,150,27303,2,0,P|90:95|113:41,1,120,2|2,1:2|0:0,0:0:0:0:
194,6,27883,1,10,0:0:0:0:
194,6,28077,1,2,0:0:0:0:
276,41,28270,6,0,L|336:41,2,60,6|2|10,1:2|0:0|0:0,0:0:0:0:
310,124,28851,6,0,L|370:124,2,60,2|10|2,1:2|0:0|0:0,0:0:0:0:
344,207,29432,6,0,L|404:207,2,60,10|2|2,0:0|0:0|1:2,0:0:0:0:
378,290,30012,6,0,L|438:290,2,60,2|10|2,0:0|0:0|1:2,0:0:0:0:
412,373,30593,6,0,L|487:373,1,75,10|2,0:0|0:0,0:0:0:0:
404,207,31174,1,2,0:0:0:0:
404,207,31367,6,0,L|284:207,1,120,2|8,1:2|0:0,0:0:0:0:
212,261,31948,2,0,P|234:206|212:152,1,120,2|0,1:2|0:0,0:0:0:0:
144,93,32529,1,10,0:0:0:0:
0,201,32916,5,2,1:2:0:0:
0,201,33110,2,0,L|0:260,1,60,2|10,0:0|0:0,0:0:0:0:
51,334,33496,2,0,B|80:348|80:348|106:337|106:337|132:348|132:348|160:334,1,120,2|2,1:2|0:0,0:0:0:0:
212,261,34077,1,10,0:0:0:0:
212,261,34270,1,2,0:0:0:0:
264,334,34464,6,0,P|319:356|373:333,1,120,2|10,1:2|0:0,0:0:0:0:
431,266,35045,1,2,1:2:0:0:
372,198,35238,2,0,L|372:138,1,60,10|0,0:0|0:0,0:0:0:0:
431,70,35625,1,10,0:0:0:0:
431,70,35819,1,2,0:0:0:0:
372,1,36012,6,0,B|323:1|323:1|303:14|303:14|256:14,1,120,2|10,1:2|0:0,0:0:0:0:
185,70,36593,1,2,1:2:0:0:
255,125,36787,2,0,P|261:153|254:182,1,60,10|0,0:0|0:0,0:0:0:0:
194,250,37173,1,10,0:0:0:0:
194,250,37367,1,2,0:0:0:0:
113,204,37561,6,0,B|25:204|25:204|-1:223,1,120,2|8,1:2|0:0,0:0:0:0:
1,312,38141,2,0,B|89:312|89:312|115:293,1,120,2|0,1:2|0:0,0:0:0:0:
194,250,38722,2,0,L|194:190,1,60,10|2,0:0|0:0,0:0:0:0:
115,141,39109,5,4,0:3:0:0:
135,51,39303,1,4,0:3:0:0:
226,44,39496,1,4,0:3:0:0:
262,128,39690,2,0,P|316:150|370:127,1,120,6|0,1:2|0:0,0:0:0:0:
434,58,40270,1,8,0:3:0:0:
434,58,40464,1,8,0:3:0:0:
492,127,40658,6,0,L|492:262,1,134.999995880127,6|0,1:2|0:0,0:0:0:0:
426,329,41238,1,2,3:2:0:0:
426,329,41335,1,0,3:0:0:0:
426,329,41432,2,0,L|291:329,1,134.999995880127,2|8,3:2|0:0,0:0:0:0:
224,262,42012,1,2,0:0:0:0:
157,329,42206,6,0,P|109:345|62:328,2,101.249996910095,2|2|2,1:2|0:0|1:2,0:0:0:0:
291,195,43174,1,4,0:3:0:0:
224,127,43367,1,4,0:3:0:0:
224,127,43561,1,4,0:3:0:0:
291,61,43754,6,0,P|352:36|413:61,1,134.999995880127,2|0,1:2|0:0,0:0:0:0:
475,133,44335,1,2,3:2:0:0:
475,133,44432,1,0,3:0:0:0:
475,133,44529,2,0,P|413:157|352:132,1,134.999995880127,2|8,3:2|0:0,0:0:0:0:
291,61,45109,1,2,0:0:0:0:
224,127,45303,6,0,B|198:142|198:142|126:142,2,101.249996910095,2|2|2,1:2|0:0|1:2,0:0:0:0:
358,263,46270,1,4,0:3:0:0:
291,329,46464,1,4,0:3:0:0:
291,329,46658,1,4,0:3:0:0:
224,262,46851,6,0,L|224:127,1,134.999995880127,2|0,1:2|0:0,0:0:0:0:
136,127,47432,1,2,3:2:0:0:
136,127,47529,1,0,3:0:0:0:
136,127,47625,2,0,L|136:262,1,134.999995880127,2|8,3:2|0:0,0:0:0:0:
69,329,48206,1,2,0:0:0:0:
2,262,48399,6,0,L|2:194,1,67.4999979400635,2|0,1:2|0:0,0:0:0:0:
68,127,48787,2,0,L|135:127,1,67.4999979400635,2|0,0:0|1:0,0:0:0:0:
209,188,49174,2,0,P|184:127|209:66,1,134.999995880127,2|10,1:2|0:0,0:0:0:0:
284,9,49754,1,2,0:0:0:0:
359,66,49948,6,0,L|426:66,1,67.4999979400635,2|0,1:2|0:0,0:0:0:0:
426,160,50335,2,0,L|358:160,1,67.4999979400635,2|0,0:0|1:0,0:0:0:0:
298,233,50722,2,0,B|330:254|330:254|426:254,1,134.999995880127,2|10,0:0|0:0,0:0:0:0:
432,69,51496,6,0,B|335:69|335:69|303:90,1,134.999995880127,2|0,1:2|0:0,0:0:0:0:
239,160,52077,1,2,1:2:0:0:
177,89,52270,2,0,P|144:81|112:88,1,67.4999979400635,2|4,0:0|0:3,0:0:0:0:
49,160,52658,1,8,0:0:0:0:
49,170,52754,1,8,0:0:0:0:
49,180,52851,1,4,0:3:0:0:
111,251,53045,6,0,B|130:274|120:319|97:305|86:351|109:376,1,134.999995880127,6|0,1:2|0:0,0:0:0:0:
211,377,53625,1,2,3:2:0:0:
211,377,53722,1,0,3:0:0:0:
211,377,53819,2,0,B|234:351|223:305|200:319|190:275|209:251,1,134.999995880127,2|8,3:2|0:0,0:0:0:0:
284,193,54399,1,2,0:0:0:0:
359,250,54593,6,0,P|405:267|452:250,2,101.249996910095,2|2|2,1:2|0:0|1:2,0:0:0:0:
211,377,55561,1,4,0:3:0:0:
136,320,55754,1,4,0:3:0:0:
136,320,55948,1,4,0:3:0:0:
61,377,56141,6,0,B|40:342|40:342|40:247,1,134.999995880127,2|0,1:2|0:0,0:0:0:0:
104,178,56722,2,0,P|165:153|226:178,1,134.999995880127,2|0,1:2|0:0,0:0:0:0:
290,247,57303,1,8,0:0:0:0:
411,102,57690,6,0,P|350:127|289:102,1,134.999995880127,2|0,1:2|0:0,0:0:0:0:
225,33,58271,1,2,1:2:0:0:
104,178,58658,1,4,0:3:0:0:
164,250,58851,1,4,0:3:0:0:
164,250,59045,1,4,0:3:0:0:
96,317,59238,6,0,P|163:345|230:316,1,150,6|2,1:2|0:0,0:0:0:0:
290,247,59819,1,0,1:0:0:0:
290,247,60012,2,0,L|290:172,1,75,2|0,1:2|0:0,0:0:0:0:
212,125,60399,2,0,P|200:89|212:54,1,75,10|0,0:0|0:0,0:0:0:0:
290,6,60787,6,0,B|351:6|351:6|376:22|376:22|434:22,1,150,2|2,1:2|0:0,0:0:0:0:
500,84,61368,1,0,1:0:0:0:
500,84,61561,2,0,L|500:159,1,75,2|0,1:2|0:0,0:0:0:0:
435,222,61948,2,0,P|423:258|435:293,1,75,10|0,0:0|0:0,0:0:0:0:
500,361,62335,5,0,1:0:0:0:
500,361,62529,1,0,1:0:0:0:
434,291,62722,1,8,0:0:0:0:
256,362,63109,2,0,P|266:326|255:290,1,75,6|0,1:2|0:0,0:0:0:0:
232,252,63399,2,0,P|221:216|232:180,1,75,4|0,0:3|0:0,0:0:0:0:
256,141,63690,1,4,0:3:0:0:
186,83,63883,5,10,0:0:0:0:
117,141,64077,1,10,0:0:0:0:
48,199,64270,1,10,0:0:0:0:
48,199,64658,6,0,B|55:216|55:216|48:233,3,37.5,8|8|0|0,0:0|0:0|1:0|1:0,0:0:0:0:
61,262,65045,1,8,0:0:0:0:
74,287,65141,1,8,0:0:0:0:
88,315,65238,1,4,0:3:0:0:
102,341,65335,1,0,1:0:0:0:
117,367,65432,6,0,B|150:382|200:356|176:333|228:305|265:324,1,165.000005035401,14|10,0:0|0:0,0:0:0:0:
346,379,66012,1,0,0:0:0:0:
428,323,66206,2,0,L|428:240,1,82.5000025177003,10|0,0:0|1:0,0:0:0:0:
349,179,66593,2,0,P|310:166|271:178,1,82.5000025177003,10|0,0:0|1:0,0:0:0:0:
194,240,66980,6,0,B|93:240|93:240|74:226,1,123.75000377655,10|0,0:0|0:0,0:0:0:0:
35,196,67367,1,10,0:0:0:0:
113,134,67561,1,2,0:0:0:0:
36,79,67754,1,8,0:0:0:0:
36,79,67948,1,0,1:0:0:0:
109,14,68141,1,8,0:0:0:0:
109,14,68335,1,0,1:0:0:0:
219,79,68529,6,0,B|286:79|286:79|313:62|313:62|377:62,1,165.000005035401,10|10,0:0|0:0,0:0:0:0:
444,0,69109,1,0,0:0:0:0:
511,62,69303,2,0,P|524:101|512:140,1,82.5000025177003,10|0,0:0|1:0,0:0:0:0:
444,212,69690,2,0,P|431:251|443:290,1,82.5000025177003,10|0,0:0|1:0,0:0:0:0:
506,375,70077,6,0,L|382:375,1,123.75000377655,10|0,0:0|0:0,0:0:0:0:
332,375,70464,1,10,0:0:0:0:
258,308,70658,1,2,1:2:0:0:
332,242,70851,1,8,0:0:0:0:
332,242,71045,1,0,1:0:0:0:
258,174,71239,1,8,0:0:0:0:
258,164,71335,1,8,0:0:0:0:
258,154,71432,1,4,0:3:0:0:
314,40,71625,6,0,P|258:64|203:39,1,123.75000377655,14|2,0:0|0:0,0:0:0:0:
161,14,72012,2,0,L|161:96,1,82.5000025177003,8|2,0:0|0:0,0:0:0:0:
161,195,72399,2,0,P|105:219|50:194,1,123.75000377655,10|2,0:0|0:0,0:0:0:0:
11,169,72786,2,0,L|11:251,1,82.5000025177003,8|2,0:0|1:2,0:0:0:0:
11,351,73174,6,0,B|78:351|78:351|105:368|105:368|169:368,1,165.000005035401,10|8,0:0|0:0,0:0:0:0:
249,306,73754,1,2,0:0:0:0:
249,306,73851,1,2,0:0:0:0:
249,306,73948,2,0,L|331:306,1,82.5000025177003,10|0,0:0|1:0,0:0:0:0:
408,368,74335,1,8,0:0:0:0:
486,306,74529,1,2,1:2:0:0:
408,201,74722,6,0,L|408:77,1,123.75000377655,14|2,0:0|0:0,0:0:0:0:
368,46,75109,2,0,P|329:33|290:46,1,82.5000025177003,8|2,0:0|0:0,0:0:0:0:
237,129,75496,2,0,L|237:253,1,123.75000377655,10|2,0:0|0:0,0:0:0:0:
197,284,75883,2,0,P|158:296|119:283,1,82.5000025177003,8|2,0:0|1:3,0:0:0:0:
119,283,76464,5,2,1:2:0:0:
46,215,76658,2,0,B|46:182|27:150|27:150|38:125|63:108,1,123.75000377655,14|0,0:0|0:0,0:0:0:0:
102,79,77045,2,0,L|143:79,3,41.2500012588501,8|8|0|0,0:0|0:0|1:0|1:0,0:0:0:0:
180,45,77432,1,8,0:0:0:0:
205,27,77528,1,8,0:0:0:0:
235,23,77625,1,4,0:3:0:0:
265,27,77722,1,0,1:0:0:0:
290,45,77819,6,0,B|426:45|426:45|452:71,1,165.000005035401,14|10,0:0|0:0,0:0:0:0:
512,139,78399,1,0,0:0:0:0:
446,213,78593,2,0,L|363:213,1,82.5000025177003,10|0,0:0|1:0,0:0:0:0:
296,139,78980,2,0,L|213:139,1,82.5000025177003,10|0,0:0|1:0,0:0:0:0:
135,84,79367,6,0,P|159:139|135:194,1,123.75000377655,10|0,0:0|0:0,0:0:0:0:
97,226,79754,1,10,0:0:0:0:
28,297,79948,1,2,1:2:0:0:
101,370,80141,1,8,0:0:0:0:
101,370,80335,1,0,1:0:0:0:
171,300,80528,1,8,0:0:0:0:
171,300,80722,1,0,1:0:0:0:
282,370,80916,6,0,L|364:370,1,82.5000025177003,14|0,0:0|0:0,0:0:0:0:
463,370,81303,2,0,B|446:349|454:308|476:320|485:277|464:254,1,123.75000377655,10|0,0:0|0:0,0:0:0:0:
437,212,81690,2,0,L|355:212,1,82.5000025177003,2|0,1:2|1:0,0:0:0:0:
255,212,82077,2,0,B|272:191|264:150|242:162|233:119|254:96,1,123.75000377655,10|0,0:0|0:0,0:0:0:0:
280,54,82464,5,2,1:2:0:0:
189,12,82658,1,2,1:2:0:0:
100,54,82851,1,10,0:0:0:0:
9,12,83045,2,0,B|-6:57|-6:57|27:122|27:122|9:163,1,165.000005035401,6|0,1:2|1:0,0:0:0:0:
13,268,83625,1,10,0:0:0:0:
13,268,83722,1,8,0:0:0:0:
13,268,83819,1,4,0:3:0:0:
100,364,84012,6,0,B|139:378|183:353|159:330|211:302|248:321,1,165.000005035401,10|8,0:0|0:0,0:0:0:0:
330,375,84593,1,0,0:0:0:0:
412,320,84787,2,0,L|412:237,1,82.5000025177003,0|0,1:0|0:0,0:0:0:0:
330,180,85174,1,10,0:0:0:0:
308,156,85270,1,8,0:0:0:0:
302,128,85367,1,4,0:3:0:0:
309,98,85464,1,0,1:0:0:0:
330,76,85561,6,0,B|357:108|330:128|330:128|187:128,1,202.499993820191,6|2,1:2|0:3,0:0:0:0:
117,65,86335,1,2,0:0:0:0:
47,128,86529,1,4,0:3:0:0:
47,128,86722,1,4,0:3:0:0:
117,320,87109,5,6,1:2:0:0:
256,192,87206,12,0,89045,0:0:0:0:
