osu file format v14

[General]
AudioFilename: audio.mp3
AudioLeadIn: 0
PreviewTime: 64658
Countdown: 0
SampleSet: Soft
StackLeniency: 0.7
Mode: 0
LetterboxInBreaks: 0
WidescreenStoryboard: 1

[Editor]
Bookmarks: 6593,14335,15883,40658,59238,65432,87109
DistanceSpacing: 1
BeatDivisor: 4
GridSize: 32
TimelineZoom: 0.9

[Metadata]
Title:Nanairo Symphony (TV Size)
TitleUnicode:七色シンフォニー (TV Size)
Artist:Coalamode.
ArtistUnicode:コアラモード.
Creator:Iceluin
Version:Easy
Source:Your lie in April
Tags:四月は君の嘘 shigatsu wa kimi no uso opening op japanese anime pop jpop j-pop kimiuso
BeatmapID:3099672
BeatmapSetID:1047883

[Difficulty]
HPDrainRate:3
CircleSize:3
OverallDifficulty:3
ApproachRate:4
SliderMultiplier:1
SliderTickRate:1

[Events]
//Background and Video events
Video,0,"video.mp4"
0,0,"shigatsu.jpg",0,0
//Break Periods
//Storyboard Layer 0 (Background)
//Storyboard Layer 1 (Fail)
//Storyboard Layer 2 (Pass)
//Storyboard Layer 3 (Foreground)
//Storyboard Layer 4 (Overlay)
//Storyboard Sound Samples

[TimingPoints]
400,387.096774193548,4,2,1,40,1,0
6593,-100,4,2,1,50,0,0
14335,-100,4,2,1,65,0,0
15883,-100,4,2,2,50,0,0
40658,-100,4,2,1,65,0,0
65432,-100,4,2,1,75,0,1
87109,-100,4,2,1,60,0,0
87496,-100,4,2,1,51,0,0
87883,-100,4,2,1,42,0,0
88270,-100,4,2,1,33,0,0
88658,-100,4,2,1,24,0,0
89045,-100,4,2,1,15,0,0

[Colours]
Combo1 : 89,255,172
Combo2 : 255,179,217
Combo3 : 255,255,176
Combo4 : 85,170,255

[HitObjects]
64,96,400,6,0,P|132:68|200:95,1,150,2|2,0:0|0:0,0:0:0:0:
276,159,1367,1,2,0:0:0:0:
352,95,1754,1,2,0:0:0:0:
352,295,2529,6,0,P|399:309|446:294,2,100,2|2|2,0:0|0:0|0:0,0:0:0:0:
199,94,4270,2,0,B|157:74|96:107|125:133|63:166|19:143,1,200,2|2,0:0|0:0,0:0:0:0:
44,46,5432,1,2,0:0:0:0:
44,345,6593,6,0,L|194:345,2,150,2|0|2,0:0|0:0|0:0,0:0:0:0:
44,245,8141,2,0,L|194:245,1,150,2|2,0:0|0:0,0:0:0:0:
353,52,9690,2,0,P|399:37|446:52,1,100,2|2,0:0|0:0,0:0:0:0:
446,152,10464,2,0,P|399:166|352:151,1,100,2|2,0:0|0:0,0:0:0:0:
265,100,11238,6,0,B|203:100|203:100|177:83|177:83|119:83,2,150,2|2|0,0:0|0:0|0:0,0:0:0:0:
351,150,12787,1,6,1:2:0:0:
351,349,13561,2,0,L|276:349,2,75,2|2|2,0:0|0:0|0:0,0:0:0:0:
446,245,14722,2,0,P|461:199|446:152,1,100,14|2,0:0|1:2,0:0:0:0:
370,85,15496,1,0,1:0:0:0:
295,151,15883,6,0,L|195:151,2,100,6|10|10,1:2|0:0|0:0,0:0:0:0:
370,85,17045,1,10,0:0:0:0:
295,18,17432,2,0,L|195:18,1,100,2|10,1:2|0:0,0:0:0:0:
121,85,18206,1,10,0:0:0:0:
195,151,18593,1,10,0:0:0:0:
121,218,18980,6,0,P|92:284|121:351,2,150,2|2|10,1:2|1:2|0:0,0:0:0:0:
195,151,20529,2,0,B|226:130|226:130|338:130,1,150,0|2,1:0|1:2,0:0:0:0:
338,280,21690,1,10,0:0:0:0:
412,346,22077,6,0,P|458:362|504:346,2,100,2|10|10,1:2|0:0|0:0,0:0:0:0:
338,280,23238,1,10,0:0:0:0:
263,346,23625,2,0,P|216:362|170:346,1,100,2|10,1:2|0:0,0:0:0:0:
94,280,24399,1,10,0:0:0:0:
170,215,24787,1,10,0:0:0:0:
94,149,25174,6,0,B|66:116|66:116|66:9,2,150,2|2|10,1:2|1:2|0:0,0:0:0:0:
170,215,26722,2,0,B|232:215|232:215|258:232|258:232|316:232,1,150,0|2,1:0|1:2,0:0:0:0:
314,81,27883,1,10,0:0:0:0:
243,9,28270,6,0,L|86:9,2,150,6|2|10,1:2|1:2|0:0,0:0:0:0:
314,81,29819,2,0,L|464:81,2,150,2|2|8,1:2|1:2|0:0,0:0:0:0:
243,151,31367,6,0,B|219:176|219:176|219:291,1,150,2|2,1:2|1:2,0:0:0:0:
68,291,32529,1,10,0:0:0:0:
0,217,32916,2,0,B|22:190|10:139|-13:155|-25:104|0:76,1,150,2|2,1:2|1:2,0:0:0:0:
149,76,34077,1,10,0:0:0:0:
226,12,34464,6,0,L|326:12,2,100,2|10|10,1:2|0:0|0:0,0:0:0:0:
149,76,35625,1,10,0:0:0:0:
226,139,36012,2,0,L|326:139,2,100,2|10|10,1:2|0:0|0:0,0:0:0:0:
149,203,37174,1,10,0:0:0:0:
226,266,37561,6,0,L|376:266,2,150,2|2|10,1:2|1:2|0:0,0:0:0:0:
149,330,39109,2,0,B|99:330|99:330|56:358|56:358|7:358,1,150,4|6,0:3|1:2,0:0:0:0:
7,202,40270,1,8,0:3:0:0:
88,143,40658,6,0,P|57:76|87:10,2,150,6|2|8,1:2|3:2|0:0,0:0:0:0:
162,75,42206,2,0,L|237:75,2,75,2|2|2,1:2|0:0|1:2,0:0:0:0:
162,225,43367,1,4,0:3:0:0:
236,291,43754,6,0,B|265:318|265:318|375:318,2,150,2|2|8,1:2|3:2|0:0,0:0:0:0:
162,225,45303,2,0,L|162:150,2,75,2|2|2,1:2|0:0|1:2,0:0:0:0:
312,225,46464,1,4,0:3:0:0:
377,149,46851,6,0,B|408:135|454:159|432:179|478:203|511:186,2,150,2|2|8,1:2|3:2|0:0,0:0:0:0:
312,72,48399,2,0,L|212:72,1,100,2|2,1:2|0:0,0:0:0:0:
148,149,49174,1,2,1:2:0:0:
83,72,49561,1,10,0:0:0:0:
19,149,49948,6,0,P|2:195|18:242,2,100,2|2|2,1:2|0:0|0:0,0:0:0:0:
83,72,51109,1,10,0:0:0:0:
148,149,51496,2,0,B|179:186|151:236|151:236|257:236,1,200,2|2,1:2|0:0,0:0:0:0:
332,302,52658,1,8,0:0:0:0:
407,236,53045,6,0,L|407:87,2,150,6|2|8,1:2|3:2|0:0,0:0:0:0:
483,302,54593,2,0,P|493:337|482:373,2,75,2|2|2,1:2|0:0|1:2,0:0:0:0:
332,302,55754,1,4,0:3:0:0:
260,372,56141,6,0,B|110:372,1,150,2|2,1:2|1:2,0:0:0:0:
110,218,57303,1,8,0:0:0:0:
177,143,57690,2,0,B|204:121|204:121|319:121,1,150,2|2,1:2|1:2,0:0:0:0:
451,202,58851,1,4,0:3:0:0:
512,122,59238,6,0,P|526:74|510:27,2,100,6|2|2,1:2|0:0|1:2,0:0:0:0:
451,202,60399,1,10,0:0:0:0:
393,122,60787,2,0,P|407:74|391:27,2,100,2|2|2,1:2|0:0|1:2,0:0:0:0:
332,202,61948,1,10,0:0:0:0:
271,122,62335,6,0,L|220:122,2,50,0|0|8,1:0|1:0|0:0,0:0:0:0:
271,22,63109,2,0,B|196:22|196:22|134:64|134:64|91:38,1,200,6|10,1:2|0:0,0:0:0:0:
16,105,64270,1,10,0:0:0:0:
91,171,64658,5,8,0:0:0:0:
91,270,65045,1,8,0:0:0:0:
166,336,65432,6,0,P|212:351|259:335,1,100,14|10,0:0|0:0,0:0:0:0:
335,270,66206,2,0,L|435:270,1,100,10|10,0:0|0:0,0:0:0:0:
511,205,66980,1,10,0:0:0:0:
435,139,67367,2,0,L|335:139,2,100,10|8|8,0:0|0:0|0:0,0:0:0:0:
435,38,68529,6,0,L|335:38,1,100,10|10,0:0|0:0,0:0:0:0:
250,91,69303,2,0,L|150:91,1,100,10|10,0:0|0:0,0:0:0:0:
79,20,70077,1,10,0:0:0:0:
9,91,70464,2,0,P|-7:137|9:183,1,100,10|8,0:0|0:0,0:0:0:0:
79,254,71238,1,8,0:0:0:0:
149,183,71625,6,0,P|165:136|149:90,2,100,14|8|10,0:0|0:0|0:0,0:0:0:0:
79,254,72787,1,8,0:0:0:0:
149,324,73174,2,0,B|231:324|231:324|265:346|265:346|342:346,1,200,10|10,0:0|0:0,0:0:0:0:
418,281,74335,1,8,0:0:0:0:
342,215,74722,6,0,B|275:215|275:215|246:230,2,100,14|8|10,0:0|0:0|0:0,0:0:0:0:
418,281,75883,2,0,L|468:281,1,50,8|2,0:0|1:3,0:0:0:0:
468,130,76658,1,14,0:0:0:0:
407,50,77045,1,8,0:0:0:0:
307,50,77432,1,8,0:0:0:0:
246,130,77819,6,0,L|246:230,1,100,14|10,0:0|0:0,0:0:0:0:
179,305,78593,2,0,L|79:305,1,100,10|10,0:0|0:0,0:0:0:0:
12,230,79367,1,10,0:0:0:0:
79,155,79754,2,0,P|93:107|78:61,2,100,10|8|8,0:0|0:0|0:0,0:0:0:0:
12,230,80916,5,14,0:0:0:0:
79,305,81303,1,10,0:0:0:0:
179,305,81690,2,0,L|179:355,2,50,2|0|10,1:2|1:0|0:0,0:0:0:0:
244,233,82464,2,0,B|288:229|319:264|319:264|355:257|374:231,2,150,2|6|10,1:2|1:2|0:0,0:0:0:0:
179,157,84012,6,0,P|132:173|86:157,2,100,10|8|0,0:0|0:0|1:0,0:0:0:0:
244,81,85174,1,10,0:0:0:0:
308,157,85561,2,0,B|347:206|332:278|279:248|250:323|268:378|360:393|371:339,1,300,6|4,1:2|0:3,0:0:0:0:
420,252,87109,5,6,1:2:0:0:
256,192,87303,12,0,89045,0:0:0:0:
