osu file format v14

[General]
AudioFilename: audio.mp3
AudioLeadIn: 0
PreviewTime: 65316
Countdown: 0
SampleSet: Soft
StackLeniency: 0.7
Mode: 2
LetterboxInBreaks: 0
WidescreenStoryboard: 0

[Editor]
DistanceSpacing: 1
BeatDivisor: 4
GridSize: 32
TimelineZoom: 1

[Metadata]
Title:Nanairo Symphony (TV Size)
TitleUnicode:七色シンフォニー (TV Size)
Artist:Coalamode.
ArtistUnicode:コアラモード.
Creator:Ascendance
Version:Symphony of Emotion
Source:四月は君の嘘
Tags:shigatsu wa kimi no uso your lie in april opening ajamez
BeatmapID:1741752
BeatmapSetID:831389

[Difficulty]
HPDrainRate:6
CircleSize:3.8
OverallDifficulty:8.8
ApproachRate:8.8
SliderMultiplier:2.2
SliderTickRate:2

[Events]
//Background and Video events
0,0,"cropped-1920-1080-629527.jpg",0,0
//Break Periods
//Storyboard Layer 0 (Background)
//Storyboard Layer 1 (Fail)
//Storyboard Layer 2 (Pass)
//Storyboard Layer 3 (Foreground)
//Storyboard Sound Samples

[TimingPoints]
1155,387.096774193548,4,2,1,50,1,0
1155,-100,4,2,1,50,0,0
15284,-100,4,2,1,60,0,0
16638,-100,4,2,1,50,0,0
41413,-100,4,2,1,60,0,0
59993,-100,4,2,1,65,0,0
66187,-90.9090909090909,4,2,1,70,0,1
87284,-90.9090909090909,4,2,1,60,0,1
87864,-100,4,2,1,70,0,0
87961,-100,4,2,1,50,0,0
88638,-100,4,2,1,30,0,0
89413,-100,4,2,1,10,0,0
89800,-100,4,2,1,5,0,0

[Colours]
Combo1 : 158,65,252
Combo2 : 131,173,253
Combo3 : 255,158,62
Combo4 : 255,255,164

[HitObjects]
162,114,1155,6,0,L|35:134,2,110,2|0|0,0:0|0:0|0:0,0:0:0:0:
318,251,1735,2,0,L|92:228,1,220,2|0,0:0|0:0,0:0:0:0:
402,347,2509,2,0,P|500:241|343:139,1,330,2|0,0:0|0:0,0:0:0:0:
137,280,3284,6,0,P|78:198|171:127,1,220,2|0,0:0|0:0,0:0:0:0:
292,124,3864,1,0,0:0:0:0:
153,76,4058,2,0,P|316:121|479:66,1,330,2|0,0:0|0:0,0:0:0:0:
197,132,5025,2,0,L|403:132,2,165,2|0|0,0:0|0:0|0:0,0:0:0:0:
455,260,5800,6,0,L|460:143,1,110,2|2,0:0|0:0,0:0:0:0:
324,85,6187,1,2,0:0:0:0:
112,86,6574,2,0,L|315:85,2,165,0|0|0,0:0|0:0|0:0,0:0:0:0:
383,291,7348,6,0,P|446:211|359:137,1,220,2|0,0:0|0:0,0:0:0:0:
170,127,8122,2,0,L|391:127,1,220,2|0,0:0|0:0,0:0:0:0:
190,52,8896,2,0,P|117:78|131:219,1,220,2|0,0:0|0:0,0:0:0:0:
235,230,9477,1,2,0:0:0:0:
69,303,9864,2,0,L|198:303,2,110,0|0|0,0:0|0:0|0:0,0:0:0:0:
301,342,10445,6,0,P|413:301|411:172,1,220,2|0,0:0|0:0,0:0:0:0:
191,157,11219,2,0,L|428:157,1,220,2|0,0:0|0:0,0:0:0:0:
167,51,11993,2,0,P|161:161|254:210,1,220,2|0,0:0|0:0,0:0:0:0:
370,217,12574,1,0,0:0:0:0:
176,294,12961,1,0,0:0:0:0:
286,294,13154,1,0,0:0:0:0:
399,296,13348,2,0,L|465:296,1,55,0|0,0:0|0:0,0:0:0:0:
216,231,13542,6,0,P|153:161|258:72,1,220,2|0,0:0|0:0,0:0:0:0:
352,63,14122,2,0,L|426:64,1,55,2|0,0:0|0:0,0:0:0:0:
207,28,14316,2,0,L|33:28,2,165,2|0|0,0:0|0:0|0:0,0:0:0:0:
428,30,15284,5,0,0:0:0:0:
129,236,15477,2,0,L|116:106,1,110,12|0,0:0|0:0,0:0:0:0:
428,154,15864,1,6,0:0:0:0:
312,222,16058,2,0,L|309:280,2,55,0|8|0,0:0|0:0|0:0,0:0:0:0:
428,154,16445,1,0,0:0:0:0:
152,327,16638,5,6,0:0:0:0:
63,270,16831,1,0,0:0:0:0:
70,165,17025,1,0,0:0:0:0:
164,120,17218,1,2,0:0:0:0:
287,198,17413,2,0,L|304:68,1,110,0|0,0:0|0:0,0:0:0:0:
154,174,17800,2,0,L|138:289,1,110,0|0,0:0|0:0,0:0:0:0:
318,307,18187,6,0,L|434:286,2,110,2|0|0,0:0|0:0|0:0,0:0:0:0:
195,230,18767,2,0,L|79:209,2,110,2|0|0,0:0|0:0|0:0,0:0:0:0:
349,207,19348,2,0,L|366:96,1,110,0|0,0:0|0:0,0:0:0:0:
113,34,19735,6,0,P|34:96|101:183,1,220,2|0,0:0|0:0,0:0:0:0:
202,187,20316,1,2,0:0:0:0:
427,189,20703,1,0,0:0:0:0:
299,188,20896,2,0,L|420:188,1,110,0|0,0:0|0:0,0:0:0:0:
144,278,21284,6,0,L|10:278,2,110,2|2|0,0:0|0:0|0:0,0:0:0:0:
291,335,21864,2,0,P|353:256|262:176,1,220,2|0,0:0|0:0,0:0:0:0:
170,173,22445,2,0,L|52:173,1,110,0|0,0:0|0:0,0:0:0:0:
348,233,22832,6,0,L|346:115,1,110,2|0,0:0|0:0,0:0:0:0:
206,40,23219,1,0,0:0:0:0:
110,81,23412,1,2,0:0:0:0:
105,186,23606,1,0,0:0:0:0:
196,237,23799,1,0,0:0:0:0:
329,238,23993,2,0,L|447:238,1,110,0|0,0:0|0:0,0:0:0:0:
228,349,24380,6,0,L|218:239,1,110,2|0,0:0|0:0,0:0:0:0:
370,195,24767,2,0,L|235:180,1,110,0|2,0:0|0:0,0:0:0:0:
431,133,25154,2,0,L|444:20,1,110,0|0,0:0|0:0,0:0:0:0:
290,116,25542,2,0,L|414:97,1,110,0|0,0:0|0:0,0:0:0:0:
135,34,25929,6,0,P|40:82|72:217,1,220,2|0,0:0|0:0,0:0:0:0:
172,217,26509,1,2,0:0:0:0:
392,217,26896,1,0,0:0:0:0:
282,217,27089,1,0,0:0:0:0:
172,217,27283,1,0,0:0:0:0:
465,325,27477,6,0,L|473:210,1,110,2|2,0:0|0:0,0:0:0:0:
347,157,27864,1,0,0:0:0:0:
58,312,28058,2,0,L|290:290,1,220,2|0,0:0|0:0,0:0:0:0:
137,172,28638,2,0,L|134:283,1,110,0|0,0:0|0:0,0:0:0:0:
448,186,29025,6,0,L|456:66,1,110,6|0,0:0|0:0,0:0:0:0:
327,28,29413,1,0,0:0:0:0:
147,198,29606,1,2,0:0:0:0:
256,190,29799,1,0,0:0:0:0:
366,183,29993,1,0,0:0:0:0:
151,193,30187,6,0,L|143:73,1,110,2|0,0:0|0:0,0:0:0:0:
272,35,30575,1,0,0:0:0:0:
452,205,30768,1,2,0:0:0:0:
342,197,30961,1,0,0:0:0:0:
233,190,31155,1,0,0:0:0:0:
396,264,31348,2,0,L|246:292,1,146.666666666667,2|0,0:0|0:0,0:0:0:0:
447,336,31929,1,0,0:0:0:0:
149,300,32122,6,0,P|136:183|251:123,1,220,2|0,0:0|0:0,0:0:0:0:
329,123,32703,1,2,0:0:0:0:
123,122,33090,2,0,L|8:122,2,110
261,178,33671,6,0,L|376:178,1,110,2|2,0:0|0:0,0:0:0:0:
196,107,34058,1,0,0:0:0:0:
477,230,34251,2,0,P|475:123|373:76,1,220,2|0,0:0|0:0,0:0:0:0:
261,77,34832,2,0,L|386:72,1,110,0|0,0:0|0:0,0:0:0:0:
106,340,35219,6,0,L|97:226,1,110,2|0,0:0|0:0,0:0:0:0:
232,247,35606,2,0,L|346:238,2,110,0|2|0,0:0|0:0|0:0,0:0:0:0:
96,267,36187,1,0,0:0:0:0:
243,294,36380,2,0,L|366:284,1,110,2|0,0:0|0:0,0:0:0:0:
92,193,36767,6,0,L|93:59,1,110,2|0,0:0|0:0,0:0:0:0:
260,149,37154,2,0,L|383:140,1,110
222,54,37542,2,0,L|220:171,1,110,2|0,0:0|0:0,0:0:0:0:
367,243,37929,2,0,L|367:113,1,110,2|0,0:0|0:0,0:0:0:0:
77,306,38316,5,2,0:0:0:0:
221,358,38509,2,0,L|226:237,1,110,0|0,0:0|0:0,0:0:0:0:
100,202,38896,2,0,L|359:175,1,220,2|0,0:0|0:0,0:0:0:0:
484,273,39477,2,0,L|365:258,1,110,0|0,0:0|0:0,0:0:0:0:
108,320,39864,6,0,L|-4:337,2,110,2|8|8,0:0|0:3|0:3,0:0:0:0:
407,66,40445,1,4,0:1:0:0:
213,195,40832,2,0,L|213:74,1,110,0|8,0:0|0:3,0:0:0:0:
339,46,41219,1,0,0:0:0:0:
86,312,41413,6,0,P|49:205|129:137,1,220,6|0,0:0|0:0,0:0:0:0:
239,143,41993,1,0,0:0:0:0:
373,201,42187,2,0,L|386:85,1,110,2|0,0:0|0:0,0:0:0:0:
95,344,42574,2,0,L|84:229,1,110,8|0,0:0|0:0,0:0:0:0:
407,303,42961,6,0,L|234:288,1,165,2|0,0:0|0:0,0:0:0:0:
467,178,43542,2,0,L|228:196,1,220,2|0,0:0|0:0,0:0:0:0:
83,109,44122,2,0,L|205:127,1,110,8|0,0:3|0:0,0:0:0:0:
451,55,44509,6,0,P|481:143|369:227,1,220,2|0,0:0|0:0,0:0:0:0:
269,226,45090,1,0,0:0:0:0:
413,331,45284,2,0,L|426:217,1,110,2|0,0:0|0:0,0:0:0:0:
141,154,45671,2,0,L|0:134,1,110,8|0,0:0|0:0,0:0:0:0:
356,77,46058,6,0,L|186:90,1,165,2|0,0:0|0:0,0:0:0:0:
409,284,46638,2,0,P|475:192|396:111,1,220,2|0,0:0|0:0,0:0:0:0:
259,107,47219,2,0,L|383:107,1,110,8|0,0:3|0:0,0:0:0:0:
107,338,47606,6,0,P|41:257|132:152,1,220,2|0,0:0|0:0,0:0:0:0:
216,142,48187,1,0,0:0:0:0:
93,102,48380,2,0,L|213:103,1,110,2|0,0:0|0:0,0:0:0:0:
478,96,48767,2,0,L|363:96,1,110,8|0,0:0|0:0,0:0:0:0:
81,320,49154,6,0,P|60:211|159:146,1,220,2|0,0:0|0:0,0:0:0:0:
253,158,49735,1,0,0:0:0:0:
123,87,49929,2,0,L|243:78,1,110
369,234,50316,2,0,L|485:222,1,110,10|0,0:0|0:0,0:0:0:0:
171,345,50703,6,0,L|147:224,1,110,2|0,0:0|0:0,0:0:0:0:
300,254,51090,2,0,L|314:123,1,110,0|0,0:0|0:0,0:0:0:0:
162,208,51477,2,0,P|73:172|87:27,1,220,2|8,0:0|0:0,0:0:0:0:
186,21,52058,1,0,0:0:0:0:
469,85,52251,6,0,P|504:171|392:260,1,220,2|0,0:0|0:0,0:0:0:0:
300,251,52832,1,2,0:0:0:0:
432,259,53025,2,0,L|316:260,1,110,2|0,0:0|0:0,0:0:0:0:
68,326,53413,1,8,0:0:0:0:
67,271,53509,1,0,0:0:0:0:
66,216,53606,1,8,0:3:0:0:
362,227,53800,6,0,P|426:149|324:79,1,220,6|0,0:0|0:0,0:0:0:0:
231,74,54380,1,0,0:0:0:0:
356,73,54574,2,0,L|474:73,1,110,2|0,0:0|0:0,0:0:0:0:
198,178,54961,2,0,L|66:178,1,110,8|0,0:0|0:0,0:0:0:0:
353,334,55348,6,0,P|439:273|421:192,1,165,2|0,0:0|0:0,0:0:0:0:
244,193,55929,2,0,L|472:194,1,220,2|0,0:0|0:0,0:0:0:0:
347,102,56509,2,0,L|471:102,1,110,8|0,0:3|0:0,0:0:0:0:
194,323,56896,6,0,P|114:278|146:135,1,220,2|0,0:0|0:0,0:0:0:0:
232,131,57477,1,0,0:0:0:0:
353,108,57671,2,0,P|445:79|516:58,2,165,2|0|0,0:0|0:0|0:0,0:0:0:0:
61,338,58445,6,0,P|25:236|110:160,1,220,2|0,0:0|0:0,0:0:0:0:
218,158,59025,1,2,0:0:0:0:
101,122,59219,2,0,L|221:122,1,110,0|0,0:0|0:0,0:0:0:0:
488,197,59606,2,0,L|367:177,1,110,8|0,0:3|0:0,0:0:0:0:
75,217,59993,6,0,L|64:89,1,110,6|0,0:0|0:0,0:0:0:0:
207,141,60380,2,0,L|344:127,1,110,0|0,0:0|0:0,0:0:0:0:
168,259,60767,2,0,L|157:142,1,110,2|0,0:0|0:0,0:0:0:0:
456,348,61154,2,0,L|464:222,1,110,8|0,0:0|0:0,0:0:0:0:
186,343,61542,6,0,L|185:206,1,110,2|0,0:0|0:0,0:0:0:0:
305,199,61929,2,0,L|421:179,1,110,0|0,0:0|0:0,0:0:0:0:
231,134,62316,2,0,L|103:113,1,110,2|0,0:0|0:0,0:0:0:0:
417,34,62703,2,0,L|420:146,1,110,8|0,0:0|0:0,0:0:0:0:
159,203,63090,6,0,L|11:222,2,110,2|0|8,0:0|0:0|0:0,0:0:0:0:
462,301,63671,1,0,0:0:0:0:
100,73,63864,2,0,L|306:101,2,165,6|2|2,0:0|0:0|0:0,0:0:0:0:
392,174,64638,6,0,L|402:48,1,110,8|8,0:0|0:0,0:0:0:0:
49,240,65025,1,8,0:0:0:0:
298,333,65413,1,8,0:0:0:0:
338,298,65509,1,0,0:0:0:0:
334,245,65606,1,0,0:0:0:0:
290,216,65703,1,0,0:0:0:0:
116,212,65800,2,0,L|55:213,1,55,8|0,0:0|0:0,0:0:0:0:
288,172,65993,2,0,L|357:172,1,55,8|0,0:3|0:0,0:0:0:0:
145,30,66187,5,12,0:0:0:0:
42,82,66380,1,0,0:0:0:0:
41,197,66574,1,8,0:0:0:0:
142,252,66767,1,0,0:0:0:0:
273,256,66961,2,0,L|395:256,1,121.000003692627,8|0,0:0|0:0,0:0:0:0:
219,194,67348,2,0,L|92:194,1,121.000003692627,8|0,0:0|0:0,0:0:0:0:
469,342,67735,6,0,L|475:210,1,121.000003692627,8|0,0:0|0:0,0:0:0:0:
334,176,68122,2,0,L|457:158,1,121.000003692627,8|0,0:0|0:0,0:0:0:0:
314,270,68509,2,0,L|177:249,1,121.000003692627,8|0,0:0|0:0,0:0:0:0:
50,354,68896,2,0,L|191:339,1,121.000003692627,8|0,0:0|0:0,0:0:0:0:
428,344,69284,6,0,L|405:225,1,121.000003692627,8|0,0:0|0:0,0:0:0:0:
239,207,69671,2,0,L|214:83,1,121.000003692627,8|0,0:0|0:0,0:0:0:0:
355,114,70058,2,0,L|489:96,1,121.000003692627,8|0,0:0|0:0,0:0:0:0:
162,60,70445,2,0,L|34:75,1,121.000003692627,8|0,0:0|0:0,0:0:0:0:
347,204,70832,6,0,L|474:228,2,121.000003692627,8|0|8,0:0|0:0|0:0,0:0:0:0:
85,330,71413,2,0,L|340:288,1,242.000007385254,0|0,0:0|0:0,0:0:0:0:
152,156,71993,1,8,0:0:0:0:
152,216,72089,1,0,0:0:0:0:
152,276,72186,1,8,0:3:0:0:
487,206,72380,6,0,L|489:71,1,121.000003692627,12|0,0:0|0:0,0:0:0:0:
360,111,72767,2,0,L|238:93,1,121.000003692627,8|0,0:0|0:0,0:0:0:0:
112,252,73154,2,0,L|263:233,1,121.000003692627,8|0,0:0|0:0,0:0:0:0:
405,337,73542,2,0,L|409:215,1,121.000003692627,8|0,0:0|0:0,0:0:0:0:
139,257,73929,6,0,L|13:281,2,121.000003692627,8|0|8,0:0|0:0|0:0,0:0:0:0:
281,333,74509,2,0,L|291:263,2,60.5000018463135,0|0|8,0:0|0:0|0:0,0:0:0:0:
131,226,74896,1,0,0:0:0:0:
290,188,75090,2,0,L|433:208,1,121.000003692627,8|0,0:0|0:0,0:0:0:0:
147,25,75477,5,12,0:0:0:0:
46,82,75670,1,0,0:0:0:0:
39,198,75864,1,8,0:0:0:0:
133,267,76057,1,0,0:0:0:0:
441,305,76251,2,0,L|314:304,1,121.000003692627,8|0,0:0|0:0,0:0:0:0:
166,299,76638,2,0,L|326:300,1,121.000003692627,8|2,0:0|0:0,0:0:0:0:
445,222,77025,5,0,0:0:0:0:
90,181,77219,2,0,L|85:52,1,121.000003692627,0|12,0:0|0:0,0:0:0:0:
240,111,77606,2,0,L|315:99,1,60.5000018463135,0|0,0:0|0:0,0:0:0:0:
106,326,77800,1,8,0:0:0:0:
53,300,77896,1,0,0:0:0:0:
37,244,77993,1,8,0:3:0:0:
71,196,78090,1,0,0:0:0:0:
250,162,78187,2,0,L|323:171,1,60.5000018463135,8|0,0:0|0:0,0:0:0:0:
131,62,78380,2,0,L|54:75,1,60.5000018463135,8|0,0:3|0:0,0:0:0:0:
311,303,78574,5,12,0:0:0:0:
410,244,78767,1,0,0:0:0:0:
411,129,78961,1,8,0:0:0:0:
312,69,79154,1,0,0:0:0:0:
179,28,79348,2,0,L|181:159,1,121.000003692627,8|0,0:0|0:0,0:0:0:0:
325,167,79735,2,0,L|324:293,1,121.000003692627,8|0,0:0|0:0,0:0:0:0:
53,343,80122,6,0,P|23:239|141:158,1,242.000007385254,8|8,0:0|0:0,0:0:0:0:
254,177,80703,1,0,0:0:0:0:
126,271,80896,2,0,L|117:147,1,121.000003692627,8|0,0:0|0:0,0:0:0:0:
269,172,81284,2,0,L|411:158,1,121.000003692627,8|0,0:0|0:0,0:0:0:0:
122,38,81671,6,0,L|120:180,1,121.000003692627,12|0,0:0|0:0,0:0:0:0:
280,200,82058,2,0,L|404:225,1,121.000003692627,8|0,0:0|0:0,0:0:0:0:
63,347,82445,2,0,L|45:218,1,121.000003692627,10|0,0:0|0:0,0:0:0:0:
362,152,82832,2,0,L|498:119,1,121.000003692627,8|0,0:0|0:0,0:0:0:0:
184,40,83219,6,0,L|186:174,1,121.000003692627,8|2,0:0|0:0,0:0:0:0:
483,275,83606,1,8,0:0:0:0:
137,331,83800,2,0,P|69:251|184:152,1,242.000007385254,4|0,0:0|0:0,0:0:0:0:
289,145,84380,2,0,L|350:144,1,60.5000018463135,8|0,0:0|0:0,0:0:0:0:
174,70,84574,2,0,L|103:70,1,60.5000018463135,8|0,0:3|0:0,0:0:0:0:
344,47,84767,6,0,L|508:47,2,121.000003692627,8|0|8,0:0|0:0|0:0,0:0:0:0:
224,115,85348,2,0,L|122:115,1,60.5000018463135,0|0,0:0|0:0,0:0:0:0:
386,303,85542,1,2,0:0:0:0:
485,245,85735,1,0,0:0:0:0:
489,186,85832,1,0,0:0:0:0:
481,130,85929,1,8,0:0:0:0:
378,81,86122,1,8,0:3:0:0:
125,37,86316,6,0,P|43:116|161:201,1,242.000007385254,4|0,0:0|0:0,0:0:0:0:
319,271,87090,1,0,0:0:0:0:
174,322,87284,1,8,0:3:0:0:
170,261,87380,1,0,0:0:0:0:
167,201,87477,1,8,0:3:0:0:
319,271,87671,1,8,0:3:0:0:
35,134,87864,5,4,0:0:0:0:
256,192,88058,12,0,90187,0:0:0:0:
