osu file format v14

[General]
AudioFilename: audio.mp3
AudioLeadIn: 0
PreviewTime: 65316
Countdown: 0
SampleSet: Soft
StackLeniency: 0.7
Mode: 2
LetterboxInBreaks: 0
WidescreenStoryboard: 0

[Editor]
DistanceSpacing: 1
BeatDivisor: 4
GridSize: 32
TimelineZoom: 1

[Metadata]
Title:Nanairo Symphony (TV Size)
TitleUnicode:七色シンフォニー (TV Size)
Artist:Coalamode.
ArtistUnicode:コアラモード.
Creator:Ascendance
Version:Salad
Source:四月は君の嘘
Tags:shigatsu wa kimi no uso your lie in april opening ajamez
BeatmapID:1741871
BeatmapSetID:831389

[Difficulty]
HPDrainRate:4
CircleSize:3
OverallDifficulty:7
ApproachRate:7
SliderMultiplier:1.6
SliderTickRate:1

[Events]
//Background and Video events
0,0,"cropped-1920-1080-629527.jpg",0,0
//Break Periods
//Storyboard Layer 0 (Background)
//Storyboard Layer 1 (Fail)
//Storyboard Layer 2 (Pass)
//Storyboard Layer 3 (Foreground)
//Storyboard Sound Samples

[TimingPoints]
1155,387.096774193548,4,2,1,50,1,0
1155,-100,4,2,1,50,0,0
15284,-100,4,2,1,60,0,0
16638,-100,4,2,1,50,0,0
41413,-100,4,2,1,60,0,0
59993,-100,4,2,1,65,0,0
66187,-100,4,2,1,70,0,1
87284,-100,4,2,1,60,0,1
87864,-100,4,2,1,70,0,0
87961,-100,4,2,1,50,0,0
88638,-100,4,2,1,30,0,0
89413,-100,4,2,1,10,0,0
89800,-100,4,2,1,5,0,0

[Colours]
Combo1 : 158,65,252
Combo2 : 131,173,253
Combo3 : 255,158,62
Combo4 : 255,255,164

[HitObjects]
126,335,1155,6,0,P|81:296|103:185,1,160,2|0,0:0|0:0,0:0:0:0:
181,169,1735,2,0,L|350:186,2,160,2|0|2,0:0|0:0|0:0,0:0:0:0:
443,262,3284,2,0,P|486:199|414:124,1,160,2|0,0:0|0:0,0:0:0:0:
362,108,3864,1,0,0:0:0:0:
191,40,4058,6,0,P|83:142|197:244,1,320,2|0,0:0|0:0,0:0:0:0:
269,246,5025,2,0,L|421:246,2,120,2|0|0,0:0|0:0|0:0,0:0:0:0:
81,251,5800,2,0,L|-21:252,2,80,2|2|2,0:0|0:0|0:0,0:0:0:0:
260,249,6574,2,0,L|407:248,2,120,0|0|0,0:0|0:0|0:0,0:0:0:0:
57,303,7348,6,0,P|44:228|105:164,1,160,2|0,0:0|0:0,0:0:0:0:
262,130,8122,2,0,L|421:143,1,160,2|0,0:0|0:0,0:0:0:0:
240,35,8896,2,0,P|164:65|11:14,2,240,2|2|0,0:0|0:0|0:0,0:0:0:0:
400,56,10445,6,0,P|446:114|439:201,1,160,2|0,0:0|0:0,0:0:0:0:
261,302,11219,2,0,P|345:284|437:282,1,160,2|0,0:0|0:0,0:0:0:0:
195,235,11993,2,0,P|94:221|9:108,2,240,2|0|0,0:0|0:0|0:0,0:0:0:0:
290,212,13348,1,0,0:0:0:0:
107,127,13542,5,2,0:0:0:0:
292,69,14122,1,2,0:0:0:0:
184,111,14316,2,0,L|53:97,2,120,2|0|0,0:0|0:0|0:0,0:0:0:0:
384,98,15284,1,0,0:0:0:0:
211,244,15477,6,0,L|197:154,1,80,12|0,0:0|0:0,0:0:0:0:
398,354,15864,2,0,P|467:272|361:178,1,240,6|0,0:0|0:0,0:0:0:0:
195,225,16638,6,0,P|133:181|142:72,1,160,6|0,0:0|0:0,0:0:0:0:
233,57,17219,1,2,0:0:0:0:
440,52,17800,1,0,0:0:0:0:
227,43,18187,2,0,L|64:44,1,160,2|0,0:0|0:0,0:0:0:0:
147,79,18767,1,2,0:0:0:0:
312,82,19348,1,0,0:0:0:0:
58,318,19735,6,0,P|57:252|153:183,1,160,2|0,0:0|0:0,0:0:0:0:
230,181,20316,1,2,0:0:0:0:
456,221,20896,1,0,0:0:0:0:
237,333,21284,6,0,L|218:238,1,80,2|2,0:0|0:0,0:0:0:0:
320,218,21671,2,0,L|337:132,1,80,0|2,0:0|0:0,0:0:0:0:
164,121,22251,2,0,L|76:110,2,80,0|0|0,0:0|0:0|0:0,0:0:0:0:
341,34,22832,6,0,P|398:69|380:179,1,160,2|0,0:0|0:0,0:0:0:0:
312,201,23413,1,2,0:0:0:0:
114,209,23993,1,0,0:0:0:0:
338,252,24380,2,0,L|510:253,1,160,2|0,0:0|0:0,0:0:0:0:
411,221,24961,1,2,0:0:0:0:
172,222,25542,1,0,0:0:0:0:
18,223,25929,6,0,L|197:223,1,160,2|0,0:0|0:0,0:0:0:0:
278,222,26509,1,2,0:0:0:0:
121,128,27090,1,0,0:0:0:0:
277,132,27477,5,2,0:0:0:0:
171,223,27671,2,0,L|165:132,1,80,2|0,0:0|0:0,0:0:0:0:
342,52,28058,2,0,P|402:97|383:202,1,160,2|0,0:0|0:0,0:0:0:0:
306,210,28638,1,0,0:0:0:0:
101,305,29025,6,0,P|52:257|95:156,1,160,6|0,0:0|0:0,0:0:0:0:
183,146,29606,2,0,P|232:98|189:-3,1,160,2|0,0:0|0:0,0:0:0:0:
101,305,30187,2,0,P|52:257|95:156,1,160,2|0,0:0|0:0,0:0:0:0:
183,146,30768,2,0,P|232:98|189:-3,1,160,2|0,0:0|0:0,0:0:0:0:
121,2,31348,2,0,L|9:10,1,106.666666666667,2|0,0:0|0:0,0:0:0:0:
119,31,31929,1,0,0:0:0:0:
340,29,32122,6,0,L|499:29,1,160,2|0,0:0|0:0,0:0:0:0:
427,63,32703,1,2,0:0:0:0:
221,61,33284,1,0,0:0:0:0:
405,117,33671,6,0,L|497:116,2,80,2|2|0,0:0|0:0|0:0,0:0:0:0:
206,180,34251,2,0,L|33:179,2,160,2|0|0,0:0|0:0|0:0,0:0:0:0:
358,261,35219,6,0,P|408:198|362:109,1,160,2|0,0:0|0:0,0:0:0:0:
299,103,35800,1,2,0:0:0:0:
110,105,36380,1,2,0:0:0:0:
307,276,36767,2,0,P|317:184|247:122,1,160,2|0,0:0|0:0,0:0:0:0:
166,115,37348,1,0,0:0:0:0:
417,113,37929,1,2,0:0:0:0:
102,37,38316,6,0,P|41:87|65:191,1,160,2|0,0:0|0:0,0:0:0:0:
144,200,38896,1,2,0:0:0:0:
331,246,39477,2,0,L|424:246,1,80,0|0,0:0|0:0,0:0:0:0:
263,176,39864,6,0,L|159:175,2,80,2|8|8,0:0|0:3|0:3,0:0:0:0:
446,101,40445,1,4,0:1:0:0:
285,303,40832,2,0,L|277:214,1,80,0|8,0:0|0:3,0:0:0:0:
376,173,41219,1,0,0:0:0:0:
188,248,41413,6,0,P|123:221|114:123,1,160,6|0,0:0|0:0,0:0:0:0:
206,105,41993,1,0,0:0:0:0:
311,101,42187,2,0,L|404:101,1,80,2|0,0:0|0:0,0:0:0:0:
193,14,42574,1,8,0:0:0:0:
39,72,42961,6,0,P|34:152|116:203,1,160,2|0,0:0|0:0,0:0:0:0:
182,197,43542,1,2,0:0:0:0:
342,198,43929,2,0,L|426:198,1,80,0|8,0:0|0:3,0:0:0:0:
202,317,44509,6,0,P|164:283|199:179,1,160,2|0,0:0|0:0,0:0:0:0:
293,174,45090,2,0,L|380:173,2,80,0|2|0,0:0|0:0|0:0,0:0:0:0:
109,174,45671,1,8,0:0:0:0:
265,211,46058,6,0,L|405:213,1,120,2|0,0:0|0:0,0:0:0:0:
222,106,46638,2,0,P|166:141|164:238,1,160,2|0,0:0|0:0,0:0:0:0:
269,271,47219,2,0,L|351:271,1,80,8|0,0:3|0:0,0:0:0:0:
193,329,47606,6,0,L|15:328,1,160,2|0,0:0|0:0,0:0:0:0:
115,297,48187,1,0,0:0:0:0:
223,306,48380,2,0,L|235:220,1,80,2|0,0:0|0:0,0:0:0:0:
46,184,48767,1,8,0:0:0:0:
154,70,49154,6,0,L|342:42,2,160,2|0|2,0:0|0:0|0:0,0:0:0:0:
288,133,50316,2,0,L|384:151,1,80,10|0,0:0|0:0,0:0:0:0:
262,46,50703,6,0,L|98:62,1,160,2|0,0:0|0:0,0:0:0:0:
207,115,51284,1,0,0:0:0:0:
113,188,51477,2,0,L|102:105,1,80,2|0,0:0|0:0,0:0:0:0:
281,45,51864,1,8,0:0:0:0:
486,92,52251,6,0,P|499:171|371:253,1,240,2|2,0:0|0:0,0:0:0:0:
270,316,53025,2,0,L|261:224,1,80,2|0,0:0|0:0,0:0:0:0:
377,208,53413,1,8,0:0:0:0:
373,168,53509,1,0,0:0:0:0:
370,128,53606,1,8,0:3:0:0:
178,185,53800,6,0,P|116:140|139:39,1,160,6|0,0:0|0:0,0:0:0:0:
222,36,54380,1,0,0:0:0:0:
109,32,54574,2,0,L|23:31,1,80,2|0,0:0|0:0,0:0:0:0:
224,19,54961,1,8,0:0:0:0:
372,51,55348,6,0,L|381:178,1,120,2|0,0:0|0:0,0:0:0:0:
230,218,55929,2,0,L|396:232,1,160,2|0,0:0|0:0,0:0:0:0:
484,243,56509,1,8,0:3:0:0:
286,313,56896,6,0,L|114:298,1,160,2|0,0:0|0:0,0:0:0:0:
222,267,57477,1,0,0:0:0:0:
335,263,57671,2,0,L|455:279,2,120,2|0|0,0:0|0:0|0:0,0:0:0:0:
131,342,58445,6,0,P|89:290|129:182,1,160,2|0,0:0|0:0,0:0:0:0:
315,180,59219,2,0,L|478:202,1,160,0|8,0:0|0:3,0:0:0:0:
122,294,59993,6,0,P|83:226|112:133,1,160,6|0,0:0|0:0,0:0:0:0:
245,121,60767,2,0,L|76:113,1,160,2|8,0:0|0:0,0:0:0:0:
242,200,61542,6,0,L|415:212,1,160,2|0,0:0|0:0,0:0:0:0:
236,252,62316,2,0,L|72:239,1,160,2|8,0:0|0:0,0:0:0:0:
424,327,63090,6,0,P|469:248|427:179,1,160,2|8,0:0|0:0,0:0:0:0:
269,116,63864,2,0,L|141:106,2,120,6|2|2,0:0|0:0|0:0,0:0:0:0:
401,63,64638,6,0,L|399:158,1,80,8|8,0:0|0:0,0:0:0:0:
205,205,65025,1,8,0:0:0:0:
356,263,65413,2,0,L|483:263,2,120,8|0|8,0:0|0:0|0:3,0:0:0:0:
171,340,66187,6,0,P|114:299|143:192,1,160,12|8,0:0|0:0,0:0:0:0:
308,182,66961,2,0,L|132:172,1,160,8|8,0:0|0:0,0:0:0:0:
476,243,67735,6,0,P|486:157|403:102,1,160,8|8,0:0|0:0,0:0:0:0:
358,103,68316,1,0,0:0:0:0:
276,103,68509,1,8,0:0:0:0:
452,44,68896,1,8,0:0:0:0:
163,244,69284,6,0,P|105:180|101:95,1,160,8|8,0:0|0:0,0:0:0:0:
213,201,70058,2,0,L|378:202,1,160,8|8,0:0|0:0,0:0:0:0:
51,344,70832,6,0,P|46:266|135:207,1,160,8|8,0:0|0:0,0:0:0:0:
160,207,71413,1,0,0:0:0:0:
225,207,71606,1,8,0:0:0:0:
63,133,71993,1,8,0:0:0:0:
346,79,72380,6,0,L|498:79,2,120,12|0|0,0:0|0:0|0:0,0:0:0:0:
217,82,73154,2,0,L|65:82,2,120,8|0|0,0:0|0:0|0:0,0:0:0:0:
411,217,73929,6,0,P|478:132|376:40,1,240,8|0,0:0|0:0,0:0:0:0:
293,35,74703,2,0,L|462:35,1,160,8|8,0:0|0:0,0:0:0:0:
77,262,75477,6,0,L|67:136,1,120,12|0,0:0|0:0,0:0:0:0:
218,81,76058,1,0,0:0:0:0:
340,255,76251,2,0,L|341:130,1,120,8|0,0:0|0:0,0:0:0:0:
218,81,76832,1,2,0:0:0:0:
114,83,77025,5,0,0:0:0:0:
293,77,77219,2,0,L|399:77,2,80,0|12|0,0:0|0:0|0:0,0:0:0:0:
190,76,77800,2,0,L|84:76,2,80,8|8|8,0:0|0:3|0:0,0:0:0:0:
293,77,78380,1,8,0:3:0:0:
465,79,78574,6,0,P|507:129|465:235,1,160,12|8,0:0|0:0,0:0:0:0:
318,253,79348,2,0,L|145:253,1,160,8|8,0:0|0:0,0:0:0:0:
426,313,80122,6,0,P|420:222|362:164,1,160,8|8,0:0|0:0,0:0:0:0:
269,151,80703,1,0,0:0:0:0:
162,139,80896,1,8,0:0:0:0:
326,64,81284,1,8,0:0:0:0:
24,264,81671,6,0,L|30:100,1,160,12|8,0:0|0:0,0:0:0:0:
350,160,82445,2,0,L|516:131,1,160,10|8,0:0|0:0,0:0:0:0:
171,74,83219,6,0,L|78:61,2,80,8|2|8,0:0|0:0|0:0,0:0:0:0:
343,16,83800,2,0,P|395:60|370:151,1,160,4|0,0:0|0:0,0:0:0:0:
275,168,84380,2,0,L|174:168,1,80,8|8,0:0|0:3,0:0:0:0:
413,314,84767,6,0,P|461:247|367:129,1,240,8|0,0:0|0:0,0:0:0:0:
267,202,85542,2,0,L|259:103,1,80,2|0,0:0|0:0,0:0:0:0:
374,35,85929,2,0,L|384:118,1,80,8|8,0:0|0:3,0:0:0:0:
179,136,86316,6,0,L|3:166,2,160,4|0|0,0:0|0:0|0:0,0:0:0:0:
314,177,87284,2,0,L|401:193,2,80,8|8|8,0:3|0:3|0:3,0:0:0:0:
111,288,87864,5,4,0:0:0:0:
256,192,88251,12,0,90187,0:0:0:0:
