osu file format v14

[General]
AudioFilename: audio.mp3
AudioLeadIn: 0
PreviewTime: 65316
Countdown: 0
SampleSet: Soft
StackLeniency: 0.7
Mode: 2
LetterboxInBreaks: 0
WidescreenStoryboard: 0

[Editor]
DistanceSpacing: 1
BeatDivisor: 4
GridSize: 32
TimelineZoom: 1.6

[Metadata]
Title:Nanairo Symphony (TV Size)
TitleUnicode:七色シンフォニー (TV Size)
Artist:Coalamode.
ArtistUnicode:コアラモード.
Creator:Ascendance
Version:Platter
Source:四月は君の嘘
Tags:shigatsu wa kimi no uso your lie in april opening ajamez
BeatmapID:1741780
BeatmapSetID:831389

[Difficulty]
HPDrainRate:5
CircleSize:3.5
OverallDifficulty:8
ApproachRate:8
SliderMultiplier:1.8
SliderTickRate:2

[Events]
//Background and Video events
0,0,"cropped-1920-1080-629527.jpg",0,0
//Break Periods
//Storyboard Layer 0 (Background)
//Storyboard Layer 1 (Fail)
//Storyboard Layer 2 (Pass)
//Storyboard Layer 3 (Foreground)
//Storyboard Sound Samples

[TimingPoints]
1155,387.096774193548,4,2,1,50,1,0
1155,-100,4,2,1,50,0,0
15284,-100,4,2,1,60,0,0
16638,-100,4,2,1,50,0,0
41413,-100,4,2,1,60,0,0
59993,-100,4,2,1,65,0,0
66187,-100,4,2,1,70,0,1
87284,-100,4,2,1,60,0,1
87864,-100,4,2,1,70,0,0
87961,-100,4,2,1,50,0,0
88638,-100,4,2,1,30,0,0
89413,-100,4,2,1,10,0,0
89800,-100,4,2,1,5,0,0

[Colours]
Combo1 : 158,65,252
Combo2 : 131,173,253
Combo3 : 255,158,62
Combo4 : 255,255,164

[HitObjects]
157,91,1155,6,0,L|54:106,2,90,2|0|0,0:0|0:0|0:0,0:0:0:0:
289,40,1735,2,0,L|472:63,1,180,2|0,0:0|0:0,0:0:0:0:
275,256,2509,2,0,P|181:189|241:61,1,270,2|0,0:0|0:0,0:0:0:0:
397,62,3284,6,0,L|186:35,1,180,2|0,0:0|0:0,0:0:0:0:
107,89,3864,1,0,0:0:0:0:
291,253,4058,6,0,P|371:191|266:79,1,270,2|0,0:0|0:0,0:0:0:0:
98,77,5025,2,0,L|248:78,2,135,2|0|0,0:0|0:0|0:0,0:0:0:0:
264,152,5800,6,0,L|365:152,1,90,2|2,0:0|0:0,0:0:0:0:
155,255,6187,1,2,0:0:0:0:
358,320,6574,2,0,L|506:321,2,135,0|0|0,0:0|0:0|0:0,0:0:0:0:
148,351,7348,6,0,P|97:286|174:216,1,180,2|0,0:0|0:0,0:0:0:0:
340,200,8122,2,0,L|145:201,1,180,2|0,0:0|0:0,0:0:0:0:
393,290,8896,2,0,P|472:195|445:137,1,180,2|0,0:0|0:0,0:0:0:0:
354,110,9477,1,2,0:0:0:0:
180,110,9864,1,0,0:0:0:0:
269,110,10057,1,0,0:0:0:0:
359,110,10251,1,0,0:0:0:0:
194,26,10445,6,0,P|108:73|125:176,1,180,2|0,0:0|0:0,0:0:0:0:
308,239,11219,2,0,L|117:239,1,180,2|0,0:0|0:0,0:0:0:0:
397,346,11993,6,0,P|456:271|416:194,1,180,2|0,0:0|0:0,0:0:0:0:
314,179,12574,1,0,0:0:0:0:
111,180,12961,2,0,L|6:180,2,90,0|0|0,0:0|0:0|0:0,0:0:0:0:
387,264,13542,6,0,P|466:173|355:86,1,270,2|2,0:0|0:0,0:0:0:0:
242,90,14316,2,0,L|87:106,2,135,2|0|0,0:0|0:0|0:0,0:0:0:0:
57,26,15284,1,0,0:0:0:0:
338,99,15477,2,0,L|341:203,1,90,12|0,0:0|0:0,0:0:0:0:
226,237,15864,1,6,0:0:0:0:
122,285,16058,2,0,L|116:341,2,45,0|8|0,0:0|0:0|0:0,0:0:0:0:
226,237,16445,1,0,0:0:0:0:
492,322,16638,6,0,P|509:252|439:174,1,180,6|0,0:0|0:0,0:0:0:0:
355,130,17218,1,2,0:0:0:0:
244,105,17413,2,0,L|236:205,1,90,0|0,0:0|0:0,0:0:0:0:
381,211,17800,2,0,L|372:308,1,90,0|0,0:0|0:0,0:0:0:0:
189,319,18187,6,0,L|85:331,2,90,2|0|0,0:0|0:0|0:0,0:0:0:0:
301,351,18767,1,2,0:0:0:0:
365,287,18961,1,0,0:0:0:0:
385,199,19154,1,0,0:0:0:0:
336,123,19348,1,0,0:0:0:0:
252,88,19542,1,0,0:0:0:0:
119,103,19735,6,0,L|314:78,1,180,2|0,0:0|0:0,0:0:0:0:
410,147,20316,1,2,0:0:0:0:
218,256,20703,1,0,0:0:0:0:
331,321,20896,2,0,L|339:224,1,90,0|0,0:0|0:0,0:0:0:0:
191,340,21284,6,0,L|85:357,2,90,2|2|0,0:0|0:0|0:0,0:0:0:0:
328,369,21864,2,0,P|376:299|290:232,1,180,2|0,0:0|0:0,0:0:0:0:
193,228,22445,2,0,L|75:228,1,90,0|0,0:0|0:0,0:0:0:0:
372,210,22832,6,0,P|379:122|276:70,1,180,2|0,0:0|0:0,0:0:0:0:
166,89,23412,1,2,0:0:0:0:
131,169,23606,1,0,0:0:0:0:
166,250,23799,1,0,0:0:0:0:
266,291,23993,2,0,L|362:300,1,90,0|0,0:0|0:0,0:0:0:0:
191,212,24380,6,0,L|88:231,2,90,2|0|0,0:0|0:0|0:0,0:0:0:0:
299,276,24961,1,2,0:0:0:0:
416,282,25154,2,0,P|465:211|391:121,1,180,0|0,0:0|0:0,0:0:0:0:
320,114,25735,1,0,0:0:0:0:
131,58,25929,6,0,L|324:45,1,180,2|0,0:0|0:0,0:0:0:0:
189,187,26509,1,2,0:0:0:0:
350,187,26896,2,0,L|450:187,2,90,0|0|0,0:0|0:0|0:0,0:0:0:0:
175,183,27477,6,0,L|62:183,2,90,2|2|0,0:0|0:0|0:0,0:0:0:0:
342,300,28058,2,0,P|404:245|363:149,1,180,2|0,0:0|0:0,0:0:0:0:
230,130,28638,2,0,L|134:121,1,90,0|0,0:0|0:0,0:0:0:0:
410,209,29025,6,0,L|508:192,2,90,6|0|0,0:0|0:0|0:0,0:0:0:0:
253,292,29606,2,0,L|155:275,2,90,2|0|0,0:0|0:0|0:0,0:0:0:0:
412,362,30187,6,0,L|419:256,1,90,2|0,0:0|0:0,0:0:0:0:
288,228,30574,1,0,0:0:0:0:
450,226,30767,2,0,L|454:121,1,90,2|0,0:0|0:0,0:0:0:0:
331,84,31154,1,0,0:0:0:0:
186,60,31348,2,0,L|324:51,1,120,2|0,0:0|0:0,0:0:0:0:
121,9,31929,1,0,0:0:0:0:
407,281,32122,6,0,P|458:214|389:150,1,180,2|0,0:0|0:0,0:0:0:0:
303,147,32703,1,2,0:0:0:0:
101,150,33090,2,0,L|212:149,2,90,0|0|0,0:0|0:0|0:0,0:0:0:0:
186,225,33671,6,0,L|291:225,2,90,2|2|0,0:0|0:0|0:0,0:0:0:0:
461,280,34251,2,0,P|499:202|408:139,1,180,2|0,0:0|0:0,0:0:0:0:
312,142,34832,2,0,L|417:132,1,90,0|0,0:0|0:0,0:0:0:0:
109,335,35219,6,0,P|48:274|50:183,1,180,2|0,0:0|0:0,0:0:0:0:
135,131,35799,1,2,0:0:0:0:
280,242,35993,1,0,0:0:0:0:
346,185,36186,1,0,0:0:0:0:
343,98,36380,1,2,0:0:0:0:
274,46,36573,1,0,0:0:0:0:
89,37,36767,6,0,P|71:113|152:182,1,180,2|0,0:0|0:0,0:0:0:0:
253,177,37348,1,0,0:0:0:0:
145,313,37542,2,0,L|140:205,1,90,2|0,0:0|0:0,0:0:0:0:
291,300,37929,2,0,L|400:292,1,90,2|0,0:0|0:0,0:0:0:0:
103,349,38316,5,2,0:0:0:0:
7,285,38509,2,0,L|18:181,1,90,0|0,0:0|0:0,0:0:0:0:
182,231,38896,2,0,P|255:187|242:80,1,180,2|0,0:0|0:0,0:0:0:0:
137,66,39477,2,0,L|42:66,1,90,0|0,0:0|0:0,0:0:0:0:
306,129,39864,5,2,0:0:0:0:
396,129,40057,1,8,0:3:0:0:
486,129,40251,1,8,0:3:0:0:
222,67,40445,1,4,0:1:0:0:
37,93,40832,2,0,P|19:157|100:243,1,180,0|0,0:0|0:0,0:0:0:0:
355,333,41413,6,0,P|422:300|421:178,1,180,6|0,0:0|0:0,0:0:0:0:
331,174,41993,1,0,0:0:0:0:
446,160,42187,2,0,L|340:160,1,90,2|0,0:0|0:0,0:0:0:0:
96,242,42574,2,0,L|80:140,1,90,8|0,0:0|0:0,0:0:0:0:
225,136,42961,6,0,L|386:120,1,135,2|0,0:0|0:0,0:0:0:0:
151,29,43542,2,0,L|348:50,1,180,2|0,0:0|0:0,0:0:0:0:
441,127,44122,2,0,L|452:37,1,90,8|0,0:3|0:0,0:0:0:0:
255,82,44509,6,0,P|186:120|204:236,1,180,2|0,0:0|0:0,0:0:0:0:
299,260,45090,2,0,L|392:274,2,90,0|2|0,0:0|0:0|0:0,0:0:0:0:
37,342,45671,2,0,L|28:229,1,90,8|0,0:0|0:0,0:0:0:0:
163,195,46058,6,0,L|339:207,1,135,2|0,0:0|0:0,0:0:0:0:
465,101,46638,2,0,L|264:122,1,180,2|0,0:0|0:0,0:0:0:0:
168,76,47219,2,0,L|71:91,1,90,8|0,0:3|0:0,0:0:0:0:
274,160,47606,6,0,L|456:187,1,180,2|0,0:0|0:0,0:0:0:0:
332,217,48187,1,0,0:0:0:0:
436,316,48380,2,0,L|446:218,1,90,2|0,0:0|0:0,0:0:0:0:
175,174,48767,2,0,L|157:75,1,90,8|0,0:0|0:0,0:0:0:0:
282,97,49154,6,0,L|465:68,2,180,2|0|0,0:0|0:0|0:0,0:0:0:0:
117,157,50316,2,0,L|104:57,1,90,10|0,0:0|0:0,0:0:0:0:
235,141,50703,6,0,L|424:117,1,180,2|0,0:0|0:0,0:0:0:0:
217,72,51477,2,0,L|122:62,1,90,2|0,0:0|0:0,0:0:0:0:
274,172,51864,2,0,L|372:187,1,90,8|0,0:0|0:0,0:0:0:0:
93,334,52251,6,0,P|45:255|123:197,1,180,2|0,0:0|0:0,0:0:0:0:
205,199,52832,1,2,0:0:0:0:
321,209,53025,2,0,L|335:101,1,90,2|0,0:0|0:0,0:0:0:0:
196,93,53413,2,0,L|181:47,2,45,8|0|8,0:0|0:0|0:3,0:0:0:0:
479,209,53800,6,0,P|495:120|399:58,1,180,6|0,0:0|0:0,0:0:0:0:
323,60,54380,1,0,0:0:0:0:
216,181,54574,2,0,L|203:78,1,90,2|0,0:0|0:0,0:0:0:0:
464,354,54961,2,0,L|485:251,1,90,8|0,0:0|0:0,0:0:0:0:
329,261,55348,6,0,L|157:236,1,135,2|0,0:0|0:0,0:0:0:0:
357,110,55929,2,0,L|150:130,1,180,2|0,0:0|0:0,0:0:0:0:
309,212,56509,2,0,L|414:229,1,90,8|0,0:3|0:0,0:0:0:0:
210,307,56896,6,0,P|135:250|164:147,1,180,2|0,0:0|0:0,0:0:0:0:
249,126,57477,1,0,0:0:0:0:
373,118,57671,2,0,L|510:118,2,135,2|0|0,0:0|0:0|0:0,0:0:0:0:
105,41,58445,6,0,P|53:93|109:186,1,180,2|0,0:0|0:0,0:0:0:0:
326,260,59219,2,0,L|200:260,1,90,0|0,0:0|0:0,0:0:0:0:
115,258,59606,2,0,L|5:258,1,90,8|0,0:3|0:0,0:0:0:0:
322,349,59993,6,0,P|390:288|343:193,1,180,6|0,0:0|0:0,0:0:0:0:
257,187,60574,1,0,0:0:0:0:
153,185,60767,2,0,L|59:186,1,90,2|0,0:0|0:0,0:0:0:0:
341,114,61154,2,0,L|458:114,1,90,8|0,0:0|0:0,0:0:0:0:
279,47,61542,6,0,L|83:46,1,180,2|0,0:0|0:0,0:0:0:0:
184,76,62122,1,0,0:0:0:0:
294,120,62316,2,0,L|391:120,1,90,2|0,0:0|0:0,0:0:0:0:
127,212,62703,2,0,L|26:211,1,90,8|0,0:0|0:0,0:0:0:0:
333,336,63090,5,2,0:0:0:0:
417,310,63283,1,0,0:0:0:0:
461,234,63477,1,8,0:0:0:0:
443,148,63670,1,0,0:0:0:0:
160,55,63864,2,0,L|-13:72,2,135,6|2|2,0:0|0:0|0:0,0:0:0:0:
308,90,64638,6,0,L|415:82,1,90,8|8,0:0|0:0,0:0:0:0:
129,188,65025,1,8,0:0:0:0:
293,277,65413,5,8,0:0:0:0:
334,261,65509,1,0,0:0:0:0:
364,228,65606,1,0,0:0:0:0:
373,184,65703,1,0,0:0:0:0:
361,141,65800,1,8,0:0:0:0:
330,109,65896,1,0,0:0:0:0:
288,96,65993,1,8,0:3:0:0:
19,176,66187,6,0,L|24:76,1,90,12|0,0:0|0:0,0:0:0:0:
146,123,66574,2,0,L|257:111,1,90,8|0,0:0|0:0,0:0:0:0:
102,295,66961,2,0,P|48:227|121:147,1,180,8|8,0:0|0:0,0:0:0:0:
202,146,67542,1,0,0:0:0:0:
465,227,67735,6,0,P|504:155|417:85,1,180,8|8,0:0|0:0,0:0:0:0:
264,233,68316,2,0,P|225:161|312:91,1,180,0|0,0:0|0:0,0:0:0:0:
407,64,68896,2,0,L|407:167,1,90,8|0,0:0|0:0,0:0:0:0:
87,341,69284,6,0,P|26:284|86:179,1,180,8|8,0:0|0:0,0:0:0:0:
167,175,69864,1,0,0:0:0:0:
284,228,70058,2,0,L|297:126,1,90,8|0,0:0|0:0,0:0:0:0:
177,43,70445,2,0,L|166:138,1,90,8|0,0:0|0:0,0:0:0:0:
430,294,70832,6,0,P|465:197|386:145,1,180,8|8,0:0|0:0,0:0:0:0:
246,180,71413,2,0,P|202:130|268:35,1,180,0|0,0:0|0:0,0:0:0:0:
361,32,71993,2,0,L|448:33,2,45,8|0|8,0:0|0:0|0:3,0:0:0:0:
83,229,72380,6,0,P|27:179|72:73,1,180,12|8,0:0|0:0,0:0:0:0:
166,71,72961,1,0,0:0:0:0:
273,73,73154,2,0,L|370:73,1,90,8|0,0:0|0:0,0:0:0:0:
226,15,73542,2,0,L|114:15,1,90,8|0,0:0|0:0,0:0:0:0:
411,247,73929,6,0,P|471:181|410:91,1,180,8|8,0:0|0:0,0:0:0:0:
326,86,74509,1,0,0:0:0:0:
206,122,74703,2,0,P|205:210|283:278,1,180,8|8,0:0|0:0,0:0:0:0:
395,273,75284,1,0,0:0:0:0:
66,345,75477,6,0,L|52:245,1,90,12|0,0:0|0:0,0:0:0:0:
181,261,75864,2,0,L|268:226,1,90,8|0,0:0|0:0,0:0:0:0:
412,324,76251,2,0,L|308:308,1,90,8|0,0:0|0:0,0:0:0:0:
187,265,76638,2,0,L|87:248,1,90,8|2,0:0|0:0,0:0:0:0:
187,265,77025,5,0,0:0:0:0:
482,310,77219,2,0,L|491:209,1,90,0|12,0:0|0:0,0:0:0:0:
390,158,77606,1,0,0:0:0:0:
126,233,77800,1,8,0:0:0:0:
85,213,77896,1,0,0:0:0:0:
58,178,77993,1,8,0:3:0:0:
52,134,78090,1,0,0:0:0:0:
66,92,78187,1,8,0:0:0:0:
99,61,78283,1,0,0:0:0:0:
142,50,78380,1,8,0:3:0:0:
413,216,78574,6,0,P|455:150|391:77,1,180,12|8,0:0|0:0,0:0:0:0:
286,73,79154,1,0,0:0:0:0:
171,75,79348,2,0,L|276:73,1,90,8|0,0:0|0:0,0:0:0:0:
409,72,79735,2,0,L|312:72,1,90,8|0,0:0|0:0,0:0:0:0:
38,247,80122,6,0,P|27:161|106:97,1,180,8|8,0:0|0:0,0:0:0:0:
205,100,80703,1,0,0:0:0:0:
71,98,80896,2,0,L|271:97,1,180,8|8,0:0|0:0,0:0:0:0:
364,95,81477,1,0,0:0:0:0:
98,335,81671,6,0,L|108:224,1,90,12|0,0:0|0:0,0:0:0:0:
255,232,82058,2,0,L|276:140,1,90,8|0,0:0|0:0,0:0:0:0:
404,137,82445,2,0,L|501:115,1,90,10|0,0:0|0:0,0:0:0:0:
190,73,82832,2,0,L|82:59,1,90,8|0,0:0|0:0,0:0:0:0:
356,202,83219,6,0,L|462:179,2,90,8|2|8,0:0|0:0|0:0,0:0:0:0:
87,340,83800,2,0,P|35:272|109:189,1,180,4|0,0:0|0:0,0:0:0:0:
208,180,84380,1,8,0:0:0:0:
267,180,84476,1,0,0:0:0:0:
322,178,84573,1,8,0:3:0:0:
48,166,84767,6,0,L|57:50,1,90,8|0,0:0|0:0,0:0:0:0:
197,46,85154,1,8,0:0:0:0:
392,141,85348,1,0,0:0:0:0:
397,96,85444,1,0,0:0:0:0:
403,51,85541,1,2,0:0:0:0:
275,85,85735,2,0,L|178:96,1,90,0|8,0:0|0:0,0:0:0:0:
333,160,86122,1,8,0:3:0:0:
37,37,86316,6,0,P|16:110|96:201,1,180,4|0,0:0|0:0,0:0:0:0:
345,235,87090,2,0,L|154:255,1,180,0|8,0:0|0:3,0:0:0:0:
69,192,87671,1,8,0:3:0:0:
394,334,87864,5,4,0:0:0:0:
256,192,88058,12,0,90187,0:0:0:0:
