osu file format v14

[General]
AudioFilename: audio.mp3
AudioLeadIn: 0
PreviewTime: 65316
Countdown: 0
SampleSet: Soft
StackLeniency: 0.7
Mode: 2
LetterboxInBreaks: 0
WidescreenStoryboard: 0

[Editor]
DistanceSpacing: 1
BeatDivisor: 4
GridSize: 32
TimelineZoom: 1

[Metadata]
Title:Nanairo Symphony (TV Size)
TitleUnicode:七色シンフォニー (TV Size)
Artist:Coalamode.
ArtistUnicode:コアラモード.
Creator:Ascendance
Version:AJamez's Cup
Source:四月は君の嘘
Tags:shigatsu wa kimi no uso your lie in april opening ajamez
BeatmapID:1741779
BeatmapSetID:831389

[Difficulty]
HPDrainRate:3
CircleSize:2.5
OverallDifficulty:6
ApproachRate:6
SliderMultiplier:1.4
SliderTickRate:1

[Events]
//Background and Video events
0,0,"cropped-1920-1080-629527.jpg",0,0
//Break Periods
//Storyboard Layer 0 (Background)
//Storyboard Layer 1 (Fail)
//Storyboard Layer 2 (Pass)
//Storyboard Layer 3 (Foreground)
//Storyboard Sound Samples

[TimingPoints]
1155,387.096774193548,4,2,1,50,1,0
1155,-100,4,2,1,50,0,0
15284,-100,4,2,1,60,0,0
16638,-100,4,2,1,50,0,0
41413,-100,4,2,1,60,0,0
59993,-100,4,2,1,65,0,0
66187,-100,4,2,1,70,0,1
87284,-100,4,2,1,60,0,1
87864,-100,4,2,1,70,0,0
87961,-100,4,2,1,50,0,0
88638,-100,4,2,1,30,0,0
89413,-100,4,2,1,10,0,0
89800,-100,4,2,1,5,0,0

[Colours]
Combo1 : 158,65,252
Combo2 : 131,173,253
Combo3 : 255,158,62
Combo4 : 255,255,164

[HitObjects]
109,343,1155,6,0,P|90:263|207:220,1,210,2|2,0:0|0:0,0:0:0:0:
315,193,2122,1,0,0:0:0:0:
453,181,2509,2,0,P|430:126|289:81,1,210,2|0,0:0|0:0,0:0:0:0:
220,93,3284,6,0,L|384:44,1,140,2|0,0:0|0:0,0:0:0:0:
188,211,4058,2,0,P|89:214|159:377,1,350,2|2,0:0|0:0,0:0:0:0:
277,345,5316,1,0,0:0:0:0:
152,292,5606,1,0,0:0:0:0:
74,263,5800,6,0,P|99:211|175:157,1,140,2|2,0:0|0:0,0:0:0:0:
317,114,6574,2,0,P|249:90|193:77,2,105,0|0|0,0:0|0:0|0:0,0:0:0:0:
408,160,7348,6,0,P|401:208|207:284,1,280,2|2,0:0|0:0,0:0:0:0:
350,307,8509,1,0,0:0:0:0:
497,271,8896,2,0,P|459:214|381:181,1,140,2|0,0:0|0:0,0:0:0:0:
314,190,9477,2,0,L|300:40,1,140,2|0,0:0|0:0,0:0:0:0:
382,35,10058,1,0,0:0:0:0:
214,181,10445,6,0,P|157:164|46:160,1,140,2|0,0:0|0:0,0:0:0:0:
205,264,11219,2,0,P|265:273|354:252,1,140,2|0,0:0|0:0,0:0:0:0:
182,97,11993,2,0,P|140:132|147:225,1,140,2|0,0:0|0:0,0:0:0:0:
222,228,12574,2,0,P|265:273|124:357,1,280,0|0,0:0|0:0,0:0:0:0:
59,343,13542,6,0,P|44:296|126:157,1,210,2|2,0:0|0:0,0:0:0:0:
193,148,14316,1,2,0:0:0:0:
301,137,14606,1,0,0:0:0:0:
409,147,14896,1,0,0:0:0:0:
247,319,15284,5,0,0:0:0:0:
164,260,15477,2,0,P|221:233|314:233,1,140,12|6,0:0|0:0,0:0:0:0:
426,263,16251,1,0,0:0:0:0:
280,88,16638,6,0,P|172:78|117:82,1,140,6|0,0:0|0:0,0:0:0:0:
264,211,17219,2,0,P|372:221|427:217,1,140,2|0,0:0|0:0,0:0:0:0:
422,300,17800,1,0,0:0:0:0:
269,326,18187,2,0,P|196:301|109:309,1,140,2|0,0:0|0:0,0:0:0:0:
211,351,18767,2,0,P|319:343|365:328,1,140,2|0,0:0|0:0,0:0:0:0:
410,306,19348,1,0,0:0:0:0:
245,201,19735,6,0,P|189:181|82:175,1,140,2|0,0:0|0:0,0:0:0:0:
41,256,20316,2,0,P|86:284|187:288,1,140,2|0,0:0|0:0,0:0:0:0:
235,278,20896,1,0,0:0:0:0:
393,253,21284,2,0,P|412:183|375:125,1,140,2|0,0:0|0:0,0:0:0:0:
305,99,21864,2,0,P|271:80|165:63,1,140,2|0,0:0|0:0,0:0:0:0:
173,120,22445,1,0,0:0:0:0:
327,197,22832,6,0,P|295:271|238:289,1,140,2|0,0:0|0:0,0:0:0:0:
168,301,23413,2,0,P|172:204|198:165,1,140,2|0,0:0|0:0,0:0:0:0:
268,153,23993,1,0,0:0:0:0:
111,79,24380,2,0,P|69:103|56:216,1,140,2|0,0:0|0:0,0:0:0:0:
115,240,24961,2,0,P|163:260|262:235,1,140,2|0,0:0|0:0,0:0:0:0:
316,231,25542,1,0,0:0:0:0:
167,136,25929,6,0,P|210:113|305:93,1,140,2|0,0:0|0:0,0:0:0:0:
370,104,26509,2,0,P|330:82|231:60,1,140,2|0,0:0|0:0,0:0:0:0:
165,76,27090,1,0,0:0:0:0:
316,231,27477,2,0,L|298:305,1,70,2|2,0:0|0:0,0:0:0:0:
141,343,28058,2,0,P|216:341|295:361,1,140,2|0,0:0|0:0,0:0:0:0:
340,353,28638,1,0,0:0:0:0:
486,231,29025,6,0,P|400:175|286:126,2,210,6|2|2,0:0|0:0|0:0,0:0:0:0:
343,251,30574,2,0,P|294:268|126:353,2,210
187,299,32122,6,0,P|126:266|40:247,1,140,2|0,0:0|0:0,0:0:0:0:
135,236,32703,2,0,P|123:115|93:91,1,140,2|0,0:0|0:0,0:0:0:0:
41,93,33284,1,0,0:0:0:0:
196,61,33671,2,0,L|272:72,2,70,2|2|0,0:0|0:0|0:0,0:0:0:0:
115,107,34251,2,0,P|135:152|281:207,1,210,2|0,0:0|0:0,0:0:0:0:
441,309,35219,6,0,P|463:268|435:162,1,140,2|0,0:0|0:0,0:0:0:0:
361,158,35800,2,0,P|340:93|404:46,1,140,2|0,0:0|0:0,0:0:0:0:
463,36,36380,1,2,0:0:0:0:
307,156,36767,2,0,P|258:139|163:120,1,140,2|0,0:0|0:0,0:0:0:0:
244,228,37348,2,0,P|321:241|394:213,1,140,0|0,0:0|0:0,0:0:0:0:
307,156,37929,1,2,0:0:0:0:
139,198,38316,6,0,P|177:158|268:131,1,140,2|0,0:0|0:0,0:0:0:0:
321,124,38896,1,2,0:0:0:0:
123,70,39477,2,0,L|113:160,1,70,0|0,0:0|0:0,0:0:0:0:
180,159,39864,5,2,0:0:0:0:
48,280,40251,1,8,0:3:0:0:
112,300,40445,1,4,0:1:0:0:
232,354,40832,2,0,L|309:341,1,70,0|8,0:0|0:3,0:0:0:0:
418,276,41413,6,0,P|426:206|310:141,1,210,6|0,0:0|0:0,0:0:0:0:
219,110,42187,2,0,P|259:63|357:63,1,140,2|8,0:0|0:0,0:0:0:0:
477,180,42961,6,0,P|440:226|374:255,1,105,2|0,0:0|0:0,0:0:0:0:
281,283,43542,1,2,0:0:0:0:
154,278,43929,1,0,0:0:0:0:
189,218,44122,1,8,0:3:0:0:
248,174,44316,1,0,0:0:0:0:
321,158,44509,6,0,P|276:108|129:60,1,210,2|0,0:0|0:0,0:0:0:0:
208,33,45284,2,0,P|291:11|358:11,1,140,2|8,0:0|0:0,0:0:0:0:
188,169,46058,6,0,P|108:144|61:141,2,105,2|0|2,0:0|0:0|0:0,0:0:0:0:
331,265,47025,2,0,P|338:299|321:344,1,70,0|8,0:0|0:3,0:0:0:0:
161,345,47606,6,0,P|64:275|105:195,1,210,2|0,0:0|0:0,0:0:0:0:
159,181,48380,2,0,L|322:158,1,140,2|8,0:0|0:0,0:0:0:0:
131,72,49154,6,0,P|90:82|72:184,1,140,2|0,0:0|0:0,0:0:0:0:
209,279,49929,2,0,P|148:287|66:331,1,140,0|10,0:0|0:0,0:0:0:0:
250,355,50703,6,0,P|332:333|362:262,2,140,2|0|2,0:0|0:0|0:0,0:0:0:0:
109,262,51864,1,8,0:0:0:0:
278,156,52251,6,0,P|340:119|490:132,1,210,2|2,0:0|0:0,0:0:0:0:
380,57,53025,2,0,P|312:26|235:30,1,140,2|8,0:0|0:0,0:0:0:0:
425,188,53800,6,0,P|453:243|332:323,1,210,6|0,0:0|0:0,0:0:0:0:
277,325,54574,2,0,P|295:279|387:250,1,140,2|8,0:0|0:0,0:0:0:0:
234,172,55348,6,0,L|117:154,1,105,2|0,0:0|0:0,0:0:0:0:
248,80,55929,1,2,0:0:0:0:
379,93,56316,5,0,0:0:0:0:
417,148,56509,1,8,0:3:0:0:
394,211,56703,1,0,0:0:0:0:
329,228,56896,6,0,P|266:248|174:226,1,140,2|0,0:0|0:0,0:0:0:0:
62,191,57671,2,0,P|86:140|135:109,1,105,2|0,0:0|0:0,0:0:0:0:
239,79,58251,1,0,0:0:0:0:
307,93,58445,6,0,P|303:164|182:235,1,210,2|2,0:0|0:0,0:0:0:0:
123,242,59219,1,0,0:0:0:0:
254,312,59606,1,8,0:3:0:0:
422,284,59993,6,0,P|384:240|286:201,1,140,6|0,0:0|0:0,0:0:0:0:
240,193,60574,1,0,0:0:0:0:
314,142,60767,2,0,P|356:116|461:104,1,140,2|8,0:0|0:0,0:0:0:0:
303,305,61542,6,0,P|261:279|156:267,1,140,2|0,0:0|0:0,0:0:0:0:
103,255,62122,1,0,0:0:0:0:
33,248,62316,2,0,P|63:194|141:166,1,140,2|8,0:0|0:0,0:0:0:0:
256,192,63090,12,8,65025,0:0:0:0:
221,207,65413,6,0,P|190:175|106:161,2,105,8|0|8,0:0|0:0|0:3,0:0:0:0:
319,297,66187,6,0,P|227:316|160:296,1,140,12|8,0:0|0:0,0:0:0:0:
43,252,66961,2,0,P|81:226|179:194,1,140,8|8,0:0|0:0,0:0:0:0:
329,220,67735,6,0,P|343:177|290:106,1,140,8|8,0:0|0:0,0:0:0:0:
223,94,68316,1,0,0:0:0:0:
153,99,68509,2,0,P|231:66|289:64,1,140,8|8,0:0|0:0,0:0:0:0:
461,216,69284,6,0,P|421:187|309:165,1,140,8|8,0:0|0:0,0:0:0:0:
144,110,70058,2,0,L|304:94,1,140,8|8,0:0|0:0,0:0:0:0:
455,331,70832,6,0,P|487:294|424:214,1,140,8|8,0:0|0:0,0:0:0:0:
363,220,71413,2,0,L|192:195,1,140,0|0,0:0|0:0,0:0:0:0:
298,169,71993,1,8,0:0:0:0:
146,315,72380,6,0,P|94:314|50:287,2,105,12|0|0,0:0|0:0|0:0,0:0:0:0:
223,233,73154,2,0,P|264:205|335:208,2,105,8|0|0,0:0|0:0|0:0,0:0:0:0:
112,241,73929,6,0,P|49:185|127:80,1,210,8|0,0:0|0:0,0:0:0:0:
214,87,74703,2,0,P|158:89|73:114,1,140,8|8,0:0|0:0,0:0:0:0:
280,242,75477,6,0,P|292:295|241:348,1,105,12|0,0:0|0:0,0:0:0:0:
162,352,76058,1,0,0:0:0:0:
231,338,76251,2,0,P|301:320|353:318,1,105,8|0,0:0|0:0,0:0:0:0:
218,233,76832,1,2,0:0:0:0:
141,221,77025,6,0,P|125:160|279:61,1,280,0|8,0:0|0:0,0:0:0:0:
219,91,77993,1,8,0:3:0:0:
203,157,78187,1,8,0:0:0:0:
245,210,78380,1,8,0:3:0:0:
317,221,78574,6,0,P|382:229|476:275,1,140,12|8,0:0|0:0,0:0:0:0:
294,338,79348,2,0,P|243:315|130:302,1,140,8|8,0:0|0:0,0:0:0:0:
328,254,80122,6,0,P|350:193|281:147,1,140,8|8,0:0|0:0,0:0:0:0:
218,131,80703,2,0,P|212:82|292:40,1,140,0|0,0:0|0:0,0:0:0:0:
357,42,81284,1,8,0:0:0:0:
183,68,81671,6,0,P|86:55|20:57,1,140,12|8,0:0|0:0,0:0:0:0:
196,198,82445,2,0,P|115:182|46:173,1,140,10|8,0:0|0:0,0:0:0:0:
219,324,83219,2,0,L|306:308,2,70,8|2|8,0:0|0:0|0:0,0:0:0:0:
128,314,83800,6,0,P|121:269|251:197,1,210,4|8,0:0|0:0,0:0:0:0:
318,207,84574,1,8,0:3:0:0:
394,235,84767,6,0,P|341:183|247:168,1,140,8|8,0:0|0:0,0:0:0:0:
445,231,85542,1,2,0:0:0:0:
488,176,85735,1,0,0:0:0:0:
456,117,85929,1,8,0:0:0:0:
307,59,86316,6,0,L|136:44,2,140,4|0|0,0:0|0:0|0:0,0:0:0:0:
321,127,87284,1,8,0:3:0:0:
288,182,87477,1,8,0:3:0:0:
85,254,87864,5,4,0:0:0:0:
256,192,88251,12,0,89800,0:0:0:0:
