osu file format v14

[General]
AudioFilename: audio140.mp3
AudioLeadIn: 0
PreviewTime: 71420
Countdown: 0
SampleSet: Drum
StackLeniency: 0.7
Mode: 3
LetterboxInBreaks: 0
SpecialStyle: 0
WidescreenStoryboard: 0

[Editor]
DistanceSpacing: 0.7
BeatDivisor: 8
GridSize: 4
TimelineZoom: 1

[Metadata]
Title:KAMISORI
TitleUnicode:KAMISORI
Artist:Coakira
ArtistUnicode:Coakira
Creator:Monheim
Version:ERADICATE 1.4x
Source:
Tags:speedcore gabber jack stamina Electronic Instrumental FREAKIN WORKS SOUNDS Vol. 2 mwc 4k 2018 civilization chordjack
BeatmapID:4317897
BeatmapSetID:790716

[Difficulty]
HPDrainRate:8
CircleSize:4
OverallDifficulty:8
ApproachRate:5
SliderMultiplier:1.4
SliderTickRate:1

[Events]
//Background and Video events
0,0,"kuvshinov-background-1.png",0,0
//Break Periods
//Storyboard Layer 0 (Background)
//Storyboard Layer 1 (Fail)
//Storyboard Layer 2 (Pass)
//Storyboard Layer 3 (Foreground)
//Storyboard Layer 4 (Overlay)
//Storyboard Sound Samples

[TimingPoints]
71,317.460317460317,4,3,0,20,1,0

[HitObjects]
64,192,18166,5,0,0:0:0:0:
448,192,18166,1,0,0:0:0:0:
320,192,18166,1,0,0:0:0:0:
320,192,18246,1,0,0:0:0:0:
448,192,18325,1,0,0:0:0:0:
192,192,18325,1,0,0:0:0:0:
64,192,18325,1,0,0:0:0:0:
192,192,18404,1,0,0:0:0:0:
320,192,18484,1,0,0:0:0:0:
448,192,18484,1,0,0:0:0:0:
64,192,18484,1,0,0:0:0:0:
448,192,18563,1,0,0:0:0:0:
320,192,18642,1,0,0:0:0:0:
192,192,18642,1,0,0:0:0:0:
64,192,18642,1,0,0:0:0:0:
64,192,18722,1,0,0:0:0:0:
448,192,18801,1,0,0:0:0:0:
320,192,18801,1,0,0:0:0:0:
192,192,18801,1,0,0:0:0:0:
320,192,18881,1,0,0:0:0:0:
192,192,18960,1,0,0:0:0:0:
64,192,18960,1,0,0:0:0:0:
448,192,18960,1,0,0:0:0:0:
192,192,19039,1,0,0:0:0:0:
320,192,19119,1,0,0:0:0:0:
448,192,19119,1,0,0:0:0:0:
64,192,19119,1,0,0:0:0:0:
448,192,19198,1,0,0:0:0:0:
320,192,19277,1,0,0:0:0:0:
192,192,19277,1,0,0:0:0:0:
64,192,19277,1,0,0:0:0:0:
192,192,19356,1,0,0:0:0:0:
64,192,19356,1,0,0:0:0:0:
64,192,19436,1,0,0:0:0:0:
320,192,19436,1,0,0:0:0:0:
448,192,19436,1,0,0:0:0:0:
320,192,19516,1,0,0:0:0:0:
448,192,19595,1,0,0:0:0:0:
192,192,19595,1,0,0:0:0:0:
64,192,19595,1,0,0:0:0:0:
64,192,19674,1,0,0:0:0:0:
320,192,19754,1,0,0:0:0:0:
448,192,19754,1,0,0:0:0:0:
192,192,19754,1,0,0:0:0:0:
448,192,19833,1,0,0:0:0:0:
320,192,19912,1,0,0:0:0:0:
192,192,19912,1,0,0:0:0:0:
64,192,19912,1,0,0:0:0:0:
192,192,19991,1,0,0:0:0:0:
320,192,20071,1,0,0:0:0:0:
448,192,20071,1,0,0:0:0:0:
64,192,20071,1,0,0:0:0:0:
320,192,20151,1,0,0:0:0:0:
448,192,20151,1,0,0:0:0:0:
448,192,20230,1,0,0:0:0:0:
64,192,20230,1,0,0:0:0:0:
192,192,20230,1,0,0:0:0:0:
64,192,20309,1,0,0:0:0:0:
192,192,20389,1,0,0:0:0:0:
320,192,20389,1,0,0:0:0:0:
448,192,20389,1,0,0:0:0:0:
320,192,20468,1,0,0:0:0:0:
448,192,20547,1,0,0:0:0:0:
192,192,20547,1,0,0:0:0:0:
64,192,20547,1,0,0:0:0:0:
192,192,20626,1,0,0:0:0:0:
320,192,20706,1,0,0:0:0:0:
448,192,20706,1,0,0:0:0:0:
64,192,20706,1,0,0:0:0:0:
192,192,20706,1,0,0:0:0:0:
448,192,20785,1,0,0:0:0:0:
192,192,20865,1,0,0:0:0:0:
64,192,20865,1,0,0:0:0:0:
320,192,20865,1,0,0:0:0:0:
192,192,20944,1,0,0:0:0:0:
320,192,21024,1,0,0:0:0:0:
448,192,21024,1,0,0:0:0:0:
64,192,21024,1,0,0:0:0:0:
320,192,21103,1,0,0:0:0:0:
192,192,21182,1,0,0:0:0:0:
448,192,21182,1,0,0:0:0:0:
64,192,21182,1,0,0:0:0:0:
64,192,21261,1,0,0:0:0:0:
320,192,21341,1,0,0:0:0:0:
448,192,21341,1,0,0:0:0:0:
192,192,21341,1,0,0:0:0:0:
448,192,21420,1,0,0:0:0:0:
192,192,21499,1,0,0:0:0:0:
320,192,21499,1,0,0:0:0:0:
64,192,21499,1,0,0:0:0:0:
192,192,21579,1,0,0:0:0:0:
320,192,21659,1,0,0:0:0:0:
448,192,21659,1,0,0:0:0:0:
64,192,21659,1,0,0:0:0:0:
320,192,21738,1,0,0:0:0:0:
448,192,21817,1,0,0:0:0:0:
192,192,21817,1,0,0:0:0:0:
64,192,21817,1,0,0:0:0:0:
192,192,21896,1,0,0:0:0:0:
64,192,21896,1,0,0:0:0:0:
64,192,21976,1,0,0:0:0:0:
448,192,21976,1,0,0:0:0:0:
320,192,21976,1,0,0:0:0:0:
320,192,22055,1,0,0:0:0:0:
448,192,22134,1,0,0:0:0:0:
192,192,22134,1,0,0:0:0:0:
64,192,22134,1,0,0:0:0:0:
64,192,22214,1,0,0:0:0:0:
192,192,22294,1,0,0:0:0:0:
320,192,22294,1,0,0:0:0:0:
448,192,22294,1,0,0:0:0:0:
320,192,22373,1,0,0:0:0:0:
448,192,22452,1,0,0:0:0:0:
192,192,22452,1,0,0:0:0:0:
64,192,22452,1,0,0:0:0:0:
192,192,22531,1,0,0:0:0:0:
320,192,22611,1,0,0:0:0:0:
448,192,22611,1,0,0:0:0:0:
320,192,22690,1,0,0:0:0:0:
448,192,22690,1,0,0:0:0:0:
320,192,22769,1,0,0:0:0:0:
448,192,22769,1,0,0:0:0:0:
448,192,22849,1,0,0:0:0:0:
320,192,22849,1,0,0:0:0:0:
320,192,22928,1,0,0:0:0:0:
448,192,22928,1,0,0:0:0:0:
192,192,22955,1,0,0:0:0:0:
64,192,22981,1,0,0:0:0:0:
320,192,23034,1,0,0:0:0:0:
192,192,23087,1,0,0:0:0:0:
64,192,23087,1,0,0:0:0:0:
448,192,23114,1,0,0:0:0:0:
320,192,23140,1,0,0:0:0:0:
192,192,23166,1,0,0:0:0:0:
64,192,23206,1,0,0:0:0:0:
192,192,23246,1,0,0:0:0:0:
448,192,23246,1,0,0:0:0:0:
320,192,23285,1,0,0:0:0:0:
64,192,23325,1,0,0:0:0:0:
448,192,23365,1,0,0:0:0:0:
320,192,23404,1,0,0:0:0:0:
192,192,23404,1,0,0:0:0:0:
64,192,23404,1,0,0:0:0:0:
192,192,23484,1,0,0:0:0:0:
320,192,23563,1,0,0:0:0:0:
448,192,23563,1,0,0:0:0:0:
64,192,23563,1,0,0:0:0:0:
320,192,23642,1,0,0:0:0:0:
192,192,23722,1,0,0:0:0:0:
64,192,23722,1,0,0:0:0:0:
448,192,23722,1,0,0:0:0:0:
64,192,23801,1,0,0:0:0:0:
192,192,23881,1,0,0:0:0:0:
320,192,23881,1,0,0:0:0:0:
448,192,23881,1,0,0:0:0:0:
448,192,23960,1,0,0:0:0:0:
320,192,24039,1,0,0:0:0:0:
64,192,24039,1,0,0:0:0:0:
192,192,24039,1,0,0:0:0:0:
192,192,24119,1,0,0:0:0:0:
64,192,24198,1,0,0:0:0:0:
448,192,24198,1,0,0:0:0:0:
320,192,24198,1,0,0:0:0:0:
320,192,24277,1,0,0:0:0:0:
448,192,24356,1,0,0:0:0:0:
192,192,24356,1,0,0:0:0:0:
64,192,24356,1,0,0:0:0:0:
192,192,24436,1,0,0:0:0:0:
64,192,24436,1,0,0:0:0:0:
64,192,24516,1,0,0:0:0:0:
320,192,24516,1,0,0:0:0:0:
448,192,24516,1,0,0:0:0:0:
320,192,24595,1,0,0:0:0:0:
448,192,24674,1,0,0:0:0:0:
192,192,24674,1,0,0:0:0:0:
64,192,24674,1,0,0:0:0:0:
64,192,24754,1,0,0:0:0:0:
192,192,24833,1,0,0:0:0:0:
448,192,24833,1,0,0:0:0:0:
320,192,24833,1,0,0:0:0:0:
448,192,24912,1,0,0:0:0:0:
320,192,24991,1,0,0:0:0:0:
64,192,24991,1,0,0:0:0:0:
192,192,24991,1,0,0:0:0:0:
192,192,25071,1,0,0:0:0:0:
320,192,25151,1,0,0:0:0:0:
448,192,25151,1,0,0:0:0:0:
64,192,25151,1,0,0:0:0:0:
320,192,25230,1,0,0:0:0:0:
448,192,25230,1,0,0:0:0:0:
448,192,25309,1,0,0:0:0:0:
192,192,25309,1,0,0:0:0:0:
64,192,25309,1,0,0:0:0:0:
192,192,25389,1,0,0:0:0:0:
64,192,25468,1,0,0:0:0:0:
448,192,25468,1,0,0:0:0:0:
320,192,25468,1,0,0:0:0:0:
320,192,25547,1,0,0:0:0:0:
448,192,25626,1,0,0:0:0:0:
192,192,25626,1,0,0:0:0:0:
64,192,25626,1,0,0:0:0:0:
192,192,25706,1,0,0:0:0:0:
64,192,25785,1,0,0:0:0:0:
448,192,25785,1,0,0:0:0:0:
320,192,25825,1,0,0:0:0:0:
192,192,25865,1,0,0:0:0:0:
448,192,25904,1,0,0:0:0:0:
320,192,25944,1,0,0:0:0:0:
64,192,25944,1,0,0:0:0:0:
192,192,25944,1,0,0:0:0:0:
64,192,26024,1,0,0:0:0:0:
192,192,26103,1,0,0:0:0:0:
320,192,26103,1,0,0:0:0:0:
448,192,26103,1,0,0:0:0:0:
448,192,26182,1,0,0:0:0:0:
320,192,26261,1,0,0:0:0:0:
192,192,26261,1,0,0:0:0:0:
64,192,26261,1,0,0:0:0:0:
192,192,26341,1,0,0:0:0:0:
320,192,26420,1,0,0:0:0:0:
448,192,26420,1,0,0:0:0:0:
64,192,26420,1,0,0:0:0:0:
320,192,26499,1,0,0:0:0:0:
448,192,26579,1,0,0:0:0:0:
192,192,26579,1,0,0:0:0:0:
64,192,26579,1,0,0:0:0:0:
64,192,26659,1,0,0:0:0:0:
192,192,26738,1,0,0:0:0:0:
448,192,26738,1,0,0:0:0:0:
320,192,26738,1,0,0:0:0:0:
448,192,26817,1,0,0:0:0:0:
320,192,26896,1,0,0:0:0:0:
192,192,26896,1,0,0:0:0:0:
64,192,26896,1,0,0:0:0:0:
192,192,26976,1,0,0:0:0:0:
64,192,26976,1,0,0:0:0:0:
64,192,27055,1,0,0:0:0:0:
320,192,27055,1,0,0:0:0:0:
448,192,27055,1,0,0:0:0:0:
320,192,27134,1,0,0:0:0:0:
448,192,27214,1,0,0:0:0:0:
192,192,27214,1,0,0:0:0:0:
64,192,27214,1,0,0:0:0:0:
192,192,27294,1,0,0:0:0:0:
320,192,27373,1,0,0:0:0:0:
448,192,27373,1,0,0:0:0:0:
64,192,27373,1,0,0:0:0:0:
448,192,27452,1,0,0:0:0:0:
320,192,27531,1,0,0:0:0:0:
64,192,27531,1,0,0:0:0:0:
192,192,27531,1,0,0:0:0:0:
64,192,27611,1,0,0:0:0:0:
448,192,27690,1,0,0:0:0:0:
320,192,27716,1,0,0:0:0:0:
192,192,27743,1,0,0:0:0:0:
64,192,27769,1,0,0:0:0:0:
448,192,27796,1,0,0:0:0:0:
320,192,27809,1,0,0:0:0:0:
192,192,27849,1,0,0:0:0:0:
64,192,27889,1,0,0:0:0:0:
320,192,27928,1,0,0:0:0:0:
448,192,27968,1,0,0:0:0:0:
192,192,28008,1,0,0:0:0:0:
64,192,28008,1,0,0:0:0:0:
320,192,28034,1,0,0:0:0:0:
448,192,28061,1,0,0:0:0:0:
192,192,28114,1,0,0:0:0:0:
320,192,28166,1,0,0:0:0:0:
448,192,28166,1,0,0:0:0:0:
64,192,28193,1,0,0:0:0:0:
192,192,28219,1,0,0:0:0:0:
448,192,28246,1,0,0:0:0:0:
320,192,28285,1,0,0:0:0:0:
192,192,28325,1,0,0:0:0:0:
64,192,28325,1,0,0:0:0:0:
448,192,28365,1,0,0:0:0:0:
64,192,28404,1,0,0:0:0:0:
320,192,28444,1,0,0:0:0:0:
448,192,28484,1,0,0:0:0:0:
192,192,28484,1,0,0:0:0:0:
64,192,28484,1,0,0:0:0:0:
192,192,28563,1,0,0:0:0:0:
320,192,28642,1,0,0:0:0:0:
448,192,28642,1,0,0:0:0:0:
64,192,28642,1,0,0:0:0:0:
448,192,28722,1,0,0:0:0:0:
320,192,28801,1,0,0:0:0:0:
192,192,28801,1,0,0:0:0:0:
64,192,28801,1,0,0:0:0:0:
192,192,28881,1,0,0:0:0:0:
64,192,28960,1,0,0:0:0:0:
320,192,28960,1,0,0:0:0:0:
448,192,28960,1,0,0:0:0:0:
320,192,29039,1,0,0:0:0:0:
448,192,29119,1,0,0:0:0:0:
192,192,29119,1,0,0:0:0:0:
64,192,29119,1,0,0:0:0:0:
64,192,29198,1,0,0:0:0:0:
192,192,29277,1,0,0:0:0:0:
320,192,29277,1,0,0:0:0:0:
448,192,29277,1,0,0:0:0:0:
320,192,29356,1,0,0:0:0:0:
448,192,29436,1,0,0:0:0:0:
192,192,29436,1,0,0:0:0:0:
64,192,29436,1,0,0:0:0:0:
192,192,29516,1,0,0:0:0:0:
64,192,29516,1,0,0:0:0:0:
64,192,29595,1,0,0:0:0:0:
320,192,29595,1,0,0:0:0:0:
448,192,29595,1,0,0:0:0:0:
320,192,29674,1,0,0:0:0:0:
448,192,29754,1,0,0:0:0:0:
192,192,29754,1,0,0:0:0:0:
64,192,29754,1,0,0:0:0:0:
64,192,29833,1,0,0:0:0:0:
192,192,29912,1,0,0:0:0:0:
320,192,29912,1,0,0:0:0:0:
448,192,29912,1,0,0:0:0:0:
448,192,29991,1,0,0:0:0:0:
320,192,30071,1,0,0:0:0:0:
192,192,30071,1,0,0:0:0:0:
64,192,30071,1,0,0:0:0:0:
192,192,30151,1,0,0:0:0:0:
64,192,30230,1,0,0:0:0:0:
320,192,30230,1,0,0:0:0:0:
448,192,30230,1,0,0:0:0:0:
320,192,30309,1,0,0:0:0:0:
448,192,30309,1,0,0:0:0:0:
448,192,30389,1,0,0:0:0:0:
192,192,30389,1,0,0:0:0:0:
64,192,30389,1,0,0:0:0:0:
192,192,30468,1,0,0:0:0:0:
320,192,30547,1,0,0:0:0:0:
448,192,30547,1,0,0:0:0:0:
64,192,30547,1,0,0:0:0:0:
320,192,30626,1,0,0:0:0:0:
448,192,30706,1,0,0:0:0:0:
192,192,30706,1,0,0:0:0:0:
64,192,30706,1,0,0:0:0:0:
192,192,30785,1,0,0:0:0:0:
448,192,30865,1,0,0:0:0:0:
64,192,30865,1,0,0:0:0:0:
192,192,30904,1,0,0:0:0:0:
320,192,30944,1,0,0:0:0:0:
64,192,30984,1,0,0:0:0:0:
192,192,31024,1,0,0:0:0:0:
320,192,31024,1,0,0:0:0:0:
448,192,31024,1,0,0:0:0:0:
448,192,31103,1,0,0:0:0:0:
320,192,31182,1,0,0:0:0:0:
192,192,31182,1,0,0:0:0:0:
64,192,31182,1,0,0:0:0:0:
192,192,31261,1,0,0:0:0:0:
320,192,31341,1,0,0:0:0:0:
64,192,31341,1,0,0:0:0:0:
448,192,31341,1,0,0:0:0:0:
320,192,31420,1,0,0:0:0:0:
192,192,31499,1,0,0:0:0:0:
64,192,31499,1,0,0:0:0:0:
448,192,31499,1,0,0:0:0:0:
64,192,31579,1,0,0:0:0:0:
192,192,31659,1,0,0:0:0:0:
320,192,31659,1,0,0:0:0:0:
448,192,31659,1,0,0:0:0:0:
320,192,31738,1,0,0:0:0:0:
448,192,31817,1,0,0:0:0:0:
192,192,31817,1,0,0:0:0:0:
64,192,31817,1,0,0:0:0:0:
192,192,31896,1,0,0:0:0:0:
64,192,31976,1,0,0:0:0:0:
320,192,31976,1,0,0:0:0:0:
448,192,31976,1,0,0:0:0:0:
320,192,32055,1,0,0:0:0:0:
448,192,32055,1,0,0:0:0:0:
448,192,32134,1,0,0:0:0:0:
192,192,32134,1,0,0:0:0:0:
64,192,32134,1,0,0:0:0:0:
192,192,32214,1,0,0:0:0:0:
64,192,32294,1,0,0:0:0:0:
320,192,32294,1,0,0:0:0:0:
448,192,32294,1,0,0:0:0:0:
320,192,32373,1,0,0:0:0:0:
448,192,32452,1,0,0:0:0:0:
192,192,32452,1,0,0:0:0:0:
64,192,32452,1,0,0:0:0:0:
64,192,32531,1,0,0:0:0:0:
192,192,32611,1,0,0:0:0:0:
448,192,32611,1,0,0:0:0:0:
320,192,32611,1,0,0:0:0:0:
448,192,32690,1,0,0:0:0:0:
64,192,33087,1,0,0:0:0:0:
192,192,33114,1,0,0:0:0:0:
448,192,33140,1,0,0:0:0:0:
320,192,33166,1,0,0:0:0:0:
64,192,33193,1,0,0:0:0:0:
192,192,33219,1,0,0:0:0:0:
320,192,33246,1,0,0:0:0:0:
448,192,33246,1,0,0:0:0:0:
64,192,33272,1,0,0:0:0:0:
192,192,33299,1,0,0:0:0:0:
448,192,33325,1,0,0:0:0:0:
320,192,33351,1,0,0:0:0:0:
192,192,33378,1,0,0:0:0:0:
64,192,33404,1,0,0:0:0:0:
64,192,33484,1,0,0:0:0:0:
64,192,33563,1,0,0:0:0:0:
320,192,33603,1,0,0:0:0:0:
64,192,33642,1,0,0:0:0:0:
448,192,33682,1,0,0:0:0:0:
320,192,33722,1,0,0:0:0:0:
64,192,33761,1,0,0:0:0:0:
192,192,33761,1,0,0:0:0:0:
320,192,33801,1,0,0:0:0:0:
64,192,33841,1,0,0:0:0:0:
192,192,33881,1,0,0:0:0:0:
448,192,33920,1,0,0:0:0:0:
64,192,33960,1,0,0:0:0:0:
192,192,33999,1,0,0:0:0:0:
320,192,34039,1,0,0:0:0:0:
448,192,34039,1,0,0:0:0:0:
320,192,34119,1,0,0:0:0:0:
448,192,34119,1,0,0:0:0:0:
448,192,34198,1,0,0:0:0:0:
320,192,34198,1,0,0:0:0:0:
448,192,34277,1,0,0:0:0:0:
320,192,34277,1,0,0:0:0:0:
320,192,34356,1,0,0:0:0:0:
448,192,34356,1,0,0:0:0:0:
320,192,34436,1,0,0:0:0:0:
448,192,34436,1,0,0:0:0:0:
320,192,34516,1,0,0:0:0:0:
448,192,34516,1,0,0:0:0:0:
320,192,34595,1,0,0:0:0:0:
448,192,34595,1,0,0:0:0:0:
64,192,34674,1,0,0:0:0:0:
448,192,34674,128,0,35626:0:0:0:0:
192,192,34674,1,0,0:0:0:0:
192,192,34754,1,0,0:0:0:0:
64,192,34754,1,0,0:0:0:0:
192,192,34833,1,0,0:0:0:0:
64,192,34833,1,0,0:0:0:0:
192,192,34912,1,0,0:0:0:0:
64,192,34912,1,0,0:0:0:0:
192,192,34991,1,0,0:0:0:0:
64,192,34991,1,0,0:0:0:0:
192,192,35071,1,0,0:0:0:0:
64,192,35071,1,0,0:0:0:0:
192,192,35151,1,0,0:0:0:0:
64,192,35151,1,0,0:0:0:0:
192,192,35230,1,0,0:0:0:0:
64,192,35230,1,0,0:0:0:0:
192,192,35309,1,0,0:0:0:0:
64,192,35309,1,0,0:0:0:0:
64,192,35389,1,0,0:0:0:0:
192,192,35389,1,0,0:0:0:0:
192,192,35468,1,0,0:0:0:0:
64,192,35468,1,0,0:0:0:0:
192,192,35547,1,0,0:0:0:0:
64,192,35547,1,0,0:0:0:0:
320,192,35626,1,0,0:0:0:0:
320,192,35706,1,0,0:0:0:0:
320,192,35785,1,0,0:0:0:0:
320,192,35865,1,0,0:0:0:0:
448,192,35944,1,0,0:0:0:0:
64,192,35944,1,0,0:0:0:0:
192,192,35984,1,0,0:0:0:0:
320,192,36024,1,0,0:0:0:0:
64,192,36063,1,0,0:0:0:0:
192,192,36103,1,0,0:0:0:0:
448,192,36103,1,0,0:0:0:0:
320,192,36103,1,0,0:0:0:0:
448,192,36182,1,0,0:0:0:0:
320,192,36261,1,0,0:0:0:0:
64,192,36261,1,0,0:0:0:0:
192,192,36261,1,0,0:0:0:0:
64,192,36341,1,0,0:0:0:0:
192,192,36420,1,0,0:0:0:0:
320,192,36420,1,0,0:0:0:0:
448,192,36420,1,0,0:0:0:0:
320,192,36499,1,0,0:0:0:0:
192,192,36579,1,0,0:0:0:0:
64,192,36579,1,0,0:0:0:0:
448,192,36579,1,0,0:0:0:0:
64,192,36659,1,0,0:0:0:0:
192,192,36738,1,0,0:0:0:0:
448,192,36738,1,0,0:0:0:0:
320,192,36738,1,0,0:0:0:0:
448,192,36817,1,0,0:0:0:0:
320,192,36896,1,0,0:0:0:0:
192,192,36896,1,0,0:0:0:0:
64,192,36896,1,0,0:0:0:0:
192,192,36976,1,0,0:0:0:0:
64,192,37055,1,0,0:0:0:0:
320,192,37055,1,0,0:0:0:0:
448,192,37055,1,0,0:0:0:0:
192,192,37055,1,0,0:0:0:0:
320,192,37134,1,0,0:0:0:0:
448,192,37134,1,0,0:0:0:0:
448,192,37214,1,0,0:0:0:0:
64,192,37214,1,0,0:0:0:0:
192,192,37214,1,0,0:0:0:0:
64,192,37294,1,0,0:0:0:0:
192,192,37373,1,0,0:0:0:0:
448,192,37373,1,0,0:0:0:0:
320,192,37373,1,0,0:0:0:0:
320,192,37452,1,0,0:0:0:0:
192,192,37531,1,0,0:0:0:0:
64,192,37531,1,0,0:0:0:0:
448,192,37531,1,0,0:0:0:0:
192,192,37611,1,0,0:0:0:0:
320,192,37690,1,0,0:0:0:0:
448,192,37690,1,0,0:0:0:0:
64,192,37690,1,0,0:0:0:0:
448,192,37769,1,0,0:0:0:0:
320,192,37849,1,0,0:0:0:0:
192,192,37849,1,0,0:0:0:0:
64,192,37849,1,0,0:0:0:0:
64,192,37928,1,0,0:0:0:0:
192,192,37928,1,0,0:0:0:0:
64,192,38008,1,0,0:0:0:0:
320,192,38008,1,0,0:0:0:0:
448,192,38008,1,0,0:0:0:0:
320,192,38087,1,0,0:0:0:0:
448,192,38166,1,0,0:0:0:0:
192,192,38166,1,0,0:0:0:0:
64,192,38166,1,0,0:0:0:0:
64,192,38246,1,0,0:0:0:0:
64,192,38325,1,0,0:0:0:0:
192,192,38325,1,0,0:0:0:0:
448,192,38325,1,0,0:0:0:0:
320,192,38325,1,0,0:0:0:0:
320,192,38404,1,0,0:0:0:0:
448,192,38484,1,0,0:0:0:0:
64,192,38484,1,0,0:0:0:0:
192,192,38524,1,0,0:0:0:0:
320,192,38563,1,0,0:0:0:0:
64,192,38603,1,0,0:0:0:0:
192,192,38642,1,0,0:0:0:0:
320,192,38642,1,0,0:0:0:0:
448,192,38642,1,0,0:0:0:0:
320,192,38722,1,0,0:0:0:0:
448,192,38801,1,0,0:0:0:0:
192,192,38801,1,0,0:0:0:0:
64,192,38801,1,0,0:0:0:0:
320,192,38881,1,0,0:0:0:0:
320,192,38960,1,0,0:0:0:0:
448,192,38960,1,0,0:0:0:0:
64,192,38960,1,0,0:0:0:0:
320,192,39039,1,0,0:0:0:0:
448,192,39119,1,0,0:0:0:0:
192,192,39119,1,0,0:0:0:0:
64,192,39119,1,0,0:0:0:0:
320,192,39198,1,0,0:0:0:0:
64,192,39277,1,0,0:0:0:0:
448,192,39277,1,0,0:0:0:0:
320,192,39277,1,0,0:0:0:0:
192,192,39356,1,0,0:0:0:0:
320,192,39436,1,0,0:0:0:0:
448,192,39436,1,0,0:0:0:0:
64,192,39436,1,0,0:0:0:0:
320,192,39516,1,0,0:0:0:0:
320,192,39595,1,0,0:0:0:0:
448,192,39595,1,0,0:0:0:0:
192,192,39595,1,0,0:0:0:0:
64,192,39595,1,0,0:0:0:0:
192,192,39674,1,0,0:0:0:0:
64,192,39674,1,0,0:0:0:0:
64,192,39754,1,0,0:0:0:0:
320,192,39754,1,0,0:0:0:0:
448,192,39754,1,0,0:0:0:0:
192,192,39833,1,0,0:0:0:0:
192,192,39912,1,0,0:0:0:0:
64,192,39912,1,0,0:0:0:0:
448,192,39912,1,0,0:0:0:0:
192,192,39991,1,0,0:0:0:0:
320,192,40071,1,0,0:0:0:0:
448,192,40071,1,0,0:0:0:0:
64,192,40071,1,0,0:0:0:0:
192,192,40151,1,0,0:0:0:0:
192,192,40230,1,0,0:0:0:0:
64,192,40230,1,0,0:0:0:0:
448,192,40230,1,0,0:0:0:0:
192,192,40309,1,0,0:0:0:0:
320,192,40389,1,0,0:0:0:0:
448,192,40389,1,0,0:0:0:0:
64,192,40389,1,0,0:0:0:0:
320,192,40468,1,0,0:0:0:0:
448,192,40468,1,0,0:0:0:0:
448,192,40547,1,0,0:0:0:0:
192,192,40547,1,0,0:0:0:0:
64,192,40547,1,0,0:0:0:0:
192,192,40626,1,0,0:0:0:0:
64,192,40706,1,0,0:0:0:0:
320,192,40706,1,0,0:0:0:0:
448,192,40706,1,0,0:0:0:0:
192,192,40785,1,0,0:0:0:0:
192,192,40865,1,0,0:0:0:0:
64,192,40865,1,0,0:0:0:0:
448,192,40865,1,0,0:0:0:0:
320,192,40944,1,0,0:0:0:0:
320,192,41024,1,0,0:0:0:0:
64,192,41024,1,0,0:0:0:0:
448,192,41063,1,0,0:0:0:0:
192,192,41103,1,0,0:0:0:0:
320,192,41142,1,0,0:0:0:0:
448,192,41182,1,0,0:0:0:0:
192,192,41182,1,0,0:0:0:0:
64,192,41182,1,0,0:0:0:0:
192,192,41261,1,0,0:0:0:0:
64,192,41341,1,0,0:0:0:0:
320,192,41341,1,0,0:0:0:0:
448,192,41341,1,0,0:0:0:0:
192,192,41420,1,0,0:0:0:0:
64,192,41499,1,0,0:0:0:0:
192,192,41499,1,0,0:0:0:0:
448,192,41499,1,0,0:0:0:0:
192,192,41579,1,0,0:0:0:0:
320,192,41659,1,0,0:0:0:0:
448,192,41659,1,0,0:0:0:0:
64,192,41659,1,0,0:0:0:0:
192,192,41738,1,0,0:0:0:0:
192,192,41817,1,0,0:0:0:0:
64,192,41817,1,0,0:0:0:0:
320,192,41817,1,0,0:0:0:0:
192,192,41896,1,0,0:0:0:0:
320,192,41976,1,0,0:0:0:0:
448,192,41976,1,0,0:0:0:0:
64,192,41976,1,0,0:0:0:0:
320,192,42055,1,0,0:0:0:0:
192,192,42134,1,0,0:0:0:0:
64,192,42134,1,0,0:0:0:0:
448,192,42134,1,0,0:0:0:0:
320,192,42134,1,0,0:0:0:0:
192,192,42214,1,0,0:0:0:0:
64,192,42214,1,0,0:0:0:0:
64,192,42294,1,0,0:0:0:0:
320,192,42294,1,0,0:0:0:0:
448,192,42294,1,0,0:0:0:0:
320,192,42373,1,0,0:0:0:0:
448,192,42452,1,0,0:0:0:0:
192,192,42452,1,0,0:0:0:0:
64,192,42452,1,0,0:0:0:0:
320,192,42531,1,0,0:0:0:0:
320,192,42611,1,0,0:0:0:0:
448,192,42611,1,0,0:0:0:0:
64,192,42611,1,0,0:0:0:0:
320,192,42690,1,0,0:0:0:0:
448,192,42769,1,0,0:0:0:0:
192,192,42769,1,0,0:0:0:0:
64,192,42769,1,0,0:0:0:0:
192,192,42849,1,0,0:0:0:0:
320,192,42928,1,0,0:0:0:0:
448,192,42928,1,0,0:0:0:0:
64,192,42928,1,0,0:0:0:0:
448,192,43008,1,0,0:0:0:0:
320,192,43008,1,0,0:0:0:0:
192,192,43087,1,0,0:0:0:0:
64,192,43087,1,0,0:0:0:0:
448,192,43087,1,0,0:0:0:0:
320,192,43166,1,0,0:0:0:0:
448,192,43246,1,0,0:0:0:0:
64,192,43246,1,0,0:0:0:0:
192,192,43246,1,0,0:0:0:0:
320,192,43325,1,0,0:0:0:0:
320,192,43404,1,0,0:0:0:0:
448,192,43404,1,0,0:0:0:0:
64,192,43404,1,0,0:0:0:0:
192,192,43404,1,0,0:0:0:0:
320,192,43484,1,0,0:0:0:0:
448,192,43563,1,0,0:0:0:0:
64,192,43563,1,0,0:0:0:0:
192,192,43603,1,0,0:0:0:0:
320,192,43642,1,0,0:0:0:0:
64,192,43682,1,0,0:0:0:0:
448,192,43722,1,0,0:0:0:0:
192,192,43761,1,0,0:0:0:0:
64,192,43801,1,0,0:0:0:0:
320,192,43841,1,0,0:0:0:0:
448,192,43881,1,0,0:0:0:0:
192,192,43881,1,0,0:0:0:0:
64,192,43881,1,0,0:0:0:0:
192,192,43960,1,0,0:0:0:0:
64,192,43960,1,0,0:0:0:0:
192,192,44039,1,0,0:0:0:0:
64,192,44039,1,0,0:0:0:0:
320,192,44039,1,0,0:0:0:0:
320,192,44119,1,0,0:0:0:0:
448,192,44119,1,0,0:0:0:0:
448,192,44198,1,0,0:0:0:0:
192,192,44198,1,0,0:0:0:0:
64,192,44198,1,0,0:0:0:0:
192,192,44277,1,0,0:0:0:0:
64,192,44277,1,0,0:0:0:0:
64,192,44356,1,0,0:0:0:0:
320,192,44356,1,0,0:0:0:0:
448,192,44356,1,0,0:0:0:0:
192,192,44436,1,0,0:0:0:0:
448,192,44436,1,0,0:0:0:0:
320,192,44516,1,0,0:0:0:0:
448,192,44516,1,0,0:0:0:0:
64,192,44516,1,0,0:0:0:0:
192,192,44595,1,0,0:0:0:0:
64,192,44595,1,0,0:0:0:0:
192,192,44674,1,0,0:0:0:0:
448,192,44674,1,0,0:0:0:0:
320,192,44674,1,0,0:0:0:0:
64,192,44674,1,0,0:0:0:0:
320,192,44754,1,0,0:0:0:0:
448,192,44754,1,0,0:0:0:0:
448,192,44833,1,0,0:0:0:0:
64,192,44833,1,0,0:0:0:0:
192,192,44859,1,0,0:0:0:0:
320,192,44886,1,0,0:0:0:0:
448,192,44912,1,0,0:0:0:0:
192,192,44952,1,0,0:0:0:0:
64,192,44991,1,0,0:0:0:0:
320,192,44991,1,0,0:0:0:0:
448,192,44991,1,0,0:0:0:0:
192,192,45071,1,0,0:0:0:0:
64,192,45071,1,0,0:0:0:0:
320,192,45151,1,0,0:0:0:0:
448,192,45151,1,0,0:0:0:0:
192,192,45151,1,0,0:0:0:0:
320,192,45230,1,0,0:0:0:0:
448,192,45230,1,0,0:0:0:0:
448,192,45309,1,0,0:0:0:0:
64,192,45309,1,0,0:0:0:0:
192,192,45309,1,0,0:0:0:0:
320,192,45389,1,0,0:0:0:0:
192,192,45389,1,0,0:0:0:0:
448,192,45468,1,0,0:0:0:0:
64,192,45468,1,0,0:0:0:0:
320,192,45494,1,0,0:0:0:0:
192,192,45521,1,0,0:0:0:0:
64,192,45547,1,0,0:0:0:0:
448,192,45574,1,0,0:0:0:0:
320,192,45600,1,0,0:0:0:0:
192,192,45626,1,0,0:0:0:0:
64,192,45626,1,0,0:0:0:0:
448,192,45653,1,0,0:0:0:0:
320,192,45679,1,0,0:0:0:0:
64,192,45706,1,0,0:0:0:0:
192,192,45732,1,0,0:0:0:0:
320,192,45759,1,0,0:0:0:0:
448,192,45785,1,0,0:0:0:0:
64,192,45785,1,0,0:0:0:0:
192,192,45812,1,0,0:0:0:0:
320,192,45839,1,0,0:0:0:0:
64,192,45891,1,0,0:0:0:0:
320,192,45944,1,0,0:0:0:0:
448,192,45944,1,0,0:0:0:0:
192,192,45971,1,0,0:0:0:0:
64,192,45997,1,0,0:0:0:0:
448,192,46024,1,0,0:0:0:0:
192,192,46103,1,0,0:0:0:0:
64,192,46103,1,0,0:0:0:0:
320,192,46103,1,0,0:0:0:0:
320,192,46182,1,0,0:0:0:0:
448,192,46261,1,0,0:0:0:0:
320,192,46261,1,0,0:0:0:0:
64,192,46261,1,0,0:0:0:0:
448,192,46341,1,0,0:0:0:0:
448,192,46420,1,0,0:0:0:0:
192,192,46420,1,0,0:0:0:0:
64,192,46420,1,0,0:0:0:0:
64,192,46499,1,0,0:0:0:0:
64,192,46579,1,0,0:0:0:0:
320,192,46579,1,0,0:0:0:0:
448,192,46579,1,0,0:0:0:0:
448,192,46659,1,0,0:0:0:0:
192,192,46738,1,0,0:0:0:0:
64,192,46738,1,0,0:0:0:0:
448,192,46738,1,0,0:0:0:0:
64,192,46817,1,0,0:0:0:0:
448,192,46896,1,0,0:0:0:0:
320,192,46896,1,0,0:0:0:0:
64,192,46896,1,0,0:0:0:0:
448,192,46976,1,0,0:0:0:0:
64,192,47055,1,0,0:0:0:0:
320,192,47055,1,0,0:0:0:0:
192,192,47055,1,0,0:0:0:0:
192,192,47134,1,0,0:0:0:0:
64,192,47214,1,0,0:0:0:0:
448,192,47214,1,0,0:0:0:0:
192,192,47214,1,0,0:0:0:0:
320,192,47214,1,0,0:0:0:0:
448,192,47294,1,0,0:0:0:0:
320,192,47294,1,0,0:0:0:0:
448,192,47373,1,0,0:0:0:0:
64,192,47373,1,0,0:0:0:0:
320,192,47373,1,0,0:0:0:0:
192,192,47452,1,0,0:0:0:0:
320,192,47531,1,0,0:0:0:0:
448,192,47531,1,0,0:0:0:0:
64,192,47531,1,0,0:0:0:0:
448,192,47611,1,0,0:0:0:0:
192,192,47690,1,0,0:0:0:0:
320,192,47690,1,0,0:0:0:0:
448,192,47690,1,0,0:0:0:0:
192,192,47769,1,0,0:0:0:0:
448,192,47849,1,0,0:0:0:0:
192,192,47849,1,0,0:0:0:0:
64,192,47849,1,0,0:0:0:0:
64,192,47928,1,0,0:0:0:0:
320,192,48008,1,0,0:0:0:0:
448,192,48008,1,0,0:0:0:0:
64,192,48008,1,0,0:0:0:0:
320,192,48087,1,0,0:0:0:0:
448,192,48087,1,0,0:0:0:0:
448,192,48166,1,0,0:0:0:0:
192,192,48166,1,0,0:0:0:0:
64,192,48166,1,0,0:0:0:0:
192,192,48246,1,0,0:0:0:0:
320,192,48325,1,0,0:0:0:0:
448,192,48325,1,0,0:0:0:0:
64,192,48325,1,0,0:0:0:0:
64,192,48404,1,0,0:0:0:0:
192,192,48484,1,0,0:0:0:0:
64,192,48484,1,0,0:0:0:0:
448,192,48484,1,0,0:0:0:0:
320,192,48484,1,0,0:0:0:0:
192,192,48563,1,0,0:0:0:0:
448,192,48642,1,0,0:0:0:0:
64,192,48642,1,0,0:0:0:0:
320,192,48669,1,0,0:0:0:0:
192,192,48696,1,0,0:0:0:0:
448,192,48749,1,0,0:0:0:0:
320,192,48801,1,0,0:0:0:0:
192,192,48801,1,0,0:0:0:0:
64,192,48801,1,0,0:0:0:0:
64,192,48881,1,0,0:0:0:0:
192,192,48960,1,0,0:0:0:0:
320,192,48960,1,0,0:0:0:0:
448,192,48960,1,0,0:0:0:0:
448,192,49039,1,0,0:0:0:0:
448,192,49119,1,0,0:0:0:0:
192,192,49119,1,0,0:0:0:0:
64,192,49119,1,0,0:0:0:0:
192,192,49198,1,0,0:0:0:0:
192,192,49277,1,0,0:0:0:0:
320,192,49277,1,0,0:0:0:0:
448,192,49277,1,0,0:0:0:0:
320,192,49356,1,0,0:0:0:0:
448,192,49436,1,0,0:0:0:0:
320,192,49436,1,0,0:0:0:0:
64,192,49436,1,0,0:0:0:0:
64,192,49516,1,0,0:0:0:0:
192,192,49595,1,0,0:0:0:0:
320,192,49595,1,0,0:0:0:0:
448,192,49595,1,0,0:0:0:0:
448,192,49674,1,0,0:0:0:0:
64,192,49754,1,0,0:0:0:0:
192,192,49754,1,0,0:0:0:0:
448,192,49754,1,0,0:0:0:0:
320,192,49754,1,0,0:0:0:0:
64,192,49833,1,0,0:0:0:0:
192,192,49833,1,0,0:0:0:0:
64,192,49912,1,0,0:0:0:0:
448,192,49912,1,0,0:0:0:0:
320,192,49912,1,0,0:0:0:0:
320,192,49991,1,0,0:0:0:0:
448,192,50071,1,0,0:0:0:0:
192,192,50071,1,0,0:0:0:0:
64,192,50071,1,0,0:0:0:0:
320,192,50151,1,0,0:0:0:0:
320,192,50230,1,0,0:0:0:0:
448,192,50230,1,0,0:0:0:0:
64,192,50230,1,0,0:0:0:0:
320,192,50309,1,0,0:0:0:0:
448,192,50389,1,0,0:0:0:0:
192,192,50389,1,0,0:0:0:0:
64,192,50389,1,0,0:0:0:0:
192,192,50468,1,0,0:0:0:0:
448,192,50547,1,0,0:0:0:0:
64,192,50547,1,0,0:0:0:0:
320,192,50574,1,0,0:0:0:0:
192,192,50600,1,0,0:0:0:0:
448,192,50666,1,0,0:0:0:0:
192,192,50706,1,0,0:0:0:0:
64,192,50746,1,0,0:0:0:0:
320,192,50785,1,0,0:0:0:0:
192,192,50812,1,0,0:0:0:0:
64,192,50839,1,0,0:0:0:0:
320,192,50865,1,0,0:0:0:0:
448,192,50865,1,0,0:0:0:0:
192,192,50891,1,0,0:0:0:0:
64,192,50918,1,0,0:0:0:0:
320,192,50971,1,0,0:0:0:0:
192,192,51024,1,0,0:0:0:0:
64,192,51024,1,0,0:0:0:0:
448,192,51050,1,0,0:0:0:0:
320,192,51076,1,0,0:0:0:0:
64,192,51103,1,0,0:0:0:0:
192,192,51129,1,0,0:0:0:0:
320,192,51156,1,0,0:0:0:0:
448,192,51182,1,0,0:0:0:0:
64,192,51182,1,0,0:0:0:0:
192,192,51222,1,0,0:0:0:0:
320,192,51261,1,0,0:0:0:0:
320,192,51341,1,0,0:0:0:0:
448,192,51341,1,0,0:0:0:0:
64,192,51341,1,0,0:0:0:0:
320,192,51420,1,0,0:0:0:0:
448,192,51499,1,0,0:0:0:0:
192,192,51499,1,0,0:0:0:0:
64,192,51499,1,0,0:0:0:0:
64,192,51579,1,0,0:0:0:0:
64,192,51659,1,0,0:0:0:0:
192,192,51659,1,0,0:0:0:0:
448,192,51659,1,0,0:0:0:0:
448,192,51738,1,0,0:0:0:0:
320,192,51817,1,0,0:0:0:0:
448,192,51817,1,0,0:0:0:0:
64,192,51817,1,0,0:0:0:0:
320,192,51896,1,0,0:0:0:0:
320,192,51976,1,0,0:0:0:0:
192,192,51976,1,0,0:0:0:0:
64,192,51976,1,0,0:0:0:0:
192,192,52055,1,0,0:0:0:0:
64,192,52134,1,0,0:0:0:0:
192,192,52134,1,0,0:0:0:0:
448,192,52134,1,0,0:0:0:0:
448,192,52214,1,0,0:0:0:0:
448,192,52294,1,0,0:0:0:0:
192,192,52294,1,0,0:0:0:0:
64,192,52294,1,0,0:0:0:0:
320,192,52294,1,0,0:0:0:0:
192,192,52373,1,0,0:0:0:0:
64,192,52373,1,0,0:0:0:0:
64,192,52452,1,0,0:0:0:0:
320,192,52452,1,0,0:0:0:0:
448,192,52452,1,0,0:0:0:0:
320,192,52531,1,0,0:0:0:0:
448,192,52611,1,0,0:0:0:0:
192,192,52611,1,0,0:0:0:0:
64,192,52611,1,0,0:0:0:0:
192,192,52690,1,0,0:0:0:0:
192,192,52769,1,0,0:0:0:0:
320,192,52769,1,0,0:0:0:0:
448,192,52769,1,0,0:0:0:0:
320,192,52849,1,0,0:0:0:0:
448,192,52928,1,0,0:0:0:0:
192,192,52928,1,0,0:0:0:0:
64,192,52928,1,0,0:0:0:0:
64,192,53008,1,0,0:0:0:0:
64,192,53087,1,0,0:0:0:0:
192,192,53087,1,0,0:0:0:0:
448,192,53087,1,0,0:0:0:0:
448,192,53166,1,0,0:0:0:0:
320,192,53166,1,0,0:0:0:0:
448,192,53246,1,0,0:0:0:0:
320,192,53246,1,0,0:0:0:0:
64,192,53246,1,0,0:0:0:0:
64,192,53325,1,0,0:0:0:0:
448,192,53404,1,0,0:0:0:0:
192,192,53404,1,0,0:0:0:0:
320,192,53404,1,0,0:0:0:0:
192,192,53484,1,0,0:0:0:0:
192,192,53563,1,0,0:0:0:0:
64,192,53563,1,0,0:0:0:0:
448,192,53563,1,0,0:0:0:0:
320,192,53563,1,0,0:0:0:0:
320,192,53642,1,0,0:0:0:0:
448,192,53722,1,0,0:0:0:0:
64,192,53722,1,0,0:0:0:0:
192,192,53761,1,0,0:0:0:0:
320,192,53801,1,0,0:0:0:0:
64,192,53841,1,0,0:0:0:0:
192,192,53881,1,0,0:0:0:0:
320,192,53881,1,0,0:0:0:0:
448,192,53881,1,0,0:0:0:0:
320,192,53960,1,0,0:0:0:0:
448,192,54039,1,0,0:0:0:0:
192,192,54039,1,0,0:0:0:0:
64,192,54039,1,0,0:0:0:0:
192,192,54119,1,0,0:0:0:0:
192,192,54198,1,0,0:0:0:0:
64,192,54198,1,0,0:0:0:0:
448,192,54198,1,0,0:0:0:0:
448,192,54277,1,0,0:0:0:0:
448,192,54356,1,0,0:0:0:0:
320,192,54356,1,0,0:0:0:0:
64,192,54356,1,0,0:0:0:0:
320,192,54436,1,0,0:0:0:0:
320,192,54516,1,0,0:0:0:0:
448,192,54516,1,0,0:0:0:0:
64,192,54516,1,0,0:0:0:0:
64,192,54595,1,0,0:0:0:0:
64,192,54674,1,0,0:0:0:0:
192,192,54674,1,0,0:0:0:0:
448,192,54674,1,0,0:0:0:0:
192,192,54754,1,0,0:0:0:0:
448,192,54833,1,0,0:0:0:0:
320,192,54833,1,0,0:0:0:0:
64,192,54833,1,0,0:0:0:0:
192,192,54833,1,0,0:0:0:0:
320,192,54912,1,0,0:0:0:0:
448,192,54912,1,0,0:0:0:0:
448,192,54991,1,0,0:0:0:0:
192,192,54991,1,0,0:0:0:0:
64,192,54991,1,0,0:0:0:0:
320,192,55071,1,0,0:0:0:0:
320,192,55151,1,0,0:0:0:0:
448,192,55151,1,0,0:0:0:0:
64,192,55151,1,0,0:0:0:0:
320,192,55230,1,0,0:0:0:0:
448,192,55309,1,0,0:0:0:0:
192,192,55309,1,0,0:0:0:0:
64,192,55309,1,0,0:0:0:0:
192,192,55389,1,0,0:0:0:0:
64,192,55468,1,0,0:0:0:0:
320,192,55468,1,0,0:0:0:0:
448,192,55468,1,0,0:0:0:0:
64,192,55547,1,0,0:0:0:0:
448,192,56261,1,0,0:0:0:0:
320,192,56261,1,0,0:0:0:0:
64,192,56261,1,0,0:0:0:0:
320,192,56341,1,0,0:0:0:0:
448,192,56420,1,0,0:0:0:0:
64,192,56420,1,0,0:0:0:0:
320,192,56420,1,0,0:0:0:0:
64,192,56499,1,0,0:0:0:0:
192,192,56579,1,0,0:0:0:0:
320,192,56579,1,0,0:0:0:0:
448,192,56579,1,0,0:0:0:0:
320,192,56659,1,0,0:0:0:0:
320,192,56738,1,0,0:0:0:0:
192,192,56738,1,0,0:0:0:0:
64,192,56738,1,0,0:0:0:0:
192,192,56817,1,0,0:0:0:0:
64,192,56896,1,0,0:0:0:0:
448,192,56896,1,0,0:0:0:0:
320,192,56923,1,0,0:0:0:0:
192,192,56949,1,0,0:0:0:0:
448,192,56976,1,0,0:0:0:0:
192,192,57055,1,0,0:0:0:0:
64,192,57055,1,0,0:0:0:0:
448,192,57055,1,0,0:0:0:0:
192,192,57134,1,0,0:0:0:0:
448,192,57214,1,0,0:0:0:0:
64,192,57214,1,0,0:0:0:0:
192,192,57241,1,0,0:0:0:0:
320,192,57267,1,0,0:0:0:0:
448,192,57294,1,0,0:0:0:0:
64,192,57320,1,0,0:0:0:0:
192,192,57346,1,0,0:0:0:0:
448,192,57373,1,0,0:0:0:0:
320,192,57373,1,0,0:0:0:0:
64,192,57412,1,0,0:0:0:0:
320,192,57452,1,0,0:0:0:0:
192,192,57491,1,0,0:0:0:0:
64,192,57531,1,0,0:0:0:0:
320,192,57531,1,0,0:0:0:0:
448,192,57531,1,0,0:0:0:0:
448,192,57611,1,0,0:0:0:0:
320,192,57690,1,0,0:0:0:0:
448,192,57690,1,0,0:0:0:0:
64,192,57690,1,0,0:0:0:0:
64,192,57769,1,0,0:0:0:0:
64,192,57849,1,0,0:0:0:0:
192,192,57849,1,0,0:0:0:0:
320,192,57849,1,0,0:0:0:0:
320,192,57928,1,0,0:0:0:0:
320,192,58008,1,0,0:0:0:0:
448,192,58008,1,0,0:0:0:0:
64,192,58008,1,0,0:0:0:0:
64,192,58087,1,0,0:0:0:0:
192,192,58166,1,0,0:0:0:0:
320,192,58166,1,0,0:0:0:0:
448,192,58166,1,0,0:0:0:0:
320,192,58246,1,0,0:0:0:0:
448,192,58246,1,0,0:0:0:0:
448,192,58325,1,0,0:0:0:0:
192,192,58325,1,0,0:0:0:0:
64,192,58325,1,0,0:0:0:0:
192,192,58404,1,0,0:0:0:0:
64,192,58484,1,0,0:0:0:0:
448,192,58484,1,0,0:0:0:0:
320,192,58510,1,0,0:0:0:0:
192,192,58536,1,0,0:0:0:0:
448,192,58563,1,0,0:0:0:0:
192,192,58603,1,0,0:0:0:0:
64,192,58642,1,0,0:0:0:0:
320,192,58642,1,0,0:0:0:0:
448,192,58642,1,0,0:0:0:0:
192,192,58682,1,0,0:0:0:0:
320,192,58722,1,0,0:0:0:0:
192,192,58761,1,0,0:0:0:0:
64,192,58801,1,0,0:0:0:0:
320,192,58801,1,0,0:0:0:0:
448,192,58801,1,0,0:0:0:0:
64,192,58881,1,0,0:0:0:0:
320,192,58960,1,0,0:0:0:0:
448,192,58960,1,0,0:0:0:0:
64,192,58960,1,0,0:0:0:0:
320,192,59039,1,0,0:0:0:0:
192,192,59119,1,0,0:0:0:0:
320,192,59119,1,0,0:0:0:0:
448,192,59119,1,0,0:0:0:0:
192,192,59198,1,0,0:0:0:0:
320,192,59277,1,0,0:0:0:0:
448,192,59277,1,0,0:0:0:0:
64,192,59277,1,0,0:0:0:0:
320,192,59356,1,0,0:0:0:0:
64,192,59436,1,0,0:0:0:0:
448,192,59436,1,0,0:0:0:0:
192,192,59463,1,0,0:0:0:0:
320,192,59489,1,0,0:0:0:0:
64,192,59516,1,0,0:0:0:0:
192,192,59595,1,0,0:0:0:0:
64,192,59595,1,0,0:0:0:0:
320,192,59595,1,0,0:0:0:0:
320,192,59674,1,0,0:0:0:0:
64,192,59754,1,0,0:0:0:0:
192,192,59754,1,0,0:0:0:0:
448,192,59754,1,0,0:0:0:0:
192,192,59833,1,0,0:0:0:0:
64,192,59833,1,0,0:0:0:0:
320,192,59873,1,0,0:0:0:0:
448,192,59912,1,0,0:0:0:0:
64,192,59912,1,0,0:0:0:0:
192,192,59939,1,0,0:0:0:0:
320,192,59965,1,0,0:0:0:0:
448,192,59991,1,0,0:0:0:0:
192,192,60018,1,0,0:0:0:0:
64,192,60044,1,0,0:0:0:0:
320,192,60071,1,0,0:0:0:0:
448,192,60071,1,0,0:0:0:0:
192,192,60151,1,0,0:0:0:0:
64,192,60230,1,0,0:0:0:0:
320,192,60230,1,0,0:0:0:0:
448,192,60230,1,0,0:0:0:0:
320,192,60309,1,0,0:0:0:0:
320,192,60389,1,0,0:0:0:0:
448,192,60389,1,0,0:0:0:0:
64,192,60389,1,0,0:0:0:0:
64,192,60468,1,0,0:0:0:0:
448,192,60547,1,0,0:0:0:0:
320,192,60547,1,0,0:0:0:0:
192,192,60574,1,0,0:0:0:0:
64,192,60600,1,0,0:0:0:0:
448,192,60626,1,0,0:0:0:0:
320,192,60653,1,0,0:0:0:0:
192,192,60679,1,0,0:0:0:0:
64,192,60706,1,0,0:0:0:0:
448,192,60706,1,0,0:0:0:0:
448,192,60759,1,0,0:0:0:0:
192,192,60812,1,0,0:0:0:0:
192,192,60865,1,0,0:0:0:0:
320,192,60918,1,0,0:0:0:0:
320,192,60971,1,0,0:0:0:0:
448,192,61024,1,0,0:0:0:0:
64,192,61024,1,0,0:0:0:0:
192,192,61050,1,0,0:0:0:0:
320,192,61076,1,0,0:0:0:0:
448,192,61103,1,0,0:0:0:0:
64,192,61129,1,0,0:0:0:0:
192,192,61156,1,0,0:0:0:0:
320,192,61182,1,0,0:0:0:0:
448,192,61182,1,0,0:0:0:0:
192,192,61222,1,0,0:0:0:0:
64,192,61261,1,0,0:0:0:0:
320,192,61301,1,0,0:0:0:0:
448,192,61341,5,0,0:0:0:0:
64,192,61341,1,0,0:0:0:0:
192,192,61420,1,0,0:0:0:0:
448,192,61420,1,0,0:0:0:0:
320,192,61499,1,0,0:0:0:0:
64,192,61499,1,0,0:0:0:0:
64,192,61579,1,0,0:0:0:0:
448,192,61579,1,0,0:0:0:0:
320,192,61659,1,0,0:0:0:0:
192,192,61659,1,0,0:0:0:0:
192,192,61738,1,0,0:0:0:0:
448,192,61738,1,0,0:0:0:0:
320,192,61817,1,0,0:0:0:0:
192,192,61896,1,0,0:0:0:0:
64,192,61976,1,0,0:0:0:0:
448,192,61976,1,0,0:0:0:0:
192,192,62055,1,0,0:0:0:0:
448,192,62055,1,0,0:0:0:0:
320,192,62134,1,0,0:0:0:0:
192,192,62214,1,0,0:0:0:0:
64,192,62294,1,0,0:0:0:0:
320,192,62294,1,0,0:0:0:0:
64,192,62373,1,0,0:0:0:0:
448,192,62373,1,0,0:0:0:0:
320,192,62452,1,0,0:0:0:0:
192,192,62452,1,0,0:0:0:0:
64,192,62611,1,0,0:0:0:0:
448,192,62611,1,0,0:0:0:0:
320,192,62690,1,0,0:0:0:0:
64,192,62690,1,0,0:0:0:0:
192,192,62769,1,0,0:0:0:0:
448,192,62769,1,0,0:0:0:0:
448,192,62849,1,0,0:0:0:0:
64,192,62849,1,0,0:0:0:0:
64,192,62928,1,0,0:0:0:0:
320,192,62928,1,0,0:0:0:0:
192,192,63008,1,0,0:0:0:0:
448,192,63008,1,0,0:0:0:0:
64,192,63087,1,0,0:0:0:0:
448,192,63087,1,0,0:0:0:0:
448,192,63246,1,0,0:0:0:0:
64,192,63246,1,0,0:0:0:0:
320,192,63325,1,0,0:0:0:0:
64,192,63325,1,0,0:0:0:0:
192,192,63404,1,0,0:0:0:0:
448,192,63404,1,0,0:0:0:0:
448,192,63563,1,0,0:0:0:0:
64,192,63563,1,0,0:0:0:0:
448,192,63881,5,0,0:0:0:0:
64,192,63881,1,0,0:0:0:0:
192,192,63960,1,0,0:0:0:0:
448,192,63960,1,0,0:0:0:0:
320,192,64039,1,0,0:0:0:0:
64,192,64039,1,0,0:0:0:0:
64,192,64119,1,0,0:0:0:0:
448,192,64119,1,0,0:0:0:0:
320,192,64198,1,0,0:0:0:0:
192,192,64198,1,0,0:0:0:0:
192,192,64277,1,0,0:0:0:0:
448,192,64277,1,0,0:0:0:0:
320,192,64356,1,0,0:0:0:0:
192,192,64436,1,0,0:0:0:0:
64,192,64516,1,0,0:0:0:0:
448,192,64516,1,0,0:0:0:0:
192,192,64595,1,0,0:0:0:0:
448,192,64595,1,0,0:0:0:0:
320,192,64674,1,0,0:0:0:0:
192,192,64754,1,0,0:0:0:0:
64,192,64833,1,0,0:0:0:0:
320,192,64833,1,0,0:0:0:0:
64,192,64912,1,0,0:0:0:0:
448,192,64912,1,0,0:0:0:0:
320,192,64991,1,0,0:0:0:0:
192,192,64991,1,0,0:0:0:0:
64,192,65151,1,0,0:0:0:0:
448,192,65151,1,0,0:0:0:0:
320,192,65230,1,0,0:0:0:0:
64,192,65230,1,0,0:0:0:0:
192,192,65309,1,0,0:0:0:0:
448,192,65309,1,0,0:0:0:0:
448,192,65389,1,0,0:0:0:0:
64,192,65389,1,0,0:0:0:0:
64,192,65468,1,0,0:0:0:0:
320,192,65468,1,0,0:0:0:0:
192,192,65547,1,0,0:0:0:0:
448,192,65547,1,0,0:0:0:0:
64,192,65626,1,0,0:0:0:0:
448,192,65626,1,0,0:0:0:0:
448,192,65785,1,0,0:0:0:0:
64,192,65785,1,0,0:0:0:0:
320,192,65865,1,0,0:0:0:0:
64,192,65865,1,0,0:0:0:0:
192,192,65944,1,0,0:0:0:0:
448,192,65944,1,0,0:0:0:0:
448,192,66103,1,0,0:0:0:0:
64,192,66103,1,0,0:0:0:0:
448,192,66420,1,0,0:0:0:0:
320,192,66420,1,0,0:0:0:0:
64,192,66420,1,0,0:0:0:0:
192,192,66499,1,0,0:0:0:0:
448,192,66499,1,0,0:0:0:0:
64,192,66579,1,0,0:0:0:0:
320,192,66579,1,0,0:0:0:0:
320,192,66659,1,0,0:0:0:0:
448,192,66659,1,0,0:0:0:0:
192,192,66738,1,0,0:0:0:0:
64,192,66738,1,0,0:0:0:0:
192,192,66817,1,0,0:0:0:0:
448,192,66817,1,0,0:0:0:0:
64,192,66896,1,0,0:0:0:0:
192,192,66976,1,0,0:0:0:0:
320,192,67055,1,0,0:0:0:0:
448,192,67055,1,0,0:0:0:0:
64,192,67055,1,0,0:0:0:0:
192,192,67134,1,0,0:0:0:0:
448,192,67134,1,0,0:0:0:0:
64,192,67214,1,0,0:0:0:0:
192,192,67294,1,0,0:0:0:0:
320,192,67373,1,0,0:0:0:0:
448,192,67373,1,0,0:0:0:0:
448,192,67452,1,0,0:0:0:0:
192,192,67452,1,0,0:0:0:0:
320,192,67531,1,0,0:0:0:0:
64,192,67531,1,0,0:0:0:0:
192,192,67611,1,0,0:0:0:0:
64,192,67690,1,0,0:0:0:0:
448,192,67690,1,0,0:0:0:0:
320,192,67690,1,0,0:0:0:0:
448,192,67769,1,0,0:0:0:0:
192,192,67769,1,0,0:0:0:0:
320,192,67849,1,0,0:0:0:0:
64,192,67849,1,0,0:0:0:0:
320,192,67928,1,0,0:0:0:0:
448,192,67928,1,0,0:0:0:0:
192,192,68008,1,0,0:0:0:0:
64,192,68008,1,0,0:0:0:0:
64,192,68087,1,0,0:0:0:0:
320,192,68087,1,0,0:0:0:0:
448,192,68166,1,0,0:0:0:0:
192,192,68166,1,0,0:0:0:0:
320,192,68246,1,0,0:0:0:0:
448,192,68325,1,0,0:0:0:0:
64,192,68325,1,0,0:0:0:0:
192,192,68325,1,0,0:0:0:0:
320,192,68404,1,0,0:0:0:0:
64,192,68404,1,0,0:0:0:0:
192,192,68484,1,0,0:0:0:0:
448,192,68484,1,0,0:0:0:0:
320,192,68484,1,0,0:0:0:0:
448,192,68642,1,0,0:0:0:0:
64,192,68642,1,0,0:0:0:0:
320,192,68642,1,0,0:0:0:0:
192,192,68801,1,0,0:0:0:0:
320,192,68801,1,0,0:0:0:0:
64,192,68960,1,0,0:0:0:0:
192,192,68960,1,0,0:0:0:0:
448,192,68960,1,0,0:0:0:0:
320,192,69039,1,0,0:0:0:0:
64,192,69039,1,0,0:0:0:0:
448,192,69119,1,0,0:0:0:0:
192,192,69119,1,0,0:0:0:0:
192,192,69198,1,0,0:0:0:0:
64,192,69198,1,0,0:0:0:0:
320,192,69277,1,0,0:0:0:0:
448,192,69277,1,0,0:0:0:0:
320,192,69356,1,0,0:0:0:0:
64,192,69356,1,0,0:0:0:0:
448,192,69436,1,0,0:0:0:0:
320,192,69516,1,0,0:0:0:0:
192,192,69595,1,0,0:0:0:0:
64,192,69595,1,0,0:0:0:0:
448,192,69595,1,0,0:0:0:0:
320,192,69674,1,0,0:0:0:0:
64,192,69674,1,0,0:0:0:0:
448,192,69754,1,0,0:0:0:0:
320,192,69833,1,0,0:0:0:0:
192,192,69912,1,0,0:0:0:0:
64,192,69912,1,0,0:0:0:0:
64,192,69991,1,0,0:0:0:0:
320,192,69991,1,0,0:0:0:0:
192,192,70071,1,0,0:0:0:0:
448,192,70071,1,0,0:0:0:0:
320,192,70151,1,0,0:0:0:0:
448,192,70230,1,0,0:0:0:0:
64,192,70230,1,0,0:0:0:0:
192,192,70230,1,0,0:0:0:0:
64,192,70309,1,0,0:0:0:0:
320,192,70309,1,0,0:0:0:0:
192,192,70389,1,0,0:0:0:0:
448,192,70389,1,0,0:0:0:0:
192,192,70468,1,0,0:0:0:0:
64,192,70468,1,0,0:0:0:0:
320,192,70547,1,0,0:0:0:0:
448,192,70547,1,0,0:0:0:0:
448,192,70626,1,0,0:0:0:0:
192,192,70626,1,0,0:0:0:0:
64,192,70706,1,0,0:0:0:0:
320,192,70706,1,0,0:0:0:0:
192,192,70785,1,0,0:0:0:0:
320,192,70865,1,0,0:0:0:0:
448,192,70865,1,0,0:0:0:0:
448,192,70944,1,0,0:0:0:0:
64,192,70944,1,0,0:0:0:0:
192,192,71024,1,0,0:0:0:0:
64,192,71024,1,0,0:0:0:0:
320,192,71182,1,0,0:0:0:0:
448,192,71182,1,0,0:0:0:0:
192,192,71499,1,0,0:0:0:0:
64,192,71499,1,0,0:0:0:0:
448,192,71499,1,0,0:0:0:0:
320,192,71499,1,0,0:0:0:0:
192,192,71579,1,0,0:0:0:0:
64,192,71579,1,0,0:0:0:0:
64,192,71659,1,0,0:0:0:0:
320,192,71659,1,0,0:0:0:0:
448,192,71659,1,0,0:0:0:0:
320,192,71738,1,0,0:0:0:0:
448,192,71738,1,0,0:0:0:0:
448,192,71817,1,0,0:0:0:0:
192,192,71817,1,0,0:0:0:0:
64,192,71817,1,0,0:0:0:0:
192,192,71896,1,0,0:0:0:0:
64,192,71896,1,0,0:0:0:0:
64,192,71976,1,0,0:0:0:0:
448,192,71976,1,0,0:0:0:0:
320,192,71976,1,0,0:0:0:0:
320,192,72055,1,0,0:0:0:0:
192,192,72055,1,0,0:0:0:0:
192,192,72134,1,0,0:0:0:0:
64,192,72134,1,0,0:0:0:0:
448,192,72134,1,0,0:0:0:0:
192,192,72214,1,0,0:0:0:0:
64,192,72214,1,0,0:0:0:0:
64,192,72294,1,0,0:0:0:0:
448,192,72294,1,0,0:0:0:0:
320,192,72294,1,0,0:0:0:0:
320,192,72373,1,0,0:0:0:0:
192,192,72373,1,0,0:0:0:0:
192,192,72452,1,0,0:0:0:0:
64,192,72452,1,0,0:0:0:0:
448,192,72452,1,0,0:0:0:0:
320,192,72531,1,0,0:0:0:0:
64,192,72531,1,0,0:0:0:0:
192,192,72611,1,0,0:0:0:0:
64,192,72611,1,0,0:0:0:0:
448,192,72611,1,0,0:0:0:0:
320,192,72690,1,0,0:0:0:0:
192,192,72690,1,0,0:0:0:0:
448,192,72769,1,0,0:0:0:0:
320,192,72769,1,0,0:0:0:0:
64,192,72769,1,0,0:0:0:0:
320,192,72849,1,0,0:0:0:0:
448,192,72849,1,0,0:0:0:0:
448,192,72928,1,0,0:0:0:0:
192,192,72928,1,0,0:0:0:0:
64,192,72928,1,0,0:0:0:0:
192,192,73008,1,0,0:0:0:0:
64,192,73008,1,0,0:0:0:0:
64,192,73087,1,0,0:0:0:0:
448,192,73087,1,0,0:0:0:0:
192,192,73087,1,0,0:0:0:0:
320,192,73166,1,0,0:0:0:0:
64,192,73166,1,0,0:0:0:0:
448,192,73246,1,0,0:0:0:0:
192,192,73246,1,0,0:0:0:0:
320,192,73246,1,0,0:0:0:0:
192,192,73325,1,0,0:0:0:0:
64,192,73404,1,0,0:0:0:0:
320,192,73404,1,0,0:0:0:0:
448,192,73404,1,0,0:0:0:0:
320,192,73484,1,0,0:0:0:0:
448,192,73484,1,0,0:0:0:0:
192,192,73484,1,0,0:0:0:0:
192,192,73563,1,0,0:0:0:0:
64,192,73563,1,0,0:0:0:0:
448,192,73563,1,0,0:0:0:0:
64,192,73642,1,0,0:0:0:0:
192,192,73722,1,0,0:0:0:0:
320,192,73722,1,0,0:0:0:0:
448,192,73722,1,0,0:0:0:0:
320,192,73801,1,0,0:0:0:0:
320,192,73881,1,0,0:0:0:0:
64,192,73881,1,0,0:0:0:0:
448,192,73881,1,0,0:0:0:0:
64,192,73960,1,0,0:0:0:0:
320,192,74039,1,0,0:0:0:0:
448,192,74039,1,0,0:0:0:0:
64,192,74039,1,0,0:0:0:0:
192,192,74039,1,0,0:0:0:0:
320,192,74119,1,0,0:0:0:0:
448,192,74119,1,0,0:0:0:0:
448,192,74198,1,0,0:0:0:0:
192,192,74198,1,0,0:0:0:0:
64,192,74198,1,0,0:0:0:0:
192,192,74277,1,0,0:0:0:0:
64,192,74277,1,0,0:0:0:0:
64,192,74356,1,0,0:0:0:0:
320,192,74356,1,0,0:0:0:0:
448,192,74356,1,0,0:0:0:0:
320,192,74436,1,0,0:0:0:0:
448,192,74436,1,0,0:0:0:0:
448,192,74516,1,0,0:0:0:0:
64,192,74516,1,0,0:0:0:0:
192,192,74516,1,0,0:0:0:0:
192,192,74595,1,0,0:0:0:0:
320,192,74595,1,0,0:0:0:0:
320,192,74674,1,0,0:0:0:0:
448,192,74674,1,0,0:0:0:0:
64,192,74674,1,0,0:0:0:0:
320,192,74754,1,0,0:0:0:0:
448,192,74754,1,0,0:0:0:0:
448,192,74833,1,0,0:0:0:0:
64,192,74833,1,0,0:0:0:0:
192,192,74833,1,0,0:0:0:0:
192,192,74912,1,0,0:0:0:0:
320,192,74912,1,0,0:0:0:0:
320,192,74991,1,0,0:0:0:0:
448,192,74991,1,0,0:0:0:0:
64,192,74991,1,0,0:0:0:0:
192,192,75071,1,0,0:0:0:0:
448,192,75071,1,0,0:0:0:0:
320,192,75151,1,0,0:0:0:0:
448,192,75151,1,0,0:0:0:0:
64,192,75151,1,0,0:0:0:0:
192,192,75230,1,0,0:0:0:0:
320,192,75230,1,0,0:0:0:0:
64,192,75309,1,0,0:0:0:0:
192,192,75309,1,0,0:0:0:0:
448,192,75309,1,0,0:0:0:0:
192,192,75389,1,0,0:0:0:0:
64,192,75389,1,0,0:0:0:0:
64,192,75468,1,0,0:0:0:0:
320,192,75468,1,0,0:0:0:0:
448,192,75468,1,0,0:0:0:0:
320,192,75547,1,0,0:0:0:0:
448,192,75547,1,0,0:0:0:0:
448,192,75626,1,0,0:0:0:0:
64,192,75626,1,0,0:0:0:0:
320,192,75626,1,0,0:0:0:0:
192,192,75706,1,0,0:0:0:0:
448,192,75706,1,0,0:0:0:0:
64,192,75785,1,0,0:0:0:0:
320,192,75785,1,0,0:0:0:0:
192,192,75785,1,0,0:0:0:0:
320,192,75865,1,0,0:0:0:0:
192,192,75944,1,0,0:0:0:0:
64,192,75944,1,0,0:0:0:0:
192,192,76024,1,0,0:0:0:0:
64,192,76024,1,0,0:0:0:0:
192,192,76103,1,0,0:0:0:0:
64,192,76103,1,0,0:0:0:0:
192,192,76182,1,0,0:0:0:0:
64,192,76182,1,0,0:0:0:0:
64,192,76261,1,0,0:0:0:0:
192,192,76261,1,0,0:0:0:0:
320,192,76288,1,0,0:0:0:0:
448,192,76314,1,0,0:0:0:0:
192,192,76367,1,0,0:0:0:0:
64,192,76420,1,0,0:0:0:0:
448,192,76420,1,0,0:0:0:0:
320,192,76446,1,0,0:0:0:0:
192,192,76473,1,0,0:0:0:0:
64,192,76499,1,0,0:0:0:0:
448,192,76526,1,0,0:0:0:0:
320,192,76553,1,0,0:0:0:0:
64,192,76579,1,0,0:0:0:0:
192,192,76579,1,0,0:0:0:0:
192,192,76659,1,0,0:0:0:0:
64,192,76659,1,0,0:0:0:0:
64,192,76738,1,0,0:0:0:0:
320,192,76738,1,0,0:0:0:0:
448,192,76738,1,0,0:0:0:0:
320,192,76817,1,0,0:0:0:0:
448,192,76817,1,0,0:0:0:0:
448,192,76896,1,0,0:0:0:0:
192,192,76896,1,0,0:0:0:0:
64,192,76896,1,0,0:0:0:0:
192,192,76976,1,0,0:0:0:0:
64,192,76976,1,0,0:0:0:0:
64,192,77055,1,0,0:0:0:0:
448,192,77055,1,0,0:0:0:0:
320,192,77055,1,0,0:0:0:0:
320,192,77134,1,0,0:0:0:0:
192,192,77134,1,0,0:0:0:0:
192,192,77214,1,0,0:0:0:0:
64,192,77214,1,0,0:0:0:0:
448,192,77214,1,0,0:0:0:0:
192,192,77294,1,0,0:0:0:0:
64,192,77294,1,0,0:0:0:0:
64,192,77373,1,0,0:0:0:0:
448,192,77373,1,0,0:0:0:0:
320,192,77373,1,0,0:0:0:0:
320,192,77452,1,0,0:0:0:0:
192,192,77452,1,0,0:0:0:0:
192,192,77531,1,0,0:0:0:0:
64,192,77531,1,0,0:0:0:0:
448,192,77531,1,0,0:0:0:0:
320,192,77611,1,0,0:0:0:0:
64,192,77611,1,0,0:0:0:0:
192,192,77690,1,0,0:0:0:0:
64,192,77690,1,0,0:0:0:0:
448,192,77690,1,0,0:0:0:0:
320,192,77769,1,0,0:0:0:0:
192,192,77769,1,0,0:0:0:0:
448,192,77849,1,0,0:0:0:0:
320,192,77849,1,0,0:0:0:0:
64,192,77849,1,0,0:0:0:0:
320,192,77928,1,0,0:0:0:0:
448,192,77928,1,0,0:0:0:0:
448,192,78008,1,0,0:0:0:0:
192,192,78008,1,0,0:0:0:0:
64,192,78008,1,0,0:0:0:0:
192,192,78087,1,0,0:0:0:0:
64,192,78087,1,0,0:0:0:0:
64,192,78166,1,0,0:0:0:0:
448,192,78166,1,0,0:0:0:0:
192,192,78166,1,0,0:0:0:0:
320,192,78246,1,0,0:0:0:0:
64,192,78246,1,0,0:0:0:0:
448,192,78325,1,0,0:0:0:0:
192,192,78325,1,0,0:0:0:0:
320,192,78325,1,0,0:0:0:0:
192,192,78404,1,0,0:0:0:0:
64,192,78484,1,0,0:0:0:0:
320,192,78484,1,0,0:0:0:0:
448,192,78484,1,0,0:0:0:0:
320,192,78563,1,0,0:0:0:0:
448,192,78563,1,0,0:0:0:0:
192,192,78563,1,0,0:0:0:0:
192,192,78642,1,0,0:0:0:0:
64,192,78642,1,0,0:0:0:0:
448,192,78642,1,0,0:0:0:0:
64,192,78722,1,0,0:0:0:0:
192,192,78801,1,0,0:0:0:0:
320,192,78801,1,0,0:0:0:0:
448,192,78801,1,0,0:0:0:0:
320,192,78881,1,0,0:0:0:0:
320,192,78960,1,0,0:0:0:0:
64,192,78960,1,0,0:0:0:0:
448,192,78960,1,0,0:0:0:0:
64,192,79039,1,0,0:0:0:0:
192,192,79119,1,0,0:0:0:0:
448,192,79119,1,0,0:0:0:0:
320,192,79119,1,0,0:0:0:0:
64,192,79119,1,0,0:0:0:0:
320,192,79198,1,0,0:0:0:0:
448,192,79198,1,0,0:0:0:0:
448,192,79277,1,0,0:0:0:0:
192,192,79277,1,0,0:0:0:0:
64,192,79277,1,0,0:0:0:0:
64,192,79356,1,0,0:0:0:0:
192,192,79356,1,0,0:0:0:0:
64,192,79436,1,0,0:0:0:0:
448,192,79436,1,0,0:0:0:0:
320,192,79436,1,0,0:0:0:0:
320,192,79516,1,0,0:0:0:0:
448,192,79516,1,0,0:0:0:0:
448,192,79595,1,0,0:0:0:0:
192,192,79595,1,0,0:0:0:0:
64,192,79595,1,0,0:0:0:0:
192,192,79674,1,0,0:0:0:0:
320,192,79674,1,0,0:0:0:0:
448,192,79754,1,0,0:0:0:0:
64,192,79754,1,0,0:0:0:0:
320,192,79754,1,0,0:0:0:0:
448,192,79833,1,0,0:0:0:0:
320,192,79833,1,0,0:0:0:0:
448,192,79912,1,0,0:0:0:0:
192,192,79912,1,0,0:0:0:0:
64,192,79912,1,0,0:0:0:0:
320,192,79991,1,0,0:0:0:0:
192,192,79991,1,0,0:0:0:0:
320,192,80071,1,0,0:0:0:0:
448,192,80071,1,0,0:0:0:0:
64,192,80071,1,0,0:0:0:0:
192,192,80151,1,0,0:0:0:0:
448,192,80151,1,0,0:0:0:0:
448,192,80230,1,0,0:0:0:0:
64,192,80230,1,0,0:0:0:0:
192,192,80230,1,0,0:0:0:0:
192,192,80309,1,0,0:0:0:0:
64,192,80309,1,0,0:0:0:0:
64,192,80389,1,0,0:0:0:0:
320,192,80389,1,0,0:0:0:0:
448,192,80389,1,0,0:0:0:0:
320,192,80468,1,0,0:0:0:0:
448,192,80468,1,0,0:0:0:0:
448,192,80547,1,0,0:0:0:0:
192,192,80547,1,0,0:0:0:0:
64,192,80547,1,0,0:0:0:0:
192,192,80626,1,0,0:0:0:0:
64,192,80626,1,0,0:0:0:0:
64,192,80706,1,0,0:0:0:0:
320,192,80706,1,0,0:0:0:0:
448,192,80706,1,0,0:0:0:0:
448,192,80785,1,0,0:0:0:0:
192,192,80785,1,0,0:0:0:0:
448,192,80865,1,0,0:0:0:0:
192,192,80865,1,0,0:0:0:0:
64,192,80865,1,0,0:0:0:0:
64,192,80944,1,0,0:0:0:0:
320,192,81024,1,0,0:0:0:0:
448,192,81024,1,0,0:0:0:0:
192,192,81063,1,0,0:0:0:0:
448,192,81103,1,0,0:0:0:0:
64,192,81142,1,0,0:0:0:0:
320,192,81182,1,0,0:0:0:0:
192,192,81222,1,0,0:0:0:0:
448,192,81261,1,0,0:0:0:0:
192,192,81301,1,0,0:0:0:0:
64,192,81341,1,0,0:0:0:0:
448,192,81341,1,0,0:0:0:0:
320,192,81367,1,0,0:0:0:0:
192,192,81394,1,0,0:0:0:0:
64,192,81420,1,0,0:0:0:0:
448,192,81446,1,0,0:0:0:0:
320,192,81473,1,0,0:0:0:0:
192,192,81499,1,0,0:0:0:0:
64,192,81526,1,0,0:0:0:0:
448,192,81553,1,0,0:0:0:0:
320,192,81579,1,0,0:0:0:0:
192,192,81606,1,0,0:0:0:0:
64,192,81632,1,0,0:0:0:0:
320,192,81659,1,0,0:0:0:0:
448,192,81659,1,0,0:0:0:0:
320,192,81738,1,0,0:0:0:0:
448,192,81738,1,0,0:0:0:0:
64,192,81817,1,0,0:0:0:0:
448,192,81817,1,0,0:0:0:0:
192,192,81817,1,0,0:0:0:0:
64,192,81896,1,0,0:0:0:0:
192,192,81896,1,0,0:0:0:0:
64,192,81976,1,0,0:0:0:0:
320,192,81976,1,0,0:0:0:0:
448,192,81976,1,0,0:0:0:0:
448,192,82055,1,0,0:0:0:0:
320,192,82055,1,0,0:0:0:0:
448,192,82134,1,0,0:0:0:0:
64,192,82134,1,0,0:0:0:0:
192,192,82134,1,0,0:0:0:0:
192,192,82214,1,0,0:0:0:0:
320,192,82214,1,0,0:0:0:0:
320,192,82294,1,0,0:0:0:0:
448,192,82294,1,0,0:0:0:0:
64,192,82294,1,0,0:0:0:0:
448,192,82373,1,0,0:0:0:0:
320,192,82373,1,0,0:0:0:0:
448,192,82452,1,0,0:0:0:0:
192,192,82452,1,0,0:0:0:0:
64,192,82452,1,0,0:0:0:0:
64,192,82531,1,0,0:0:0:0:
320,192,82531,1,0,0:0:0:0:
320,192,82611,1,0,0:0:0:0:
448,192,82611,1,0,0:0:0:0:
64,192,82611,1,0,0:0:0:0:
320,192,82690,1,0,0:0:0:0:
448,192,82690,1,0,0:0:0:0:
448,192,82769,1,0,0:0:0:0:
64,192,82769,1,0,0:0:0:0:
192,192,82769,1,0,0:0:0:0:
192,192,82849,1,0,0:0:0:0:
320,192,82849,1,0,0:0:0:0:
320,192,82928,1,0,0:0:0:0:
448,192,82928,1,0,0:0:0:0:
64,192,82928,1,0,0:0:0:0:
320,192,83008,1,0,0:0:0:0:
448,192,83008,1,0,0:0:0:0:
448,192,83087,1,0,0:0:0:0:
192,192,83087,1,0,0:0:0:0:
64,192,83087,1,0,0:0:0:0:
192,192,83166,1,0,0:0:0:0:
64,192,83166,1,0,0:0:0:0:
320,192,83246,1,0,0:0:0:0:
448,192,83246,1,0,0:0:0:0:
64,192,83246,1,0,0:0:0:0:
320,192,83325,1,0,0:0:0:0:
448,192,83325,1,0,0:0:0:0:
448,192,83404,1,0,0:0:0:0:
192,192,83404,1,0,0:0:0:0:
64,192,83404,1,0,0:0:0:0:
448,192,83484,1,0,0:0:0:0:
320,192,83563,1,0,0:0:0:0:
192,192,83563,1,0,0:0:0:0:
64,192,83563,1,0,0:0:0:0:
192,192,83642,1,0,0:0:0:0:
64,192,83642,1,0,0:0:0:0:
64,192,83722,1,0,0:0:0:0:
320,192,83722,1,0,0:0:0:0:
448,192,83722,1,0,0:0:0:0:
320,192,83801,1,0,0:0:0:0:
448,192,83881,1,0,0:0:0:0:
192,192,83881,1,0,0:0:0:0:
64,192,83881,1,0,0:0:0:0:
192,192,83960,1,0,0:0:0:0:
192,192,84039,1,0,0:0:0:0:
64,192,84039,1,0,0:0:0:0:
448,192,84039,1,0,0:0:0:0:
448,192,84119,1,0,0:0:0:0:
448,192,84198,1,0,0:0:0:0:
64,192,84198,1,0,0:0:0:0:
192,192,84198,1,0,0:0:0:0:
320,192,84198,1,0,0:0:0:0:
192,192,84277,1,0,0:0:0:0:
64,192,84277,1,0,0:0:0:0:
448,192,84356,1,0,0:0:0:0:
64,192,84356,1,0,0:0:0:0:
320,192,84356,1,0,0:0:0:0:
448,192,84436,1,0,0:0:0:0:
320,192,84436,1,0,0:0:0:0:
448,192,84516,1,0,0:0:0:0:
192,192,84516,1,0,0:0:0:0:
64,192,84516,1,0,0:0:0:0:
64,192,84595,1,0,0:0:0:0:
192,192,84595,1,0,0:0:0:0:
64,192,84674,1,0,0:0:0:0:
448,192,84674,1,0,0:0:0:0:
320,192,84674,1,0,0:0:0:0:
320,192,84754,1,0,0:0:0:0:
192,192,84754,1,0,0:0:0:0:
192,192,84833,1,0,0:0:0:0:
64,192,84833,1,0,0:0:0:0:
448,192,84833,1,0,0:0:0:0:
64,192,84912,1,0,0:0:0:0:
192,192,84912,1,0,0:0:0:0:
64,192,84991,1,0,0:0:0:0:
320,192,84991,1,0,0:0:0:0:
448,192,84991,1,0,0:0:0:0:
448,192,85071,1,0,0:0:0:0:
192,192,85071,1,0,0:0:0:0:
192,192,85151,1,0,0:0:0:0:
64,192,85151,1,0,0:0:0:0:
448,192,85151,1,0,0:0:0:0:
192,192,85230,1,0,0:0:0:0:
64,192,85230,1,0,0:0:0:0:
64,192,85309,1,0,0:0:0:0:
448,192,85309,1,0,0:0:0:0:
320,192,85309,1,0,0:0:0:0:
320,192,85389,1,0,0:0:0:0:
192,192,85389,1,0,0:0:0:0:
192,192,85468,1,0,0:0:0:0:
64,192,85468,1,0,0:0:0:0:
448,192,85468,1,0,0:0:0:0:
192,192,85547,1,0,0:0:0:0:
64,192,85547,1,0,0:0:0:0:
64,192,85626,1,0,0:0:0:0:
320,192,85626,1,0,0:0:0:0:
448,192,85626,1,0,0:0:0:0:
320,192,85706,1,0,0:0:0:0:
448,192,85706,1,0,0:0:0:0:
192,192,85785,1,0,0:0:0:0:
64,192,85785,1,0,0:0:0:0:
448,192,85785,1,0,0:0:0:0:
192,192,85865,1,0,0:0:0:0:
64,192,85865,1,0,0:0:0:0:
64,192,85944,1,0,0:0:0:0:
320,192,85944,1,0,0:0:0:0:
448,192,85944,1,0,0:0:0:0:
64,192,86024,1,0,0:0:0:0:
320,192,86103,1,0,0:0:0:0:
448,192,86103,1,0,0:0:0:0:
192,192,86182,1,0,0:0:0:0:
448,192,86182,1,0,0:0:0:0:
192,192,86261,1,0,0:0:0:0:
64,192,86261,1,0,0:0:0:0:
320,192,86341,1,0,0:0:0:0:
64,192,86420,1,0,0:0:0:0:
448,192,86420,1,0,0:0:0:0:
320,192,86446,1,0,0:0:0:0:
192,192,86473,1,0,0:0:0:0:
320,192,86526,1,0,0:0:0:0:
64,192,86579,1,0,0:0:0:0:
448,192,86579,1,0,0:0:0:0:
192,192,86606,1,0,0:0:0:0:
320,192,86632,1,0,0:0:0:0:
448,192,86659,1,0,0:0:0:0:
64,192,86685,1,0,0:0:0:0:
192,192,86711,1,0,0:0:0:0:
448,192,86738,1,0,0:0:0:0:
320,192,86738,1,0,0:0:0:0:
448,192,86817,1,0,0:0:0:0:
320,192,86817,1,0,0:0:0:0:
192,192,86896,1,0,0:0:0:0:
448,192,86896,1,0,0:0:0:0:
64,192,86896,1,0,0:0:0:0:
192,192,86976,1,0,0:0:0:0:
64,192,86976,1,0,0:0:0:0:
448,192,87055,1,0,0:0:0:0:
320,192,87055,1,0,0:0:0:0:
64,192,87055,1,0,0:0:0:0:
320,192,87134,1,0,0:0:0:0:
448,192,87134,1,0,0:0:0:0:
192,192,87214,1,0,0:0:0:0:
64,192,87214,1,0,0:0:0:0:
448,192,87214,1,0,0:0:0:0:
320,192,87294,1,0,0:0:0:0:
192,192,87294,1,0,0:0:0:0:
64,192,87373,1,0,0:0:0:0:
448,192,87373,1,0,0:0:0:0:
320,192,87373,1,0,0:0:0:0:
320,192,87452,1,0,0:0:0:0:
448,192,87452,1,0,0:0:0:0:
64,192,87531,1,0,0:0:0:0:
192,192,87531,1,0,0:0:0:0:
448,192,87531,1,0,0:0:0:0:
320,192,87611,1,0,0:0:0:0:
64,192,87611,1,0,0:0:0:0:
64,192,87690,1,0,0:0:0:0:
448,192,87690,1,0,0:0:0:0:
320,192,87690,1,0,0:0:0:0:
448,192,87769,1,0,0:0:0:0:
320,192,87769,1,0,0:0:0:0:
192,192,87849,1,0,0:0:0:0:
64,192,87849,1,0,0:0:0:0:
448,192,87849,1,0,0:0:0:0:
320,192,87928,1,0,0:0:0:0:
192,192,87928,1,0,0:0:0:0:
64,192,88008,1,0,0:0:0:0:
448,192,88008,1,0,0:0:0:0:
320,192,88008,1,0,0:0:0:0:
448,192,88087,1,0,0:0:0:0:
320,192,88087,1,0,0:0:0:0:
64,192,88166,1,0,0:0:0:0:
192,192,88166,1,0,0:0:0:0:
448,192,88166,1,0,0:0:0:0:
64,192,88246,1,0,0:0:0:0:
192,192,88246,1,0,0:0:0:0:
64,192,88325,1,0,0:0:0:0:
448,192,88325,1,0,0:0:0:0:
320,192,88325,1,0,0:0:0:0:
448,192,88404,1,0,0:0:0:0:
320,192,88404,1,0,0:0:0:0:
64,192,88484,1,0,0:0:0:0:
192,192,88484,1,0,0:0:0:0:
448,192,88484,1,0,0:0:0:0:
448,192,88563,1,0,0:0:0:0:
64,192,88642,1,0,0:0:0:0:
192,192,88642,1,0,0:0:0:0:
320,192,88642,1,0,0:0:0:0:
64,192,88722,1,0,0:0:0:0:
192,192,88722,1,0,0:0:0:0:
448,192,88801,1,0,0:0:0:0:
320,192,88801,1,0,0:0:0:0:
64,192,88801,1,0,0:0:0:0:
320,192,88881,1,0,0:0:0:0:
64,192,88960,1,0,0:0:0:0:
192,192,88960,1,0,0:0:0:0:
448,192,88960,1,0,0:0:0:0:
192,192,89039,1,0,0:0:0:0:
448,192,89119,1,0,0:0:0:0:
64,192,89119,1,0,0:0:0:0:
192,192,89119,1,0,0:0:0:0:
448,192,89198,1,0,0:0:0:0:
64,192,89277,1,0,0:0:0:0:
448,192,89277,1,0,0:0:0:0:
192,192,89317,1,0,0:0:0:0:
320,192,89356,1,0,0:0:0:0:
64,192,89396,1,0,0:0:0:0:
192,192,89436,1,0,0:0:0:0:
320,192,89436,1,0,0:0:0:0:
448,192,89436,1,0,0:0:0:0:
192,192,89516,1,0,0:0:0:0:
448,192,89516,1,0,0:0:0:0:
320,192,89595,1,0,0:0:0:0:
448,192,89595,1,0,0:0:0:0:
64,192,89595,1,0,0:0:0:0:
192,192,89674,1,0,0:0:0:0:
64,192,89674,1,0,0:0:0:0:
64,192,89754,1,0,0:0:0:0:
320,192,89754,1,0,0:0:0:0:
448,192,89754,1,0,0:0:0:0:
320,192,89833,1,0,0:0:0:0:
448,192,89833,1,0,0:0:0:0:
448,192,89912,1,0,0:0:0:0:
192,192,89912,1,0,0:0:0:0:
64,192,89912,1,0,0:0:0:0:
64,192,89991,1,0,0:0:0:0:
320,192,89991,1,0,0:0:0:0:
192,192,90071,1,0,0:0:0:0:
320,192,90071,1,0,0:0:0:0:
448,192,90071,1,0,0:0:0:0:
320,192,90151,1,0,0:0:0:0:
448,192,90151,1,0,0:0:0:0:
448,192,90230,1,0,0:0:0:0:
192,192,90230,1,0,0:0:0:0:
64,192,90230,1,0,0:0:0:0:
192,192,90309,1,0,0:0:0:0:
320,192,90309,1,0,0:0:0:0:
320,192,90389,1,0,0:0:0:0:
448,192,90389,1,0,0:0:0:0:
64,192,90389,1,0,0:0:0:0:
192,192,90468,1,0,0:0:0:0:
64,192,90468,1,0,0:0:0:0:
320,192,90547,1,0,0:0:0:0:
448,192,90547,1,0,0:0:0:0:
64,192,90574,1,0,0:0:0:0:
192,192,90600,1,0,0:0:0:0:
320,192,90626,1,0,0:0:0:0:
448,192,90626,1,0,0:0:0:0:
448,192,90706,1,0,0:0:0:0:
192,192,90706,1,0,0:0:0:0:
64,192,90706,1,0,0:0:0:0:
192,192,90785,1,0,0:0:0:0:
320,192,90785,1,0,0:0:0:0:
320,192,90865,1,0,0:0:0:0:
448,192,90865,1,0,0:0:0:0:
64,192,90865,1,0,0:0:0:0:
192,192,90944,1,0,0:0:0:0:
64,192,90944,1,0,0:0:0:0:
192,192,91024,1,0,0:0:0:0:
320,192,91024,1,0,0:0:0:0:
448,192,91024,1,0,0:0:0:0:
320,192,91103,1,0,0:0:0:0:
448,192,91103,1,0,0:0:0:0:
192,192,91499,1,0,0:0:0:0:
64,192,91499,1,0,0:0:0:0:
192,192,91579,1,0,0:0:0:0:
64,192,91579,1,0,0:0:0:0:
448,192,91659,1,0,0:0:0:0:
64,192,91659,1,0,0:0:0:0:
192,192,91685,1,0,0:0:0:0:
320,192,91711,1,0,0:0:0:0:
448,192,91738,1,0,0:0:0:0:
64,192,91764,1,0,0:0:0:0:
192,192,91791,1,0,0:0:0:0:
448,192,91817,1,0,0:0:0:0:
320,192,91817,1,0,0:0:0:0:
448,192,91896,1,0,0:0:0:0:
320,192,91896,1,0,0:0:0:0:
64,192,91976,1,0,0:0:0:0:
192,192,91976,1,0,0:0:0:0:
448,192,91976,1,0,0:0:0:0:
64,192,92055,1,0,0:0:0:0:
192,192,92055,1,0,0:0:0:0:
448,192,92134,1,0,0:0:0:0:
320,192,92134,1,0,0:0:0:0:
64,192,92134,1,0,0:0:0:0:
448,192,92214,1,0,0:0:0:0:
320,192,92214,1,0,0:0:0:0:
192,192,92294,1,0,0:0:0:0:
64,192,92294,1,0,0:0:0:0:
448,192,92294,1,0,0:0:0:0:
320,192,92373,1,0,0:0:0:0:
192,192,92373,1,0,0:0:0:0:
64,192,92452,1,0,0:0:0:0:
448,192,92452,1,0,0:0:0:0:
320,192,92452,1,0,0:0:0:0:
448,192,92531,1,0,0:0:0:0:
320,192,92531,1,0,0:0:0:0:
192,192,92611,1,0,0:0:0:0:
64,192,92611,1,0,0:0:0:0:
448,192,92611,1,0,0:0:0:0:
320,192,92690,1,0,0:0:0:0:
192,192,92690,1,0,0:0:0:0:
64,192,92769,1,0,0:0:0:0:
448,192,92769,1,0,0:0:0:0:
192,192,92849,1,0,0:0:0:0:
448,192,92849,1,0,0:0:0:0:
320,192,92928,1,0,0:0:0:0:
64,192,92928,1,0,0:0:0:0:
448,192,93087,1,0,0:0:0:0:
320,192,93087,1,0,0:0:0:0:
64,192,93087,1,0,0:0:0:0:
320,192,93166,1,0,0:0:0:0:
448,192,93166,1,0,0:0:0:0:
448,192,93246,1,0,0:0:0:0:
192,192,93246,1,0,0:0:0:0:
64,192,93246,1,0,0:0:0:0:
192,192,93325,1,0,0:0:0:0:
64,192,93325,1,0,0:0:0:0:
64,192,93404,1,0,0:0:0:0:
448,192,93404,1,0,0:0:0:0:
192,192,93404,1,0,0:0:0:0:
320,192,93484,1,0,0:0:0:0:
64,192,93484,1,0,0:0:0:0:
448,192,93563,1,0,0:0:0:0:
320,192,93563,1,0,0:0:0:0:
64,192,93563,1,0,0:0:0:0:
448,192,93642,1,0,0:0:0:0:
64,192,93722,1,0,0:0:0:0:
320,192,93722,1,0,0:0:0:0:
448,192,93722,1,0,0:0:0:0:
192,192,93722,1,0,0:0:0:0:
320,192,93801,1,0,0:0:0:0:
448,192,93801,1,0,0:0:0:0:
192,192,93801,1,0,0:0:0:0:
192,192,93881,1,0,0:0:0:0:
64,192,93881,1,0,0:0:0:0:
320,192,93881,1,0,0:0:0:0:
64,192,93960,1,0,0:0:0:0:
320,192,94039,1,0,0:0:0:0:
448,192,94039,1,0,0:0:0:0:
192,192,94039,1,0,0:0:0:0:
64,192,94356,1,0,0:0:0:0:
192,192,94356,1,0,0:0:0:0:
448,192,94356,1,0,0:0:0:0:
64,192,94436,1,0,0:0:0:0:
192,192,94436,1,0,0:0:0:0:
448,192,94516,1,0,0:0:0:0:
320,192,94516,1,0,0:0:0:0:
64,192,94516,1,0,0:0:0:0:
448,192,94595,1,0,0:0:0:0:
320,192,94595,1,0,0:0:0:0:
64,192,94674,1,0,0:0:0:0:
192,192,94674,1,0,0:0:0:0:
448,192,94674,1,0,0:0:0:0:
64,192,94754,1,0,0:0:0:0:
192,192,94754,1,0,0:0:0:0:
320,192,94833,1,0,0:0:0:0:
448,192,94833,1,0,0:0:0:0:
64,192,94833,1,0,0:0:0:0:
192,192,94912,1,0,0:0:0:0:
320,192,94912,1,0,0:0:0:0:
448,192,94991,1,0,0:0:0:0:
64,192,94991,1,0,0:0:0:0:
192,192,94991,1,0,0:0:0:0:
64,192,95071,1,0,0:0:0:0:
192,192,95071,1,0,0:0:0:0:
320,192,95151,1,0,0:0:0:0:
448,192,95151,1,0,0:0:0:0:
64,192,95151,1,0,0:0:0:0:
192,192,95230,1,0,0:0:0:0:
320,192,95230,1,0,0:0:0:0:
448,192,95309,1,0,0:0:0:0:
64,192,95309,1,0,0:0:0:0:
320,192,95389,1,0,0:0:0:0:
64,192,95389,1,0,0:0:0:0:
192,192,95468,1,0,0:0:0:0:
448,192,95468,1,0,0:0:0:0:
64,192,95626,1,0,0:0:0:0:
192,192,95626,1,0,0:0:0:0:
448,192,95626,1,0,0:0:0:0:
192,192,95706,1,0,0:0:0:0:
64,192,95706,1,0,0:0:0:0:
64,192,95785,1,0,0:0:0:0:
320,192,95785,1,0,0:0:0:0:
448,192,95785,1,0,0:0:0:0:
320,192,95865,1,0,0:0:0:0:
448,192,95865,1,0,0:0:0:0:
320,192,95944,1,0,0:0:0:0:
448,192,95944,1,0,0:0:0:0:
64,192,95944,1,0,0:0:0:0:
448,192,96024,1,0,0:0:0:0:
192,192,96024,1,0,0:0:0:0:
64,192,96103,1,0,0:0:0:0:
192,192,96103,1,0,0:0:0:0:
320,192,96103,1,0,0:0:0:0:
320,192,96182,1,0,0:0:0:0:
64,192,96261,1,0,0:0:0:0:
448,192,96261,1,0,0:0:0:0:
192,192,96288,1,0,0:0:0:0:
320,192,96314,1,0,0:0:0:0:
448,192,96341,1,0,0:0:0:0:
64,192,96367,1,0,0:0:0:0:
192,192,96394,1,0,0:0:0:0:
320,192,96420,1,0,0:0:0:0:
448,192,96420,1,0,0:0:0:0:
64,192,96446,1,0,0:0:0:0:
192,192,96473,1,0,0:0:0:0:
448,192,96499,1,0,0:0:0:0:
320,192,96526,1,0,0:0:0:0:
192,192,96553,1,0,0:0:0:0:
448,192,96579,1,0,0:0:0:0:
64,192,96579,1,0,0:0:0:0:
320,192,96619,1,0,0:0:0:0:
192,192,96659,1,0,0:0:0:0:
64,192,96685,1,0,0:0:0:0:
320,192,96711,1,0,0:0:0:0:
448,192,96738,1,0,0:0:0:0:
192,192,96777,1,0,0:0:0:0:
64,192,96817,1,0,0:0:0:0:
320,192,96856,1,0,0:0:0:0:
192,192,96896,1,0,0:0:0:0:
64,192,96896,1,0,0:0:0:0:
448,192,96896,1,0,0:0:0:0:
192,192,96976,1,0,0:0:0:0:
64,192,96976,1,0,0:0:0:0:
64,192,97055,1,0,0:0:0:0:
448,192,97055,1,0,0:0:0:0:
320,192,97055,1,0,0:0:0:0:
320,192,97134,1,0,0:0:0:0:
448,192,97134,1,0,0:0:0:0:
448,192,97214,1,0,0:0:0:0:
192,192,97214,1,0,0:0:0:0:
64,192,97214,1,0,0:0:0:0:
192,192,97294,1,0,0:0:0:0:
64,192,97294,1,0,0:0:0:0:
64,192,97373,1,0,0:0:0:0:
320,192,97373,1,0,0:0:0:0:
448,192,97373,1,0,0:0:0:0:
192,192,97452,1,0,0:0:0:0:
448,192,97452,1,0,0:0:0:0:
320,192,97531,1,0,0:0:0:0:
448,192,97531,1,0,0:0:0:0:
64,192,97531,1,0,0:0:0:0:
320,192,97611,1,0,0:0:0:0:
448,192,97611,1,0,0:0:0:0:
448,192,97690,1,0,0:0:0:0:
192,192,97690,1,0,0:0:0:0:
64,192,97690,1,0,0:0:0:0:
64,192,97769,1,0,0:0:0:0:
320,192,97769,1,0,0:0:0:0:
448,192,97849,128,0,98087:0:0:0:0:
192,192,98008,128,0,98166:0:0:0:0:
320,192,98166,1,0,0:0:0:0:
448,192,98166,1,0,0:0:0:0:
64,192,98166,1,0,0:0:0:0:
320,192,98246,1,0,0:0:0:0:
448,192,98246,1,0,0:0:0:0:
448,192,98325,1,0,0:0:0:0:
192,192,98325,1,0,0:0:0:0:
64,192,98325,1,0,0:0:0:0:
192,192,98404,1,0,0:0:0:0:
64,192,98404,1,0,0:0:0:0:
64,192,98484,1,0,0:0:0:0:
320,192,98484,1,0,0:0:0:0:
448,192,98484,1,0,0:0:0:0:
448,192,98563,1,0,0:0:0:0:
320,192,98563,1,0,0:0:0:0:
448,192,98642,1,0,0:0:0:0:
192,192,98642,1,0,0:0:0:0:
64,192,98642,1,0,0:0:0:0:
320,192,98722,1,0,0:0:0:0:
192,192,98722,1,0,0:0:0:0:
320,192,98801,1,0,0:0:0:0:
448,192,98801,1,0,0:0:0:0:
64,192,98801,1,0,0:0:0:0:
192,192,98881,1,0,0:0:0:0:
64,192,98881,1,0,0:0:0:0:
448,192,98881,1,0,0:0:0:0:
320,192,98960,1,0,0:0:0:0:
448,192,98960,1,0,0:0:0:0:
192,192,98960,1,0,0:0:0:0:
320,192,99039,1,0,0:0:0:0:
448,192,99119,1,0,0:0:0:0:
64,192,99119,1,0,0:0:0:0:
192,192,99145,1,0,0:0:0:0:
320,192,99171,1,0,0:0:0:0:
448,192,99198,1,0,0:0:0:0:
64,192,99224,1,0,0:0:0:0:
192,192,99251,1,0,0:0:0:0:
320,192,99277,1,0,0:0:0:0:
448,192,99277,1,0,0:0:0:0:
64,192,99317,1,0,0:0:0:0:
320,192,99356,1,0,0:0:0:0:
448,192,99396,1,0,0:0:0:0:
192,192,99436,1,0,0:0:0:0:
64,192,99436,1,0,0:0:0:0:
64,192,99516,1,0,0:0:0:0:
192,192,99516,1,0,0:0:0:0:
64,192,99595,1,0,0:0:0:0:
320,192,99595,1,0,0:0:0:0:
448,192,99595,1,0,0:0:0:0:
320,192,99674,1,0,0:0:0:0:
448,192,99674,1,0,0:0:0:0:
448,192,99754,1,0,0:0:0:0:
192,192,99754,1,0,0:0:0:0:
64,192,99754,1,0,0:0:0:0:
192,192,99833,1,0,0:0:0:0:
64,192,99833,1,0,0:0:0:0:
64,192,99912,1,0,0:0:0:0:
320,192,99912,1,0,0:0:0:0:
448,192,99912,1,0,0:0:0:0:
192,192,99991,1,0,0:0:0:0:
448,192,99991,1,0,0:0:0:0:
320,192,100071,1,0,0:0:0:0:
448,192,100071,1,0,0:0:0:0:
64,192,100071,1,0,0:0:0:0:
320,192,100151,1,0,0:0:0:0:
448,192,100151,1,0,0:0:0:0:
320,192,100230,1,0,0:0:0:0:
192,192,100230,1,0,0:0:0:0:
64,192,100230,1,0,0:0:0:0:
192,192,100309,1,0,0:0:0:0:
64,192,100309,1,0,0:0:0:0:
448,192,100389,128,0,100626:0:0:0:0:
320,192,100468,128,0,100626:0:0:0:0:
192,192,100547,128,0,100626:0:0:0:0:
320,192,100706,1,0,0:0:0:0:
448,192,100706,1,0,0:0:0:0:
192,192,100706,1,0,0:0:0:0:
320,192,100785,1,0,0:0:0:0:
448,192,100785,1,0,0:0:0:0:
448,192,100865,1,0,0:0:0:0:
192,192,100865,1,0,0:0:0:0:
64,192,100865,1,0,0:0:0:0:
192,192,100944,1,0,0:0:0:0:
64,192,100944,1,0,0:0:0:0:
64,192,101024,1,0,0:0:0:0:
448,192,101024,1,0,0:0:0:0:
320,192,101024,1,0,0:0:0:0:
320,192,101103,1,0,0:0:0:0:
448,192,101103,1,0,0:0:0:0:
448,192,101182,5,0,0:0:0:0:
64,192,101182,1,0,0:0:0:0:
192,192,101209,1,0,0:0:0:0:
320,192,101235,1,0,0:0:0:0:
448,192,101261,1,0,0:0:0:0:
64,192,101288,1,0,0:0:0:0:
192,192,101314,1,0,0:0:0:0:
320,192,101341,1,0,0:0:0:0:
320,192,101976,128,0,102055:0:0:0:0:
192,192,102055,128,0,102134:0:0:0:0:
320,192,102134,128,0,102214:0:0:0:0:
192,192,102214,128,0,102294:0:0:0:0:
64,192,102294,1,0,0:0:0:0:
448,192,102294,1,0,0:0:0:0:
320,192,102320,1,0,0:0:0:0:
192,192,102346,1,0,0:0:0:0:
64,192,102373,1,0,0:0:0:0:
448,192,102399,1,0,0:0:0:0:
320,192,102426,1,0,0:0:0:0:
192,192,102452,1,0,0:0:0:0:
64,192,102452,1,0,0:0:0:0:
448,192,102491,1,0,0:0:0:0:
320,192,102531,1,0,0:0:0:0:
64,192,102571,1,0,0:0:0:0:
320,192,102611,1,0,0:0:0:0:
448,192,102611,1,0,0:0:0:0:
192,192,102611,1,0,0:0:0:0:
320,192,102690,1,0,0:0:0:0:
448,192,102769,1,0,0:0:0:0:
192,192,102769,1,0,0:0:0:0:
64,192,102769,1,0,0:0:0:0:
192,192,102849,1,0,0:0:0:0:
320,192,102928,1,0,0:0:0:0:
448,192,102928,1,0,0:0:0:0:
192,192,102968,1,0,0:0:0:0:
64,192,102968,1,0,0:0:0:0:
320,192,103008,1,0,0:0:0:0:
448,192,103008,1,0,0:0:0:0:
192,192,103047,1,0,0:0:0:0:
64,192,103047,1,0,0:0:0:0:
320,192,103087,1,0,0:0:0:0:
448,192,103087,1,0,0:0:0:0:
320,192,103166,1,0,0:0:0:0:
448,192,103166,1,0,0:0:0:0:
