osu file format v14

[General]
AudioFilename: audio.mp3
AudioLeadIn: 0
PreviewTime: 55241
Countdown: 0
SampleSet: Normal
StackLeniency: 0.7
Mode: 1
LetterboxInBreaks: 0
WidescreenStoryboard: 1

[Editor]
DistanceSpacing: 1.3
BeatDivisor: 4
GridSize: 32
TimelineZoom: 2.1

[Metadata]
Title:Mujikaku A Priori
TitleUnicode:無自覚アプリオリ
Artist:CoMETIK
ArtistUnicode:コメティック
Creator:ler1211
Version:Muzukashii
Source:アイドルマスター シャイニーカラーズ
Tags:THE IDOLM@STER SHINY COLORS idolmaster imas im@s shinycolors シャニマス shinymas imasSC シャニソン Song for Prism 斑鳩ルカ Ikaruga Luka 川口莉奈 Kawaguchi Rina 鈴木羽那 Suzuki Hana 三川華月 Mikawa Haruna 郁田はるき Haruki Ikuta 小澤麗那 Ozawa Rena japanese rock jrock j-rock video game
BeatmapID:4387945
BeatmapSetID:2092934

[Difficulty]
HPDrainRate:6
CircleSize:5
OverallDifficulty:5
ApproachRate:5
SliderMultiplier:1.4
SliderTickRate:1

[Events]
//Background and Video events
0,0,"SC_P_Ikaruga_Luca_SSR02+.jpg",0,100
//Break Periods
2,147907,153082
//Storyboard Layer 0 (Background)
//Storyboard Layer 1 (Fail)
//Storyboard Layer 2 (Pass)
//Storyboard Layer 3 (Foreground)
//Storyboard Layer 4 (Overlay)
//Storyboard Sound Samples

[TimingPoints]
585,410.958904109589,4,1,0,70,1,8
1406,410.958904109589,4,1,0,70,1,0
2998,-100,4,1,0,90,0,0
16303,-100,4,1,0,80,0,0
21029,-100,4,1,0,60,0,0
22570,-100,4,1,0,80,0,0
27705,-100,4,1,0,80,0,0
27808,-100,4,1,0,81,0,0
27910,-100,4,1,0,81,0,0
28013,-100,4,1,0,82,0,0
28116,-100,4,1,0,83,0,0
28219,-100,4,1,0,83,0,0
28321,-100,4,1,0,84,0,0
28424,-100,4,1,0,84,0,0
28527,-100,4,1,0,85,0,0
28630,-100,4,1,0,86,0,0
28732,-100,4,1,0,86,0,0
28835,-100,4,1,0,87,0,0
28938,-100,4,1,0,88,0,0
29041,-100,4,1,0,88,0,0
29143,-100,4,1,0,89,0,0
29246,-100,4,1,0,89,0,0
29349,-100,4,1,0,90,0,0
35823,-100,4,1,0,90,0,0
36029,-100,4,1,0,80,0,0
40755,-100,4,1,0,60,0,0
42450,-100,4,1,0,80,0,0
43221,-100,4,1,0,40,0,0
44042,-100,4,1,0,80,0,0
47431,-100,4,1,0,80,0,0
47465,-100,4,1,0,80,0,0
47499,-100,4,1,0,80,0,0
47534,-100,4,1,0,80,0,0
47568,-100,4,1,0,80,0,0
47602,-100,4,1,0,80,0,0
47636,-100,4,1,0,80,0,0
47671,-100,4,1,0,80,0,0
47705,-100,4,1,0,80,0,0
47739,-100,4,1,0,80,0,0
47773,-100,4,1,0,80,0,0
47808,-100,4,1,0,80,0,0
47842,-100,4,1,0,80,0,0
47876,-100,4,1,0,80,0,0
47910,-100,4,1,0,80,0,0
47945,-100,4,1,0,80,0,0
47979,-100,4,1,0,80,0,0
48013,-100,4,1,0,80,0,0
48047,-100,4,1,0,80,0,0
48082,-100,4,1,0,80,0,0
48116,-100,4,1,0,80,0,0
48150,-100,4,1,0,80,0,0
48184,-100,4,1,0,80,0,0
48219,-100,4,1,0,80,0,0
48253,-100,4,1,0,80,0,0
48287,-100,4,1,0,80,0,0
48321,-100,4,1,0,80,0,0
48356,-100,4,1,0,80,0,0
48390,-100,4,1,0,80,0,0
48424,-100,4,1,0,80,0,0
48458,-100,4,1,0,80,0,0
48493,-100,4,1,0,80,0,0
48527,-100,4,1,0,80,0,0
48561,-100,4,1,0,80,0,0
48595,-100,4,1,0,80,0,0
48630,-100,4,1,0,80,0,0
48664,-100,4,1,0,80,0,0
48698,-100,4,1,0,80,0,0
48732,-100,4,1,0,80,0,0
48767,-100,4,1,0,80,0,0
48801,-100,4,1,0,80,0,0
48835,-100,4,1,0,80,0,0
48869,-100,4,1,0,80,0,0
48904,-100,4,1,0,80,0,0
48938,-100,4,1,0,80,0,0
48972,-100,4,1,0,80,0,0
49006,-100,4,1,0,80,0,0
49041,-100,4,1,0,80,0,0
49075,-100,4,1,0,80,0,0
49178,-100,4,1,0,80,0,0
49280,-100,4,1,0,80,0,0
49383,-100,4,1,0,70,0,0
49486,-100,4,1,0,70,0,0
49589,-100,4,1,0,70,0,0
49691,-100,4,1,0,70,0,0
49794,-100,4,1,0,70,0,0
49897,-100,4,1,0,70,0,0
50000,-100,4,1,0,70,0,0
50102,-100,4,1,0,70,0,0
50205,-100,4,1,0,70,0,0
50308,-100,4,1,0,70,0,0
50411,-100,4,1,0,70,0,0
50513,-100,4,1,0,70,0,0
50616,-100,4,1,0,70,0,0
50719,-100,4,1,0,70,0,0
50822,-100,4,1,0,70,0,0
50924,-100,4,1,0,70,0,0
51027,-100,4,1,0,70,0,0
51130,-100,4,1,0,70,0,0
51233,-100,4,1,0,70,0,0
51335,-100,4,1,0,70,0,0
51438,-100,4,1,0,70,0,0
51541,-100,4,1,0,70,0,0
51643,-100,4,1,0,70,0,0
51746,-100,4,1,0,70,0,0
51849,-100,4,1,0,70,0,0
51952,-100,4,1,0,70,0,0
52054,-100,4,1,0,70,0,0
52157,-100,4,1,0,70,0,0
52260,-100,4,1,0,70,0,0
52313,-100,4,1,0,80,0,0
52362,-100,4,1,0,80,0,0
52465,-100,4,1,0,80,0,0
52567,-100,4,1,0,80,0,0
52670,-100,4,1,0,70,0,0
52773,-100,4,1,0,70,0,0
52876,-100,4,1,0,70,0,0
52978,-100,4,1,0,70,0,0
53081,-100,4,1,0,70,0,0
53184,-100,4,1,0,70,0,0
53287,-100,4,1,0,70,0,0
53389,-100,4,1,0,70,0,0
53492,-100,4,1,0,70,0,0
53595,-100,4,1,0,70,0,0
53698,-100,4,1,0,70,0,0
53751,-100,4,1,0,80,0,0
53906,-100,4,1,0,60,0,0
54676,-100,4,1,0,80,0,0
55549,-100,4,1,0,100,0,0
55652,-100,4,1,0,100,0,1
81234,-100,4,1,0,70,0,1
81851,-100,4,1,0,90,0,1
81953,-100,4,1,0,90,0,0
95207,-100,4,1,0,70,0,0
101628,-100,4,1,0,80,0,0
101677,-100,4,1,0,70,0,0
101780,-100,4,1,0,70,0,0
101882,-100,4,1,0,70,0,0
101985,-100,4,1,0,70,0,0
102088,-100,4,1,0,70,0,0
102191,-100,4,1,0,70,0,0
102293,-100,4,1,0,70,0,0
102396,-100,4,1,0,70,0,0
102499,-100,4,1,0,70,0,0
102602,-100,4,1,0,70,0,0
102704,-100,4,1,0,70,0,0
102807,-100,4,1,0,70,0,0
102910,-100,4,1,0,70,0,0
103013,-100,4,1,0,70,0,0
103115,-100,4,1,0,70,0,0
103218,-100,4,1,0,70,0,0
103321,-100,4,1,0,70,0,0
103424,-100,4,1,0,70,0,0
103526,-100,4,1,0,70,0,0
103629,-100,4,1,0,70,0,0
103732,-100,4,1,0,70,0,0
103835,-100,4,1,0,70,0,0
103937,-100,4,1,0,70,0,0
104040,-100,4,1,0,70,0,0
104143,-100,4,1,0,70,0,0
104245,-100,4,1,0,70,0,0
104348,-100,4,1,0,70,0,0
104451,-100,4,1,0,70,0,0
104502,-100,4,1,0,80,0,0
104554,-100,4,1,0,70,0,0
104656,-100,4,1,0,70,0,0
104759,-100,4,1,0,70,0,0
104862,-100,4,1,0,70,0,0
104965,-100,4,1,0,70,0,0
106609,-100,4,1,0,80,0,0
106643,-100,4,1,0,80,0,0
106677,-100,4,1,0,80,0,0
106712,-100,4,1,0,80,0,0
106746,-100,4,1,0,80,0,0
106780,-100,4,1,0,80,0,0
106814,-100,4,1,0,80,0,0
106849,-100,4,1,0,80,0,0
106883,-100,4,1,0,80,0,0
106917,-100,4,1,0,80,0,0
106951,-100,4,1,0,80,0,0
106986,-100,4,1,0,80,0,0
107020,-100,4,1,0,80,0,0
107054,-100,4,1,0,80,0,0
107088,-100,4,1,0,80,0,0
107123,-100,4,1,0,80,0,0
107157,-100,4,1,0,80,0,0
107191,-100,4,1,0,80,0,0
107225,-100,4,1,0,80,0,0
107260,-100,4,1,0,80,0,0
107294,-100,4,1,0,80,0,0
107328,-100,4,1,0,80,0,0
107362,-100,4,1,0,80,0,0
107397,-100,4,1,0,80,0,0
107431,-100,4,1,0,80,0,0
107465,-100,4,1,0,80,0,0
107499,-100,4,1,0,80,0,0
107534,-100,4,1,0,80,0,0
107568,-100,4,1,0,80,0,0
107602,-100,4,1,0,80,0,0
107636,-100,4,1,0,80,0,0
107671,-100,4,1,0,80,0,0
107705,-100,4,1,0,80,0,0
107739,-100,4,1,0,80,0,0
107773,-100,4,1,0,80,0,0
107808,-100,4,1,0,80,0,0
107842,-100,4,1,0,80,0,0
107876,-100,4,1,0,80,0,0
107910,-100,4,1,0,80,0,0
107945,-100,4,1,0,80,0,0
107979,-100,4,1,0,80,0,0
108013,-100,4,1,0,80,0,0
108047,-100,4,1,0,80,0,0
108082,-100,4,1,0,80,0,0
108116,-100,4,1,0,80,0,0
108150,-100,4,1,0,80,0,0
108184,-100,4,1,0,80,0,0
108219,-100,4,1,0,80,0,0
108253,-100,4,1,0,80,0,0
108356,-100,4,1,0,80,0,0
108458,-100,4,1,0,80,0,0
108561,-100,4,1,0,70,0,0
108664,-100,4,1,0,70,0,0
108767,-100,4,1,0,70,0,0
108869,-100,4,1,0,70,0,0
108972,-100,4,1,0,70,0,0
109075,-100,4,1,0,70,0,0
109178,-100,4,1,0,70,0,0
109280,-100,4,1,0,70,0,0
109383,-100,4,1,0,70,0,0
109486,-100,4,1,0,70,0,0
109589,-100,4,1,0,70,0,0
109691,-100,4,1,0,70,0,0
109794,-100,4,1,0,70,0,0
109897,-100,4,1,0,70,0,0
110000,-100,4,1,0,70,0,0
110102,-100,4,1,0,70,0,0
110205,-100,4,1,0,70,0,0
110308,-100,4,1,0,70,0,0
110411,-100,4,1,0,70,0,0
110513,-100,4,1,0,70,0,0
110616,-100,4,1,0,70,0,0
110719,-100,4,1,0,70,0,0
110821,-100,4,1,0,70,0,0
110924,-100,4,1,0,70,0,0
111027,-100,4,1,0,70,0,0
111130,-100,4,1,0,70,0,0
111232,-100,4,1,0,70,0,0
111335,-100,4,1,0,70,0,0
111438,-100,4,1,0,70,0,0
111491,-100,4,1,0,80,0,0
111540,-100,4,1,0,80,0,0
111643,-100,4,1,0,80,0,0
111745,-100,4,1,0,80,0,0
111848,-100,4,1,0,70,0,0
111951,-100,4,1,0,70,0,0
112054,-100,4,1,0,70,0,0
112156,-100,4,1,0,70,0,0
112259,-100,4,1,0,70,0,0
112362,-100,4,1,0,70,0,0
112465,-100,4,1,0,70,0,0
112567,-100,4,1,0,70,0,0
112670,-100,4,1,0,70,0,0
112773,-100,4,1,0,70,0,0
112876,-100,4,1,0,70,0,0
112929,-100,4,1,0,80,0,0
113084,-100,4,1,0,70,0,0
114779,-100,4,1,0,80,0,0
114826,-100,4,1,0,80,0,0
114929,-100,4,1,0,80,0,0
115031,-100,4,1,0,80,0,0
115134,-100,4,1,0,70,0,0
115237,-100,4,1,0,70,0,0
115340,-100,4,1,0,70,0,0
115442,-100,4,1,0,70,0,0
115545,-100,4,1,0,70,0,0
115648,-100,4,1,0,70,0,0
115751,-100,4,1,0,70,0,0
115853,-100,4,1,0,70,0,0
115956,-100,4,1,0,70,0,0
116059,-100,4,1,0,70,0,0
116162,-100,4,1,0,70,0,0
116264,-100,4,1,0,70,0,0
116367,-100,4,1,0,70,0,0
116470,-100,4,1,0,70,0,0
116573,-100,4,1,0,70,0,0
116675,-100,4,1,0,70,0,0
116778,-100,4,1,0,70,0,0
116881,-100,4,1,0,70,0,0
116984,-100,4,1,0,70,0,0
117086,-100,4,1,0,70,0,0
117189,-100,4,1,0,70,0,0
117292,-100,4,1,0,70,0,0
117394,-100,4,1,0,70,0,0
117497,-100,4,1,0,70,0,0
117600,-100,4,1,0,70,0,0
117703,-100,4,1,0,70,0,0
117805,-100,4,1,0,70,0,0
117908,-100,4,1,0,70,0,0
118011,-100,4,1,0,70,0,0
118064,-100,4,1,0,80,0,0
118113,-100,4,1,0,80,0,0
118216,-100,4,1,0,80,0,0
118318,-100,4,1,0,80,0,0
118421,-100,4,1,0,70,0,0
118524,-100,4,1,0,70,0,0
118627,-100,4,1,0,70,0,0
118729,-100,4,1,0,70,0,0
118832,-100,4,1,0,70,0,0
118935,-100,4,1,0,70,0,0
119038,-100,4,1,0,70,0,0
119140,-100,4,1,0,70,0,0
119243,-100,4,1,0,70,0,0
119346,-100,4,1,0,70,0,0
119449,-100,4,1,0,70,0,0
119502,-100,4,1,0,80,0,0
119660,-100,4,1,0,60,0,0
120430,-100,4,1,0,80,0,0
120582,-100,4,1,0,80,0,0
120685,-100,4,1,0,83,0,0
120787,-100,4,1,0,85,0,0
120890,-100,4,1,0,88,0,0
120993,-100,4,1,0,90,0,0
121096,-100,4,1,0,93,0,0
121198,-100,4,1,0,95,0,0
121301,-100,4,1,0,98,0,0
121405,-100,4,1,0,100,0,1
146885,-100,4,1,0,100,0,0
146988,-100,4,1,0,40,0,0
147604,-100,4,1,0,90,0,0
147810,-100,4,1,0,50,0,0
154179,-100,4,1,0,80,0,0
154385,-100,4,1,0,60,0,0
160806,-100,4,1,0,80,0,0
160960,-100,4,1,0,70,0,0
165532,-100,4,1,0,80,0,0
165787,-100,4,1,0,80,0,0
165890,-100,4,1,0,81,0,0
165992,-100,4,1,0,83,0,0
166095,-100,4,1,0,84,0,0
166198,-100,4,1,0,85,0,0
166301,-100,4,1,0,86,0,0
166403,-100,4,1,0,88,0,0
166506,-100,4,1,0,89,0,0
166609,-100,4,1,0,90,0,0
166712,-100,4,1,0,91,0,0
166814,-100,4,1,0,93,0,0
166917,-100,4,1,0,94,0,0
167020,-100,4,1,0,95,0,0
167123,-100,4,1,0,96,0,0
167225,-100,4,1,0,98,0,0
167328,-100,4,1,0,99,0,0
167433,-100,4,1,0,100,0,1
180584,-100,4,1,0,100,0,0
180686,-100,4,1,0,40,0,0
181714,-100,4,1,0,80,0,0
182330,-100,4,1,0,40,0,0
182947,-100,4,1,0,80,0,0
184179,-100,4,1,0,80,0,0
184590,-100,4,1,0,80,0,0
185001,-100,4,1,0,80,0,0
185412,-100,4,1,0,80,0,0
190395,-100,4,1,0,90,0,0
191885,-100,4,1,0,90,0,1
191988,-100,4,1,0,40,0,1
193323,-100,4,1,0,40,0,0
193632,-100,4,1,0,100,0,0
193734,-100,4,1,0,100,0,1
206166,-100,4,1,0,80,0,1
206474,-100,4,1,0,40,0,1
206782,-100,4,1,0,90,0,1
206885,-100,4,1,0,90,0,0

[HitObjects]
256,192,585,5,8,0:0:0:0:
256,192,790,1,8,0:0:0:0:
256,192,995,1,8,0:0:0:0:
256,192,1201,1,8,0:0:0:0:
256,192,1406,1,0,0:0:0:0:
256,192,1714,1,8,0:0:0:0:
256,192,2022,1,0,0:0:0:0:
256,192,2227,1,8,0:0:0:0:
256,192,2638,1,8,0:0:0:0:
256,192,2844,1,8,0:0:0:0:
256,192,3049,1,4,0:0:0:0:
256,192,3460,1,8,0:0:0:0:
256,192,3666,1,0,0:0:0:0:
256,192,3871,1,8,0:0:0:0:
256,192,4077,1,8,0:0:0:0:
256,192,4282,1,0,0:0:0:0:
256,192,4385,1,0,0:0:0:0:
256,192,4488,1,0,0:0:0:0:
256,192,4693,1,8,0:0:0:0:
256,192,4899,1,0,0:0:0:0:
256,192,5207,1,8,0:0:0:0:
256,192,5412,1,8,0:0:0:0:
256,192,5618,1,8,0:0:0:0:
256,192,5926,1,0,0:0:0:0:
256,192,6542,1,8,0:0:0:0:
256,192,6953,1,8,0:0:0:0:
256,192,7159,1,0,0:0:0:0:
256,192,7364,1,8,0:0:0:0:
256,192,7467,1,8,0:0:0:0:
256,192,7570,1,8,0:0:0:0:
256,192,7775,1,0,0:0:0:0:
256,192,7981,1,8,0:0:0:0:
256,192,8289,1,8,0:0:0:0:
256,192,8597,1,8,0:0:0:0:
256,192,8803,1,0,0:0:0:0:
256,192,9214,1,8,0:0:0:0:
256,192,9419,1,8,0:0:0:0:
256,192,9625,1,4,0:0:0:0:
256,192,10036,1,0,0:0:0:0:
256,192,10241,1,0,0:0:0:0:
256,192,10447,1,8,0:0:0:0:
256,192,10652,1,0,0:0:0:0:
256,192,10755,1,0,0:0:0:0:
256,192,10858,1,0,0:0:0:0:
256,192,11063,1,8,0:0:0:0:
256,192,11269,1,0,0:0:0:0:
256,192,11474,1,8,0:0:0:0:
256,192,11782,1,0,0:0:0:0:
256,192,11988,1,0,0:0:0:0:
256,192,12193,1,0,0:0:0:0:
256,192,12501,1,8,0:0:0:0:
256,192,13118,1,8,0:0:0:0:
256,192,13323,1,8,0:0:0:0:
256,192,13529,1,0,0:0:0:0:
256,192,13734,1,0,0:0:0:0:
256,192,13940,1,8,0:0:0:0:
256,192,14145,1,0,0:0:0:0:
256,192,14248,1,0,0:0:0:0:
256,192,14351,1,0,0:0:0:0:
256,192,14556,1,12,0:0:0:0:
256,192,14864,1,12,0:0:0:0:
256,192,15173,1,12,0:0:0:0:
256,192,15378,1,0,0:0:0:0:
256,192,15584,1,0,0:0:0:0:
256,192,15789,1,8,0:0:0:0:
256,192,16200,1,4,0:0:0:0:
256,192,16508,1,0,0:0:0:0:
256,192,16816,1,0,0:0:0:0:
256,192,17433,1,8,0:0:0:0:
256,192,17844,1,0,0:0:0:0:
256,192,18049,1,8,0:0:0:0:
256,192,18255,1,8,0:0:0:0:
256,192,18460,1,0,0:0:0:0:
256,192,18666,1,8,0:0:0:0:
256,192,18871,1,0,0:0:0:0:
256,192,19077,1,8,0:0:0:0:
256,192,19282,1,8,0:0:0:0:
256,192,19488,1,0,0:0:0:0:
256,192,19796,1,0,0:0:0:0:
256,192,20104,1,0,0:0:0:0:
256,192,20515,1,0,0:0:0:0:
256,192,20721,1,8,0:0:0:0:
256,192,21132,1,8,0:0:0:0:
256,192,21337,1,8,0:0:0:0:
256,192,21542,1,0,0:0:0:0:
256,192,21748,1,0,0:0:0:0:
256,192,21953,1,8,0:0:0:0:
256,192,22159,1,0,0:0:0:0:
256,192,22364,1,8,0:0:0:0:
256,192,22467,1,8,0:0:0:0:
256,192,22775,1,4,0:0:0:0:
256,192,23084,1,0,0:0:0:0:
256,192,23392,1,0,0:0:0:0:
256,192,24008,1,8,0:0:0:0:
256,192,24419,1,0,0:0:0:0:
256,192,24625,1,8,0:0:0:0:
256,192,24830,1,8,0:0:0:0:
256,192,25036,1,0,0:0:0:0:
256,192,25241,1,8,0:0:0:0:
256,192,25447,1,0,0:0:0:0:
256,192,25755,1,8,0:0:0:0:
256,192,25858,1,8,0:0:0:0:
256,192,26063,1,0,0:0:0:0:
256,192,26371,1,0,0:0:0:0:
256,192,26679,1,0,0:0:0:0:
256,192,27090,1,0,0:0:0:0:
256,192,27296,1,8,0:0:0:0:
256,192,27707,1,4,0:0:0:0:
256,192,28118,1,12,0:0:0:0:
256,192,28529,1,0,0:0:0:0:
256,192,28734,1,8,0:0:0:0:
256,192,28837,1,8,0:0:0:0:
256,192,28940,1,8,0:0:0:0:
256,192,29145,1,8,0:0:0:0:
256,192,29351,1,4,0:0:0:0:
256,192,29762,1,8,0:0:0:0:
256,192,29967,1,0,0:0:0:0:
256,192,30173,1,8,0:0:0:0:
256,192,30378,1,0,0:0:0:0:
256,192,30481,1,0,0:0:0:0:
256,192,30584,1,0,0:0:0:0:
256,192,30789,1,0,0:0:0:0:
256,192,30995,1,8,0:0:0:0:
256,192,31200,1,0,0:0:0:0:
256,192,31508,1,8,0:0:0:0:
256,192,31714,1,8,0:0:0:0:
256,192,31919,1,8,0:0:0:0:
256,192,32227,1,0,0:0:0:0:
256,192,32844,1,8,0:0:0:0:
256,192,33049,1,8,0:0:0:0:
256,192,33255,1,0,0:0:0:0:
256,192,33460,1,0,0:0:0:0:
256,192,33666,1,8,0:0:0:0:
256,192,33871,1,0,0:0:0:0:
256,192,33974,1,0,0:0:0:0:
256,192,34077,1,0,0:0:0:0:
256,192,34282,1,12,0:0:0:0:
256,192,34590,1,12,0:0:0:0:
256,192,34899,1,12,0:0:0:0:
256,192,35104,1,4,0:0:0:0:
256,192,35515,1,12,0:0:0:0:
256,192,35926,1,4,0:0:0:0:
256,192,36337,1,8,0:0:0:0:
256,192,36542,1,8,0:0:0:0:
256,192,36748,1,0,0:0:0:0:
256,192,37056,1,8,0:0:0:0:
256,192,37159,1,8,0:0:0:0:
256,192,37364,1,0,0:0:0:0:
256,192,37570,1,8,0:0:0:0:
256,192,37981,1,8,0:0:0:0:
256,192,38186,1,0,0:0:0:0:
256,192,38392,1,8,0:0:0:0:
256,192,38700,1,0,0:0:0:0:
256,192,38803,1,0,0:0:0:0:
256,192,39008,1,8,0:0:0:0:
256,192,39214,1,0,0:0:0:0:
256,192,39625,1,8,0:0:0:0:
256,192,39830,1,8,0:0:0:0:
256,192,40036,1,0,0:0:0:0:
256,192,40241,1,8,0:0:0:0:
256,192,40447,1,8,0:0:0:0:
256,192,40858,1,0,0:0:0:0:
256,192,41063,1,8,0:0:0:0:
256,192,41269,1,8,0:0:0:0:
256,192,41474,1,0,0:0:0:0:
256,192,41679,1,8,0:0:0:0:
256,192,41885,1,0,0:0:0:0:
256,192,42090,1,8,0:0:0:0:
256,192,42193,1,8,0:0:0:0:
256,192,42501,1,4,0:0:0:0:
256,192,42810,1,4,0:0:0:0:
256,192,43118,1,12,0:0:0:0:
256,192,44145,1,0,0:0:0:0:
256,192,44351,1,0,0:0:0:0:
256,192,44556,1,8,0:0:0:0:
256,192,44864,1,8,0:0:0:0:
256,192,45070,1,8,0:0:0:0:
256,192,45275,1,8,0:0:0:0:
256,192,45378,1,8,0:0:0:0:
256,192,45584,1,8,0:0:0:0:
256,192,45789,1,4,0:0:0:0:
256,192,46200,1,8,0:0:0:0:
256,192,46406,1,0,0:0:0:0:
256,192,46816,1,0,0:0:0:0:
256,192,47022,1,8,0:0:0:0:
256,192,47227,1,8,0:0:0:0:
256,192,47433,1,0,0:0:0:0:
256,192,47844,1,12,0:0:0:0:
256,192,48255,1,12,0:0:0:0:
256,192,48666,1,12,0:0:0:0:
256,192,49077,1,4,0:0:0:0:
256,192,49488,1,8,0:0:0:0:
256,192,49899,1,0,0:0:0:0:
256,192,50104,1,0,0:0:0:0:
256,192,50310,1,8,0:0:0:0:
256,192,50515,1,8,0:0:0:0:
256,192,50721,1,0,0:0:0:0:
256,192,51132,1,8,0:0:0:0:
256,192,51337,1,8,0:0:0:0:
256,192,51542,1,0,0:0:0:0:
256,192,51645,1,0,0:0:0:0:
256,192,51748,1,0,0:0:0:0:
256,192,51953,1,8,0:0:0:0:
256,192,52364,1,4,0:0:0:0:
256,192,52775,1,8,0:0:0:0:
256,192,53186,1,0,0:0:0:0:
256,192,53392,1,0,0:0:0:0:
256,192,53597,1,8,0:0:0:0:
256,192,53803,1,4,0:0:0:0:
256,192,54214,1,0,0:0:0:0:
256,192,54419,1,0,0:0:0:0:
256,192,54625,1,8,0:0:0:0:
256,192,54727,1,8,0:0:0:0:
256,192,54830,1,8,0:0:0:0:
256,192,55241,1,8,0:0:0:0:
256,192,55652,1,4,0:0:0:0:
256,192,56063,1,8,0:0:0:0:
256,192,56269,1,0,0:0:0:0:
256,192,56371,1,0,0:0:0:0:
256,192,56577,1,0,0:0:0:0:
256,192,56679,1,0,0:0:0:0:
256,192,56885,1,8,0:0:0:0:
256,192,57090,1,8,0:0:0:0:
256,192,57501,1,0,0:0:0:0:
256,192,57707,1,8,0:0:0:0:
256,192,57810,1,8,0:0:0:0:
256,192,58015,1,8,0:0:0:0:
256,192,58118,1,8,0:0:0:0:
256,192,58323,1,0,0:0:0:0:
256,192,58529,1,8,0:0:0:0:
256,192,58940,1,8,0:0:0:0:
256,192,59145,1,0,0:0:0:0:
256,192,59351,1,8,0:0:0:0:
256,192,59556,1,8,0:0:0:0:
256,192,59762,1,0,0:0:0:0:
256,192,59864,1,0,0:0:0:0:
256,192,59967,1,0,0:0:0:0:
256,192,60173,1,8,0:0:0:0:
256,192,60378,1,0,0:0:0:0:
256,192,60789,1,8,0:0:0:0:
256,192,60995,1,8,0:0:0:0:
256,192,61200,1,0,0:0:0:0:
256,192,61406,1,0,0:0:0:0:
256,192,61611,1,8,0:0:0:0:
256,192,61714,1,8,0:0:0:0:
256,192,61816,1,8,0:0:0:0:
256,192,62022,1,8,0:0:0:0:
256,192,62227,1,0,0:0:0:0:
256,192,62638,1,0,0:0:0:0:
256,192,63049,1,8,0:0:0:0:
256,192,63460,1,8,0:0:0:0:
256,192,63597,1,8,0:0:0:0:
256,192,63734,1,8,0:0:0:0:
256,192,63871,1,0,0:0:0:0:
256,192,64282,1,0,0:0:0:0:
256,192,64419,1,0,0:0:0:0:
256,192,64556,1,0,0:0:0:0:
256,192,64693,1,8,0:0:0:0:
256,192,65104,1,0,0:0:0:0:
256,192,65515,1,8,0:0:0:0:
256,192,65652,1,8,0:0:0:0:
256,192,65789,1,8,0:0:0:0:
256,192,65926,1,8,0:0:0:0:
256,192,66337,1,8,0:0:0:0:
256,192,66474,1,8,0:0:0:0:
256,192,66611,1,8,0:0:0:0:
256,192,66748,1,8,0:0:0:0:
256,192,66953,1,4,0:0:0:0:
256,192,67570,1,8,0:0:0:0:
256,192,67775,1,0,0:0:0:0:
256,192,67878,1,0,0:0:0:0:
256,192,67981,1,0,0:0:0:0:
256,192,68186,1,0,0:0:0:0:
256,192,68392,1,8,0:0:0:0:
256,192,68597,1,8,0:0:0:0:
256,192,68803,1,4,0:0:0:0:
256,192,69214,1,8,0:0:0:0:
256,192,69419,1,0,0:0:0:0:
256,192,69522,1,0,0:0:0:0:
256,192,69727,1,0,0:0:0:0:
256,192,69830,1,0,0:0:0:0:
256,192,70036,1,0,0:0:0:0:
256,192,70241,1,8,0:0:0:0:
256,192,70652,1,0,0:0:0:0:
256,192,70858,1,8,0:0:0:0:
256,192,70960,1,8,0:0:0:0:
256,192,71166,1,8,0:0:0:0:
256,192,71269,1,8,0:0:0:0:
256,192,71474,1,8,0:0:0:0:
256,192,71679,1,0,0:0:0:0:
256,192,72090,1,0,0:0:0:0:
256,192,72296,1,8,0:0:0:0:
256,192,72501,1,0,0:0:0:0:
256,192,72707,1,0,0:0:0:0:
256,192,72912,1,8,0:0:0:0:
256,192,73015,1,8,0:0:0:0:
256,192,73118,1,8,0:0:0:0:
256,192,73323,1,0,0:0:0:0:
256,192,73529,1,8,0:0:0:0:
256,192,73940,1,8,0:0:0:0:
256,192,74145,1,8,0:0:0:0:
256,192,74351,1,0,0:0:0:0:
256,192,74556,1,8,0:0:0:0:
256,192,74762,1,0,0:0:0:0:
256,192,74864,1,0,0:0:0:0:
256,192,74967,1,0,0:0:0:0:
256,192,75173,1,0,0:0:0:0:
256,192,75378,1,8,0:0:0:0:
256,192,75789,1,0,0:0:0:0:
256,192,76200,1,8,0:0:0:0:
256,192,76611,1,0,0:0:0:0:
256,192,76748,1,0,0:0:0:0:
256,192,76885,1,0,0:0:0:0:
256,192,77022,1,0,0:0:0:0:
256,192,77296,1,8,0:0:0:0:
256,192,77433,1,8,0:0:0:0:
256,192,77707,1,8,0:0:0:0:
256,192,77844,1,8,0:0:0:0:
256,192,78255,1,0,0:0:0:0:
256,192,78666,1,8,0:0:0:0:
256,192,78803,1,8,0:0:0:0:
256,192,78940,1,8,0:0:0:0:
256,192,79077,1,8,0:0:0:0:
256,192,79488,1,8,0:0:0:0:
256,192,79625,1,8,0:0:0:0:
256,192,79762,1,8,0:0:0:0:
256,192,79899,1,8,0:0:0:0:
256,192,80104,1,4,0:0:0:0:
256,192,80515,1,8,0:0:0:0:
256,192,80721,1,0,0:0:0:0:
256,192,80823,1,0,0:0:0:0:
256,192,80926,1,0,0:0:0:0:
256,192,81132,1,8,0:0:0:0:
256,192,81542,1,8,0:0:0:0:
256,192,81953,1,4,0:0:0:0:
256,192,82364,1,8,0:0:0:0:
256,192,82570,1,0,0:0:0:0:
256,192,82775,1,8,0:0:0:0:
256,192,82981,1,8,0:0:0:0:
256,192,83186,1,0,0:0:0:0:
256,192,83289,1,0,0:0:0:0:
256,192,83392,1,0,0:0:0:0:
256,192,83597,1,8,0:0:0:0:
256,192,83803,1,0,0:0:0:0:
256,192,84111,1,8,0:0:0:0:
256,192,84316,1,8,0:0:0:0:
256,192,84522,1,8,0:0:0:0:
256,192,84830,1,0,0:0:0:0:
256,192,85447,1,8,0:0:0:0:
256,192,85858,1,8,0:0:0:0:
256,192,86063,1,0,0:0:0:0:
256,192,86269,1,8,0:0:0:0:
256,192,86371,1,8,0:0:0:0:
256,192,86474,1,8,0:0:0:0:
256,192,86679,1,0,0:0:0:0:
256,192,86885,1,8,0:0:0:0:
256,192,87193,1,8,0:0:0:0:
256,192,87501,1,8,0:0:0:0:
256,192,87707,1,0,0:0:0:0:
256,192,88118,1,8,0:0:0:0:
256,192,88323,1,8,0:0:0:0:
256,192,88529,1,4,0:0:0:0:
256,192,88940,1,0,0:0:0:0:
256,192,89145,1,0,0:0:0:0:
256,192,89351,1,8,0:0:0:0:
256,192,89556,1,0,0:0:0:0:
256,192,89659,1,0,0:0:0:0:
256,192,89762,1,0,0:0:0:0:
256,192,89967,1,8,0:0:0:0:
256,192,90173,1,0,0:0:0:0:
256,192,90378,1,8,0:0:0:0:
256,192,90686,1,0,0:0:0:0:
256,192,90892,1,0,0:0:0:0:
256,192,91097,1,0,0:0:0:0:
256,192,91406,1,8,0:0:0:0:
256,192,92022,1,8,0:0:0:0:
256,192,92227,1,8,0:0:0:0:
256,192,92433,1,0,0:0:0:0:
256,192,92638,1,0,0:0:0:0:
256,192,92844,1,8,0:0:0:0:
256,192,93049,1,0,0:0:0:0:
256,192,93152,1,0,0:0:0:0:
256,192,93255,1,0,0:0:0:0:
256,192,93460,1,12,0:0:0:0:
256,192,93769,1,12,0:0:0:0:
256,192,94077,1,12,0:0:0:0:
256,192,94282,1,0,0:0:0:0:
256,192,94488,1,0,0:0:0:0:
256,192,94693,1,8,0:0:0:0:
256,192,95104,1,4,0:0:0:0:
256,192,95515,1,0,0:0:0:0:
256,192,95926,1,8,0:0:0:0:
256,192,96234,1,0,0:0:0:0:
256,192,96440,1,8,0:0:0:0:
256,192,96645,1,0,0:0:0:0:
256,192,96953,1,8,0:0:0:0:
256,192,97262,1,8,0:0:0:0:
256,192,97570,1,0,0:0:0:0:
256,192,97775,1,8,0:0:0:0:
256,192,97981,1,0,0:0:0:0:
256,192,98186,1,8,0:0:0:0:
256,192,98392,1,4,0:0:0:0:
256,192,98803,1,0,0:0:0:0:
256,192,99214,1,8,0:0:0:0:
256,192,99522,1,0,0:0:0:0:
256,192,99830,1,8,0:0:0:0:
256,192,100036,1,0,0:0:0:0:
256,192,100344,1,0,0:0:0:0:
256,192,100652,1,0,0:0:0:0:
256,192,100858,1,8,0:0:0:0:
256,192,101063,1,8,0:0:0:0:
256,192,101269,1,0,0:0:0:0:
256,192,101474,1,8,0:0:0:0:
256,192,101679,1,4,0:0:0:0:
256,192,101988,1,4,0:0:0:0:
256,192,102296,1,12,0:0:0:0:
256,192,102604,1,4,0:0:0:0:
256,192,102912,1,12,0:0:0:0:
256,192,103221,1,12,0:0:0:0:
256,192,103529,1,4,0:0:0:0:
256,192,103837,1,4,0:0:0:0:
256,192,104145,1,8,0:0:0:0:
256,192,104351,1,0,0:0:0:0:
256,192,104556,1,8,0:0:0:0:
256,192,104762,1,8,0:0:0:0:
256,192,104967,1,4,0:0:0:0:
256,192,105378,1,8,0:0:0:0:
256,192,105584,1,0,0:0:0:0:
256,192,105995,1,0,0:0:0:0:
256,192,106200,1,8,0:0:0:0:
256,192,106406,1,8,0:0:0:0:
256,192,106611,1,0,0:0:0:0:
256,192,107022,1,12,0:0:0:0:
256,192,107433,1,12,0:0:0:0:
256,192,107844,1,12,0:0:0:0:
256,192,108255,1,4,0:0:0:0:
256,192,108666,1,8,0:0:0:0:
256,192,109077,1,8,0:0:0:0:
256,192,109282,1,0,0:0:0:0:
256,192,109488,1,8,0:0:0:0:
256,192,109899,1,0,0:0:0:0:
256,192,110104,1,0,0:0:0:0:
256,192,110310,1,8,0:0:0:0:
256,192,110412,1,8,0:0:0:0:
256,192,110515,1,8,0:0:0:0:
256,192,110721,1,0,0:0:0:0:
256,192,111132,1,8,0:0:0:0:
256,192,111542,1,4,0:0:0:0:
256,192,111953,1,8,0:0:0:0:
256,192,112364,1,0,0:0:0:0:
256,192,112570,1,0,0:0:0:0:
256,192,112775,1,8,0:0:0:0:
256,192,112981,1,4,0:0:0:0:
256,192,113392,1,0,0:0:0:0:
256,192,113597,1,8,0:0:0:0:
256,192,113803,1,0,0:0:0:0:
256,192,114008,1,0,0:0:0:0:
256,192,114214,1,8,0:0:0:0:
256,192,114419,1,8,0:0:0:0:
256,192,114830,1,4,0:0:0:0:
256,192,115241,1,8,0:0:0:0:
256,192,115652,1,0,0:0:0:0:
256,192,115858,1,0,0:0:0:0:
256,192,116063,1,8,0:0:0:0:
256,192,116269,1,8,0:0:0:0:
256,192,116474,1,0,0:0:0:0:
256,192,116885,1,8,0:0:0:0:
256,192,117090,1,8,0:0:0:0:
256,192,117296,1,0,0:0:0:0:
256,192,117399,1,0,0:0:0:0:
256,192,117501,1,0,0:0:0:0:
256,192,117707,1,8,0:0:0:0:
256,192,118118,1,4,0:0:0:0:
256,192,118529,1,8,0:0:0:0:
256,192,118940,1,0,0:0:0:0:
256,192,119145,1,0,0:0:0:0:
256,192,119351,1,8,0:0:0:0:
256,192,119556,1,4,0:0:0:0:
256,192,119967,1,0,0:0:0:0:
256,192,120173,1,0,0:0:0:0:
256,192,120378,1,8,0:0:0:0:
256,192,120481,1,8,0:0:0:0:
256,192,120584,1,8,0:0:0:0:
256,192,120789,1,8,0:0:0:0:
256,192,120995,1,0,0:0:0:0:
256,192,121200,1,8,0:0:0:0:
256,192,121406,1,4,0:0:0:0:
256,192,121816,1,8,0:0:0:0:
256,192,122022,1,0,0:0:0:0:
256,192,122125,1,0,0:0:0:0:
256,192,122330,1,0,0:0:0:0:
256,192,122433,1,0,0:0:0:0:
256,192,122638,1,8,0:0:0:0:
256,192,122844,1,0,0:0:0:0:
256,192,123255,1,0,0:0:0:0:
256,192,123460,1,8,0:0:0:0:
256,192,123563,1,8,0:0:0:0:
256,192,123769,1,8,0:0:0:0:
256,192,123871,1,8,0:0:0:0:
256,192,124077,1,0,0:0:0:0:
256,192,124282,1,8,0:0:0:0:
256,192,124693,1,8,0:0:0:0:
256,192,124899,1,8,0:0:0:0:
256,192,125104,1,0,0:0:0:0:
256,192,125310,1,0,0:0:0:0:
256,192,125515,1,8,0:0:0:0:
256,192,125618,1,8,0:0:0:0:
256,192,125721,1,8,0:0:0:0:
256,192,125926,1,8,0:0:0:0:
256,192,126132,1,0,0:0:0:0:
256,192,126542,1,8,0:0:0:0:
256,192,126748,1,8,0:0:0:0:
256,192,126953,1,0,0:0:0:0:
256,192,127159,1,0,0:0:0:0:
256,192,127364,1,8,0:0:0:0:
256,192,127467,1,8,0:0:0:0:
256,192,127570,1,8,0:0:0:0:
256,192,127775,1,8,0:0:0:0:
256,192,127981,1,0,0:0:0:0:
256,192,128392,1,0,0:0:0:0:
256,192,128803,1,8,0:0:0:0:
256,192,129214,1,8,0:0:0:0:
256,192,129351,1,8,0:0:0:0:
256,192,129488,1,8,0:0:0:0:
256,192,129625,1,0,0:0:0:0:
256,192,130036,1,0,0:0:0:0:
256,192,130173,1,0,0:0:0:0:
256,192,130310,1,0,0:0:0:0:
256,192,130447,1,8,0:0:0:0:
256,192,130858,1,0,0:0:0:0:
256,192,131269,1,8,0:0:0:0:
256,192,131406,1,8,0:0:0:0:
256,192,131542,1,8,0:0:0:0:
256,192,131679,1,8,0:0:0:0:
256,192,132090,1,8,0:0:0:0:
256,192,132227,1,8,0:0:0:0:
256,192,132364,1,8,0:0:0:0:
256,192,132501,1,8,0:0:0:0:
256,192,132707,1,4,0:0:0:0:
256,192,133323,1,8,0:0:0:0:
256,192,133529,1,0,0:0:0:0:
256,192,133632,1,0,0:0:0:0:
256,192,133734,1,0,0:0:0:0:
256,192,133940,1,0,0:0:0:0:
256,192,134145,1,8,0:0:0:0:
256,192,134351,1,8,0:0:0:0:
256,192,134556,1,4,0:0:0:0:
256,192,134967,1,8,0:0:0:0:
256,192,135173,1,0,0:0:0:0:
256,192,135275,1,0,0:0:0:0:
256,192,135481,1,0,0:0:0:0:
256,192,135584,1,0,0:0:0:0:
256,192,135789,1,8,0:0:0:0:
256,192,135995,1,8,0:0:0:0:
256,192,136406,1,0,0:0:0:0:
256,192,136611,1,8,0:0:0:0:
256,192,136714,1,8,0:0:0:0:
256,192,136919,1,8,0:0:0:0:
256,192,137022,1,8,0:0:0:0:
256,192,137227,1,0,0:0:0:0:
256,192,137433,1,8,0:0:0:0:
256,192,137844,1,0,0:0:0:0:
256,192,138049,1,0,0:0:0:0:
256,192,138255,1,8,0:0:0:0:
256,192,138460,1,8,0:0:0:0:
256,192,138666,1,0,0:0:0:0:
256,192,138769,1,0,0:0:0:0:
256,192,138871,1,0,0:0:0:0:
256,192,139077,1,0,0:0:0:0:
256,192,139282,1,8,0:0:0:0:
256,192,139693,1,8,0:0:0:0:
256,192,139899,1,0,0:0:0:0:
256,192,140104,1,8,0:0:0:0:
256,192,140310,1,8,0:0:0:0:
256,192,140515,1,0,0:0:0:0:
256,192,140618,1,0,0:0:0:0:
256,192,140721,1,0,0:0:0:0:
256,192,140926,1,0,0:0:0:0:
256,192,141132,1,8,0:0:0:0:
256,192,141542,1,0,0:0:0:0:
256,192,141953,1,8,0:0:0:0:
256,192,142364,1,0,0:0:0:0:
256,192,142501,1,0,0:0:0:0:
256,192,142638,1,0,0:0:0:0:
256,192,142775,1,0,0:0:0:0:
256,192,143049,1,8,0:0:0:0:
256,192,143186,1,8,0:0:0:0:
256,192,143460,1,8,0:0:0:0:
256,192,143597,1,8,0:0:0:0:
256,192,144008,1,0,0:0:0:0:
256,192,144419,1,8,0:0:0:0:
256,192,144556,1,8,0:0:0:0:
256,192,144693,1,8,0:0:0:0:
256,192,144830,1,8,0:0:0:0:
256,192,145241,1,8,0:0:0:0:
256,192,145378,1,8,0:0:0:0:
256,192,145515,1,8,0:0:0:0:
256,192,145652,1,8,0:0:0:0:
256,192,145858,1,4,0:0:0:0:
256,192,146269,1,8,0:0:0:0:
256,192,146474,1,0,0:0:0:0:
256,192,146577,1,0,0:0:0:0:
256,192,146679,1,0,0:0:0:0:
256,192,146885,1,8,0:0:0:0:
256,192,147707,1,4,0:0:0:0:
256,192,154282,5,4,0:0:0:0:
256,192,155104,1,8,0:0:0:0:
256,192,155926,1,0,0:0:0:0:
256,192,156748,1,8,0:0:0:0:
256,192,157364,1,8,0:0:0:0:
256,192,157570,1,0,0:0:0:0:
256,192,158392,1,0,0:0:0:0:
256,192,158803,1,8,0:0:0:0:
256,192,159214,1,0,0:0:0:0:
256,192,160036,1,0,0:0:0:0:
256,192,160344,1,8,0:0:0:0:
256,192,160447,1,8,0:0:0:0:
256,192,160652,1,8,0:0:0:0:
256,192,160858,1,4,0:0:0:0:
256,192,161269,1,0,0:0:0:0:
256,192,161474,1,0,0:0:0:0:
256,192,161679,1,8,0:0:0:0:
256,192,162090,1,0,0:0:0:0:
256,192,162296,1,8,0:0:0:0:
256,192,162501,1,0,0:0:0:0:
256,192,162912,1,0,0:0:0:0:
256,192,163118,1,0,0:0:0:0:
256,192,163323,1,8,0:0:0:0:
256,192,163734,1,8,0:0:0:0:
256,192,163940,1,8,0:0:0:0:
256,192,164145,1,0,0:0:0:0:
256,192,164556,1,0,0:0:0:0:
256,192,164762,1,0,0:0:0:0:
256,192,164967,1,8,0:0:0:0:
256,192,165173,1,8,0:0:0:0:
256,192,165378,1,0,0:0:0:0:
256,192,165584,1,12,0:0:0:0:
256,192,165995,1,8,0:0:0:0:
256,192,166200,1,0,0:0:0:0:
256,192,166406,1,8,0:0:0:0:
256,192,166508,1,8,0:0:0:0:
256,192,166611,1,8,0:0:0:0:
256,192,166816,1,0,0:0:0:0:
256,192,167022,1,8,0:0:0:0:
256,192,167227,1,8,0:0:0:0:
256,192,167433,1,4,0:0:0:0:
256,192,168049,1,8,0:0:0:0:
256,192,168255,1,8,0:0:0:0:
256,192,168460,1,0,0:0:0:0:
256,192,168563,1,0,0:0:0:0:
256,192,168666,1,0,0:0:0:0:
256,192,168871,1,8,0:0:0:0:
256,192,169077,1,0,0:0:0:0:
256,192,169282,1,8,0:0:0:0:
256,192,169488,1,0,0:0:0:0:
256,192,169899,1,8,0:0:0:0:
256,192,170104,1,8,0:0:0:0:
256,192,170310,1,0,0:0:0:0:
256,192,170515,1,8,0:0:0:0:
256,192,170926,1,8,0:0:0:0:
256,192,171132,1,0,0:0:0:0:
256,192,171440,1,8,0:0:0:0:
256,192,171748,1,0,0:0:0:0:
256,192,171953,1,8,0:0:0:0:
256,192,172159,1,0,0:0:0:0:
256,192,172364,1,8,0:0:0:0:
256,192,172467,1,8,0:0:0:0:
256,192,172570,1,8,0:0:0:0:
256,192,172775,1,0,0:0:0:0:
256,192,172981,1,0,0:0:0:0:
256,192,173186,1,12,0:0:0:0:
256,192,173495,1,12,0:0:0:0:
256,192,174008,1,0,0:0:0:0:
256,192,174316,1,0,0:0:0:0:
256,192,174419,1,0,0:0:0:0:
256,192,174625,1,0,0:0:0:0:
256,192,174830,1,12,0:0:0:0:
256,192,175241,1,0,0:0:0:0:
256,192,175447,1,8,0:0:0:0:
256,192,175652,1,0,0:0:0:0:
256,192,175960,1,0,0:0:0:0:
256,192,176063,1,0,0:0:0:0:
256,192,176269,1,0,0:0:0:0:
256,192,176474,1,8,0:0:0:0:
256,192,176679,1,0,0:0:0:0:
256,192,176885,1,8,0:0:0:0:
256,192,177090,1,0,0:0:0:0:
256,192,177193,1,0,0:0:0:0:
256,192,177296,1,0,0:0:0:0:
256,192,177501,1,12,0:0:0:0:
256,192,177707,1,12,0:0:0:0:
256,192,178118,1,0,0:0:0:0:
256,192,178323,1,8,0:0:0:0:
256,192,178529,1,8,0:0:0:0:
256,192,178734,1,4,0:0:0:0:
256,192,179145,1,0,0:0:0:0:
256,192,179351,1,8,0:0:0:0:
256,192,179556,1,0,0:0:0:0:
256,192,179762,1,8,0:0:0:0:
256,192,179899,1,8,0:0:0:0:
256,192,180036,1,8,0:0:0:0:
256,192,180173,1,0,0:0:0:0:
256,192,180584,1,12,0:0:0:0:
256,192,181816,1,12,0:0:0:0:
256,192,182022,1,12,0:0:0:0:
256,192,182227,1,12,0:0:0:0:
256,192,183049,1,12,0:0:0:0:
256,192,183460,1,12,0:0:0:0:
256,192,183871,1,4,0:0:0:0:
256,192,184282,1,8,0:0:0:0:
256,192,184693,1,4,0:0:0:0:
256,192,185104,1,8,0:0:0:0:
256,192,185515,1,4,0:0:0:0:
256,192,185721,1,8,0:0:0:0:
256,192,185926,1,8,0:0:0:0:
256,192,186234,1,8,0:0:0:0:
256,192,186542,1,8,0:0:0:0:
256,192,186748,1,8,0:0:0:0:
256,192,187159,1,4,0:0:0:0:
256,192,187570,1,8,0:0:0:0:
256,192,187844,1,0,0:0:0:0:
256,192,187981,1,8,0:0:0:0:
256,192,188392,1,8,0:0:0:0:
256,192,188803,1,0,0:0:0:0:
256,192,189214,1,8,0:0:0:0:
256,192,189488,1,0,0:0:0:0:
256,192,189625,1,8,0:0:0:0:
256,192,190036,1,0,0:0:0:0:
256,192,190447,1,8,0:0:0:0:
256,192,190584,1,8,0:0:0:0:
256,192,190721,1,8,0:0:0:0:
256,192,190858,1,8,0:0:0:0:
256,192,191269,1,8,0:0:0:0:
256,192,191406,1,8,0:0:0:0:
256,192,191542,1,8,0:0:0:0:
256,192,191679,1,8,0:0:0:0:
256,192,191885,1,4,0:0:0:0:
256,192,193734,1,4,0:0:0:0:
256,192,194145,1,8,0:0:0:0:
256,192,194351,1,0,0:0:0:0:
256,192,194453,1,0,0:0:0:0:
256,192,194659,1,0,0:0:0:0:
256,192,194762,1,0,0:0:0:0:
256,192,194967,1,8,0:0:0:0:
256,192,195173,1,8,0:0:0:0:
256,192,195584,1,0,0:0:0:0:
256,192,195789,1,8,0:0:0:0:
256,192,195892,1,8,0:0:0:0:
256,192,196097,1,8,0:0:0:0:
256,192,196200,1,8,0:0:0:0:
256,192,196406,1,0,0:0:0:0:
256,192,196611,1,8,0:0:0:0:
256,192,197022,1,0,0:0:0:0:
256,192,197227,1,8,0:0:0:0:
256,192,197433,1,0,0:0:0:0:
256,192,197638,1,0,0:0:0:0:
256,192,197844,1,8,0:0:0:0:
256,192,197947,1,8,0:0:0:0:
256,192,198049,1,8,0:0:0:0:
256,192,198255,1,0,0:0:0:0:
256,192,198460,1,8,0:0:0:0:
256,192,198871,1,8,0:0:0:0:
256,192,199077,1,8,0:0:0:0:
256,192,199282,1,0,0:0:0:0:
256,192,199488,1,8,0:0:0:0:
256,192,199693,1,0,0:0:0:0:
256,192,199796,1,0,0:0:0:0:
256,192,199899,1,0,0:0:0:0:
256,192,200104,1,0,0:0:0:0:
256,192,200310,1,8,0:0:0:0:
256,192,200721,1,0,0:0:0:0:
256,192,201132,1,8,0:0:0:0:
256,192,201542,1,0,0:0:0:0:
256,192,201679,1,0,0:0:0:0:
256,192,201816,1,0,0:0:0:0:
256,192,201953,1,0,0:0:0:0:
256,192,202227,1,8,0:0:0:0:
256,192,202364,1,8,0:0:0:0:
256,192,202638,1,8,0:0:0:0:
256,192,202775,1,8,0:0:0:0:
256,192,203186,1,0,0:0:0:0:
256,192,203597,1,8,0:0:0:0:
256,192,203734,1,8,0:0:0:0:
256,192,203871,1,8,0:0:0:0:
256,192,204008,1,8,0:0:0:0:
256,192,204419,1,8,0:0:0:0:
256,192,204556,1,8,0:0:0:0:
256,192,204693,1,8,0:0:0:0:
256,192,204830,1,8,0:0:0:0:
256,192,205036,1,4,0:0:0:0:
256,192,205447,1,8,0:0:0:0:
256,192,205652,1,0,0:0:0:0:
256,192,205755,1,0,0:0:0:0:
256,192,205858,1,0,0:0:0:0:
256,192,206063,1,8,0:0:0:0:
256,192,206474,1,8,0:0:0:0:
256,192,206885,1,4,0:0:0:0:
256,192,207296,1,8,0:0:0:0:
256,192,207501,1,0,0:0:0:0:
256,192,207707,1,8,0:0:0:0:
256,192,207912,1,8,0:0:0:0:
256,192,208118,1,0,0:0:0:0:
256,192,208221,1,0,0:0:0:0:
256,192,208323,1,0,0:0:0:0:
256,192,208529,1,8,0:0:0:0:
256,192,208734,1,0,0:0:0:0:
256,192,209042,1,8,0:0:0:0:
256,192,209248,1,8,0:0:0:0:
256,192,209453,1,8,0:0:0:0:
256,192,209762,1,0,0:0:0:0:
256,192,210378,1,8,0:0:0:0:
256,192,210789,1,8,0:0:0:0:
256,192,210995,1,0,0:0:0:0:
256,192,211200,1,8,0:0:0:0:
256,192,211303,1,8,0:0:0:0:
256,192,211406,1,8,0:0:0:0:
256,192,211611,1,0,0:0:0:0:
256,192,211816,1,8,0:0:0:0:
256,192,212125,1,8,0:0:0:0:
256,192,212433,1,8,0:0:0:0:
256,192,212638,1,0,0:0:0:0:
256,192,213049,1,8,0:0:0:0:
256,192,213152,1,8,0:0:0:0:
256,192,213255,1,8,0:0:0:0:
256,192,213460,1,0,0:0:0:0:
256,192,213871,1,12,0:0:0:0:
256,192,214077,1,0,0:0:0:0:
256,192,214282,1,0,0:0:0:0:
256,192,214488,1,8,0:0:0:0:
256,192,214590,1,8,0:0:0:0:
256,192,214693,1,8,0:0:0:0:
256,192,214899,1,8,0:0:0:0:
256,192,215104,1,0,0:0:0:0:
256,192,215310,1,8,0:0:0:0:
256,192,215618,1,0,0:0:0:0:
256,192,215823,1,0,0:0:0:0:
256,192,216029,1,0,0:0:0:0:
256,192,216337,1,8,0:0:0:0:
256,192,216953,1,8,0:0:0:0:
256,192,217159,1,8,0:0:0:0:
256,192,217364,1,0,0:0:0:0:
256,192,217570,1,0,0:0:0:0:
256,192,217775,1,8,0:0:0:0:
256,192,217981,1,0,0:0:0:0:
256,192,218084,1,0,0:0:0:0:
256,192,218186,1,0,0:0:0:0:
256,192,218392,1,12,0:0:0:0:
256,192,218700,1,12,0:0:0:0:
256,192,219008,1,12,0:0:0:0:
256,192,219214,1,0,0:0:0:0:
256,192,219419,1,8,0:0:0:0:
256,192,219625,1,0,0:0:0:0:
256,192,219830,1,8,0:0:0:0:
256,192,219933,1,8,0:0:0:0:
256,192,220447,1,4,0:0:0:0:
