osu file format v14

[General]
AudioFilename: audio.mp3
AudioLeadIn: 0
PreviewTime: 50260
Countdown: 0
SampleSet: Normal
StackLeniency: 0.5
Mode: 0
LetterboxInBreaks: 0
WidescreenStoryboard: 1

[Editor]
Bookmarks: 120992
DistanceSpacing: 0.7
BeatDivisor: 8
GridSize: 8
TimelineZoom: 1.9

[Metadata]
Title:asphyxia
TitleUnicode:asphyxia
Artist:Co shu nie
ArtistUnicode:Cö shu Nie
Creator:Lunicia
Version:A
Source:東京喰種トーキョーグール:re
Tags:コシュニエ sui ishida tokyo ghoul re opening op fullトーキョーグール:re studio pierrot miku nakamura 中村未来 松本駿介 藤田亮介 coshunie
BeatmapID:1635712
BeatmapSetID:766884

[Difficulty]
HPDrainRate:3
CircleSize:3
OverallDifficulty:8.6
ApproachRate:9.8
SliderMultiplier:1.8
SliderTickRate:1

[Events]
//Background and Video events
0,0,"tokyo_ghoul_re_chapter_30__haise_to_kaneki__by_44sonic10-d8ulagn.jpg",0,0
//Break Periods
//Storyboard Layer 0 (Background)
//Storyboard Layer 1 (Fail)
//Storyboard Layer 2 (Pass)
//Storyboard Layer 3 (Foreground)
//Storyboard Sound Samples

[TimingPoints]
345,512.820512820513,4,2,0,45,1,0
5791,540.540540540541,4,2,0,45,1,0
6604,560.747663551402,4,2,0,45,1,0
7445,759.493670886076,4,2,0,45,1,0
7826,560.747663551402,4,2,0,45,1,0
8957,393.44262295082,4,2,0,45,1,0
9118,365.853658536585,4,2,0,60,1,0
9575,382.165605095541,4,2,0,60,1,0
10530,393.44262295082,4,2,0,60,1,0
12708,393.44262295082,4,2,0,60,1,0
13274,393.44262295082,4,2,0,60,1,0
13677,393.44262295082,3,2,0,60,1,0
13865,393.44262295082,3,2,0,60,1,0
14455,387.096774193548,3,2,0,60,1,0
15213,387.096774193548,4,1,0,85,1,0
15213,-66.6666666666667,4,1,0,85,0,0
28390,387.096774193548,4,1,0,60,1,0
28390,-125,4,1,0,60,0,0
30906,-80,4,1,0,60,0,0
31486,-125,4,1,0,60,0,0
39228,387.096774193548,3,1,0,60,1,0
40389,-80,3,1,0,60,0,0
40776,-66.6666666666667,3,1,0,60,0,0
41163,-57.1428571428571,3,1,0,60,0,0
41550,-100,3,1,0,60,0,0
48518,-66.6666666666667,3,1,0,60,0,0
50453,363.636363636364,3,1,0,85,1,1
50453,-25,3,1,0,85,0,1
52453,363.636363636364,3,1,0,85,1,1
52453,-25,3,1,0,85,0,1
56634,363.636363636364,3,1,0,85,1,1
56634,-25,3,1,0,85,0,1
60815,363.636363636364,3,1,0,85,1,1
60815,-25,3,1,0,85,0,1
64996,363.636363636364,3,1,0,85,1,1
64996,-25,3,1,0,85,0,1
69177,363.636363636364,3,1,0,85,1,1
69177,-25,3,1,0,85,0,1
73358,363.636363636364,3,1,0,85,1,1
73358,-25,3,1,0,85,0,1
77539,363.636363636364,3,1,0,85,1,1
77539,-25,3,1,0,85,0,1
81720,363.636363636364,3,1,0,85,1,1
81720,-25,3,1,0,85,0,1
83901,-100,3,2,0,45,0,0
86083,-66.6666666666667,3,1,0,85,0,0
101356,-100,3,1,0,75,0,0
105720,-133.333333333333,3,1,0,60,0,0
118810,-100,3,1,0,60,0,0
120992,-66.6666666666667,3,1,0,75,0,0
123174,-80,3,1,0,75,0,0
131901,-133.333333333333,3,1,0,45,0,0
134055,363.636363636364,3,1,0,85,1,1
134055,-66.6666666666667,3,1,0,85,0,1
136055,363.636363636364,3,1,0,85,1,1
136055,-66.6666666666667,3,1,0,85,0,1
140264,363.636363636364,3,1,0,85,1,1
140264,-66.6666666666667,3,1,0,85,0,1
144445,363.636363636364,3,1,0,85,1,1
144445,-66.6666666666667,3,1,0,85,0,1
148626,363.636363636364,3,1,0,85,1,1
148626,-66.6666666666667,3,1,0,85,0,1
152807,363.636363636364,3,1,0,85,1,1
152807,-66.6666666666667,3,1,0,85,0,1
156988,363.636363636364,3,1,0,85,1,1
156988,-66.6666666666667,3,1,0,85,0,1
161169,363.636363636364,3,1,0,85,1,1
161169,-66.6666666666667,3,1,0,85,0,1
165350,363.636363636364,3,1,0,85,1,1
165350,-66.6666666666667,3,1,0,85,0,1
166440,-100,3,1,0,75,0,0
167168,-100,3,1,0,40,0,0
167544,363.636363636364,3,1,0,75,1,0
171955,363.636363636364,3,2,0,45,1,0
171955,-142.857142857143,3,2,0,45,0,0
173955,-66.6666666666667,3,2,0,45,0,0
174136,-100,3,2,0,25,0,0

[Colours]
Combo1 : 255,128,128
Combo2 : 128,255,255

[HitObjects]
119,164,50453,6,0,B|157:131|173:55|173:55|210:308,1,360
299,323,50725,1,0,0:0:0:0:
356,245,50816,2,0,P|243:242|201:310,1,180
118,163,50998,2,0,P|203:147|268:206,1,180
384,337,51180,2,0,B|368:202|368:202|345:282,1,180
450,170,51362,2,0,P|396:121|287:168,1,180
200,193,51543,6,0,B|185:227|197:280|197:280|140:245|157:135|157:135|93:111|84:27,1,360
181,40,51816,1,0,0:0:0:0:
181,40,51907,2,0,P|246:69|358:36,1,180
285,197,52089,2,0,B|276:245|292:288|292:288|353:197,1,180
200,193,52271,2,0,B|62:216|62:216|121:237,1,180
198,17,52453,6,0,B|222:81|196:193|196:193|286:105|350:73,1,360
464,80,52725,1,0,0:0:0:0:
384,176,52816,2,0,P|320:232|256:328,1,180
88,104,52998,2,0,P|144:160|176:264,1,180
336,32,53180,2,0,P|304:104|312:224,1,180
152,48,53362,2,0,P|192:184|160:272,1,180
416,336,53543,6,0,B|368:320|331:334|331:334|278:280|278:280|264:320|219:354|219:354|174:332|174:332|144:352|67:335,1,360
88,104,53816,1,0,0:0:0:0:
88,104,53907,2,0,P|144:160|176:264,1,180
301,65,54089,2,0,B|259:157|259:157|224:80|176:56,1,180
392,98,54271,2,0,L|310:296,1,180
341,350,54453,2,0,L|424:153,1,180
152,38,54634,6,0,P|275:84|318:34,1,180
83,164,54816,2,0,P|192:124|220:37,1,180
90,276,54998,2,0,P|168:194|133:97,1,180
166,363,55180,2,0,B|313:181|35:146|174:11,1,360
368,88,55453,2,0,P|304:128|216:88,1,180
290,43,55634,1,0,0:0:0:0:
290,43,55725,6,0,L|305:257,1,180
457,347,55907,2,0,L|419:131,1,180
187,317,56089,2,0,P|294:275|286:186,1,180
98,102,56271,2,0,L|244:264,1,180
281,16,56453,2,0,L|95:70,1,180
324,269,56634,6,0,B|432:209|386:110|302:65|230:158|215:249,1,360
409,325,56906,1,0,0:0:0:0:
409,325,56997,2,0,P|463:246|463:151,1,180
330,88,57179,6,0,B|413:140|506:32|363:-74|324:5|283:74|163:4,1,360
351,255,57452,1,0,0:0:0:0:
351,255,57543,2,0,P|368:175|308:69,1,180
219,257,57724,6,0,B|210:357|344:376|358:296|345:176|250:95,1,360
39,188,57997,1,0,0:0:0:0:
39,188,58088,2,0,P|129:171|148:58,1,180
102,309,58270,6,0,B|185:230|238:97|36:49|38:201,1,360
203,340,58543,1,0,0:0:0:0:
203,340,58634,2,0,P|272:367|350:285,1,180
252,190,58815,6,0,B|264:222|264:285|264:285|343:178|301:65|199:103|164:161,1,360
97,217,59088,1,0,0:0:0:0:
112,336,59179,2,0,P|178:348|269:277,1,180
402,86,59361,6,0,P|232:140|317:310,1,360
366,159,59634,1,0,0:0:0:0:
366,159,59724,2,0,P|313:166|383:182,1,180
402,86,59906,6,0,P|232:140|317:310,1,360
160,317,60179,1,0,0:0:0:0:
160,317,60270,2,0,P|125:205|146:90,1,180
369,225,60452,2,0,P|302:195|366:159,1,180
257,282,60634,2,0,P|220:194|259:104,1,180
421,291,60815,6,0,B|341:363|232:299|194:253|191:160|253:105|293:57,1,360
369,225,61087,1,0,0:0:0:0:
369,225,61177,2,0,P|302:195|366:159,1,180
236,263,61360,2,0,P|132:274|97:180,1,180
220,109,61542,2,0,B|177:203|177:203|148:74,1,180
303,66,61724,2,0,P|415:83|479:160,1,180
369,225,61905,6,0,B|389:275|353:342|353:342|351:247|318:173|318:173|310:216|291:275,1,360
146,271,62178,1,0,0:0:0:0:
146,271,62269,2,0,P|224:288|318:194,1,180
208,192,62451,2,0,P|272:128|275:26,1,180
185,93,62633,2,0,P|162:27|58:1,1,180
90,88,62815,2,0,P|0:117|-61:218,1,180
250,182,62996,6,0,L|446:158,1,180
215,262,63178,2,0,P|174:142|257:86,1,180
305,263,63360,2,0,P|262:334|152:328,1,180
250,182,63542,6,0,B|439:158|439:158|296:270,1,360
261,89,63815,1,0,0:0:0:0:
261,89,63905,2,0,L|462:66,1,180
250,181,64087,6,0,B|197:173|105:77|197:-48|373:-4,1,360
147,237,64360,1,0,0:0:0:0:
147,237,64451,2,0,P|90:158|76:51,1,180
250,181,64633,2,0,P|307:260|321:367,1,180
90,239,64815,2,0,P|33:160|19:53,1,180
374,221,64996,6,0,B|308:243|253:209|253:209|207:232|207:232|149:211|89:240|89:240|131:238|160:254,1,360
320,141,65268,1,0,0:0:0:0:
320,141,65359,2,0,B|337:60|306:-1|306:-1|272:75,1,180
276,274,65541,6,0,B|283:338|332:390|458:349|410:209|317:139,1,360
162,209,65814,1,0,0:0:0:0:
162,209,65905,2,0,P|64:228|25:309,1,180
338,191,66086,6,0,L|365:-21,1,180
166,205,66268,2,0,L|142:22,1,180
366,272,66450,2,0,L|423:64,1,180
128,291,66632,2,0,L|62:82,1,180
397,350,66814,2,0,L|479:153,1,180
108,368,66996,2,0,L|-3:143,1,180
261,205,67177,6,0,B|244:170|243:125|243:125|145:217|225:316|328:288|334:178,1,360
358,93,67450,1,0,0:0:0:0:
236,29,67541,2,0,P|149:96|110:188,1,180
305,359,67723,2,0,P|391:291|431:200,1,180
117,157,67905,2,0,P|184:243|276:283,1,180
423,230,68086,2,0,P|355:143|264:104,1,180
82,240,68268,6,0,B|194:212|194:212|268:134|268:134|443:97,1,360
412,263,68541,1,0,0:0:0:0:
412,263,68632,2,0,P|370:185|407:101,1,180
304,306,68814,2,0,L|98:358,1,180
53,190,68996,2,0,L|260:136,1,180
304,306,69177,6,0,B|323:245|299:200|299:200|317:147|317:147|290:78|312:26|312:26|325:88|360:128,1,360
225,260,69449,1,0,0:0:0:0:
225,260,69540,2,0,L|26:277,1,180
26,144,69722,2,0,L|234:153,1,180
226,20,69904,2,0,L|27:37,1,180
309,101,70086,1,0,0:0:0:0:
427,119,70177,1,0,0:0:0:0:
380,35,70267,6,0,P|362:102|372:253,1,180
188,328,70449,2,0,P|206:261|196:110,1,180
444,239,70631,2,0,P|314:284|276:228,1,180
122,138,70813,2,0,P|189:68|278:106,1,180
110,353,70995,2,0,B|130:262|130:262|216:360,1,180
439,190,71177,2,0,B|419:281|419:281|333:183,1,180
252,189,71358,6,0,B|511:129|511:129|413:211,1,360
270,95,71631,1,0,0:0:0:0:
270,95,71722,2,0,L|489:44,1,180
252,189,71904,2,0,P|134:150|280:125,1,360
189,295,72177,1,0,0:0:0:0:
189,295,72267,2,0,P|101:256|49:179,1,180
398,285,72449,6,0,B|265:316|186:293|186:293|290:297|350:223,1,360
388,170,72722,1,0,0:0:0:0:
419,73,72813,2,0,B|426:-17|426:-17|354:67,1,180
252,189,72995,2,0,P|134:150|280:125,1,360
352,211,73267,1,0,0:0:0:0:
375,239,73358,6,0,B|382:304|327:381|327:381|316:270|242:176,1,360
81,303,73630,1,0,0:0:0:0:
81,303,73721,2,0,P|161:297|129:224,1,180
63,103,73903,6,0,P|197:106|419:4,1,360
386,137,74176,1,0,0:0:0:0:
386,137,74267,2,0,P|314:169|197:195,1,180
7,204,74448,6,0,B|41:167|63:103|63:103|108:342,1,360
241,231,74721,1,0,0:0:0:0:
215,192,74812,2,0,P|201:113|217:13,1,180
350,265,74994,6,0,B|290:140|315:53|315:53|387:142|448:150,1,360
423,313,75267,1,0,0:0:0:0:
498,360,75358,2,0,P|506:293|424:225,1,180
157,354,75539,6,0,B|425:312|425:312|330:252,1,360
146,196,75812,1,0,0:0:0:0:
146,196,75903,2,0,P|114:276|177:365,1,180
164,86,76085,2,0,L|-39:102,1,180
206,269,76267,2,0,L|358:142,1,180
35,199,76448,2,0,P|20:244|60:372,1,180
164,86,76630,6,0,B|167:125|146:148|146:148|192:210|192:210|143:239|107:243|107:243|166:283|137:364,1,360
298,185,76903,1,0,0:0:0:0:
308,218,76994,2,0,P|266:267|253:396,1,180
325,133,77176,2,0,P|243:81|101:127,1,180
432,153,77358,2,0,B|499:29|499:29|415:63,1,180
339,236,77539,6,0,P|464:298|372:167,1,360
257,210,77811,1,0,0:0:0:0:
194,262,77902,2,0,P|298:284|342:212,1,180
250,30,78084,2,0,L|259:265,1,180
225,358,78266,2,0,L|189:124,1,180
87,20,78448,2,0,P|184:57|281:-12,1,180
398,22,78629,6,0,B|403:73|381:115|381:115|372:168|397:215|397:215|384:258|376:325|376:325|352:237,1,360
284,223,78902,1,0,0:0:0:0:
200,185,78993,2,0,P|97:186|53:266,1,180
206,327,79175,2,0,B|145:256|145:256|143:374,1,180
200,185,79357,2,0,P|97:186|53:266,1,180
263,109,79539,2,0,B|191:-3|191:-3|213:87,1,180
355,177,79720,6,0,P|461:138|455:60,1,180
244,269,79902,2,0,P|350:230|344:152,1,180
133,361,80084,2,0,P|239:322|233:244,1,180
170,49,80266,6,0,B|274:194|274:194|263:115|327:75|382:86|415:122,1,360
243,268,80538,1,0,0:0:0:0:
244,269,80629,2,0,P|350:230|344:152,1,180
74,64,80811,2,0,L|193:249,1,180
448,268,80993,2,0,B|354:178|354:178|386:267,1,180
117,281,81175,2,0,P|215:288|249:183,1,180
375,0,81357,2,0,L|351:217,1,180
170,214,81539,2,0,L|136:38,1,180
437,53,81720,6,0,B|370:288|370:288|416:220|457:195,1,360
286,283,81992,1,0,0:0:0:0:
286,283,82083,2,0,P|339:365|444:328,1,180
107,236,82265,2,0,B|245:205|245:205|146:179,1,180
290,132,82447,2,0,P|330:209|286:283,1,180
395,8,82629,2,0,P|366:93|243:128,1,180
209,46,82810,6,0,L|30:35,1,180
303,203,82992,2,0,L|483:195,1,180
208,372,83174,2,0,L|29:361,1,180
302,46,83356,6,0,L|482:35,1,180
208,203,83538,2,0,L|29:195,1,180
303,372,83720,2,0,L|483:361,1,180
209,46,83901,5,0,0:0:0:0:
302,46,84083,1,0,0:0:0:0:
303,372,84265,1,0,0:0:0:0:
208,372,84447,1,0,0:0:0:0:
171,375,84810,5,0,0:0:0:0:
258,164,84992,2,0,L|272:266,2,90
90,192,85538,2,0,L|88:284,2,90
161,74,86083,5,0,0:0:0:0:
