osu file format v14

[General]
AudioFilename: audio.mp3
AudioLeadIn: 0
PreviewTime: 58100
Countdown: 0
SampleSet: Soft
StackLeniency: 0.4
Mode: 0
LetterboxInBreaks: 0
WidescreenStoryboard: 1

[Editor]
Bookmarks: 38900,65300
DistanceSpacing: 1.1
BeatDivisor: 4
GridSize: 32
TimelineZoom: 1

[Metadata]
Title:give it back (TV Size)
TitleUnicode:give it back (TV Size)
Artist:Co shu Nie
ArtistUnicode:Cö shu Nie
Creator:Rosiie
Version:xahlt's normal
Source:呪術廻戦
Tags:guanineso wanpachi cycopton xahlt japanese jrock j-rock rock female vocals vocalist jujutsu kaisen sorcery fight 2 2nd second anime ed ending 黒 Poulet Roti! たえ
BeatmapID:3006549
BeatmapSetID:1463434

[Difficulty]
HPDrainRate:4
CircleSize:3.5
OverallDifficulty:4
ApproachRate:5
SliderMultiplier:1.8
SliderTickRate:1

[Events]
//Background and Video events
0,0,"bg.jpg",0,0
//Break Periods
//Storyboard Layer 0 (Background)
//Storyboard Layer 1 (Fail)
//Storyboard Layer 2 (Pass)
//Storyboard Layer 3 (Foreground)
//Storyboard Layer 4 (Overlay)
//Storyboard Sound Samples

[TimingPoints]
500,606.060606060606,4,2,1,40,1,0
2924,600,4,2,1,40,1,0
3824,638.297872340426,4,2,1,40,1,0
4143,555.555555555556,4,2,1,40,1,0
4420,600,4,2,1,40,1,0
5320,600,4,2,1,40,1,0
10120,-131.061598951507,4,2,1,40,0,0
10720,659.340659340659,4,2,1,40,1,0
11379,570.071258907363,4,2,1,40,1,0
12520,600,4,2,1,40,1,0
12520,-125,4,2,1,40,0,0
14920,-131.061598951507,4,2,1,40,0,0
15520,659.340659340659,4,2,1,40,1,0
16179,570.071258907363,4,2,1,40,1,0
17320,600,4,2,1,40,1,0
17320,-125,4,2,1,40,0,0
25720,625,4,2,1,40,1,0
25720,-124.843945068664,4,2,1,40,0,0
26657,526.315789473684,4,2,1,40,1,0
26920,600,4,2,1,40,1,0
26920,-125,4,2,1,40,0,0
30520,625,4,2,1,40,1,0
31457,526.315789473684,4,2,1,40,1,0
31720,582.52427184466,4,2,1,40,1,0
32885,666.666666666667,4,2,1,40,1,0
33218,600,4,2,1,40,1,0
33218,-125,4,2,1,40,0,0
34118,600,4,2,1,40,1,0
34118,-125,4,2,1,40,0,0
37718,591.133004926108,4,2,1,40,1,0
38900,600,4,2,1,40,1,0
38900,-111.111111111111,4,2,1,50,0,0
58100,-111.111111111111,4,2,1,40,0,0
65300,-100,4,2,1,60,0,0
86900,-100,4,2,1,10,0,0

[Colours]
Combo1 : 208,125,111
Combo2 : 155,173,196
Combo3 : 254,205,139
Combo4 : 125,164,172

[HitObjects]
42,21,10120,6,0,B|176:101|39:177|201:264,1,288,2|0,0:0|0:0,0:0:0:0:
463,366,12520,1,2,0:0:0:0:
463,366,14920,6,0,B|438:303|463:225|463:225|425:296|345:311,1,288,2|2,0:0|0:0,0:0:0:0:
51,282,17320,1,2,0:0:0:0:
51,282,19720,6,0,P|46:155|174:162,1,288,2|0,0:0|0:0,0:0:0:0:
429,350,22120,1,2,0:0:0:0:
429,350,24520,6,0,P|439:279|468:128,1,216,2|0,0:0|0:0,0:0:0:0:
497,67,25720,2,0,P|390:84|283:97,1,216.269994290968,2|2,0:0|0:0,0:0:0:0:
211,62,26920,1,2,0:0:0:0:
216,57,29320,6,0,B|154:87|75:61|75:61|148:98|145:182,2,288,2|2|2,0:0|0:0|0:0,0:0:0:0:
498,334,33218,1,2,0:0:0:0:
264,375,34118,6,0,P|134:312|0:262,2,288,2|2|2,0:0|0:0|0:0,0:0:0:0:
488,26,38900,6,0,P|404:35|307:53,1,161.999995056153,4|0,3:2|0:0,0:0:0:0:
244,15,39800,1,0,3:2:0:0:
178,75,40100,2,0,P|168:114|187:158,1,80.9999975280763,8|0,0:0|3:2,0:0:0:0:
258,197,40700,2,0,P|271:234|261:273,1,80.9999975280763,0|0,0:0|3:2,0:0:0:0:
293,356,41300,6,0,P|232:362|172:367,1,121.499996292114,0|0,3:2|3:2,0:0:0:0:
127,374,41900,1,0,0:0:0:0:
55,320,42200,1,0,3:2:0:0:
87,236,42500,2,0,P|127:241|167:247,1,80.9999975280763,8|0,0:0|3:2,0:0:0:0:
242,200,43100,2,0,P|262:195|290:189,1,40.4999987640381,8|8,0:0|0:0,0:0:0:0:
321,209,43400,2,0,P|341:214|369:220,1,40.4999987640381,2|0,3:2|0:0,0:0:0:0:
404,222,43700,6,0,P|461:208|451:102,1,161.999995056153,6|0,3:2|0:0,0:0:0:0:
508,36,44600,1,0,3:2:0:0:
422,9,44900,2,0,P|381:13|325:23,1,80.9999975280763,8|0,0:0|3:2,0:0:0:0:
271,73,45500,2,0,P|230:66|173:61,1,80.9999975280763,0|2,0:0|3:2,0:0:0:0:
102,52,46100,6,0,P|54:90|84:158,1,121.499996292114,2|2,3:2|3:2,0:0:0:0:
90,179,46700,1,0,0:0:0:0:
35,249,47000,1,0,3:2:0:0:
88,320,47300,2,0,P|128:312|187:303,1,80.9999975280763,12|0,0:0|3:2,0:0:0:0:
210,318,47750,1,0,3:2:0:0:
210,318,47900,2,0,P|233:311|261:304,1,40.4999987640381,8|8,0:0|0:3,0:0:0:0:
292,295,48200,1,0,3:2:0:0:
245,219,48500,6,0,P|255:138|267:58,1,161.999995056153,6|0,3:2|0:0,0:0:0:0:
339,6,49400,1,2,3:2:0:0:
401,69,49700,2,0,P|410:108|418:147,1,80.9999975280763,8|2,0:0|3:2,0:0:0:0:
484,208,50300,2,0,P|476:247|468:287,1,80.9999975280763,2|2,0:0|3:2,0:0:0:0:
490,373,50900,6,0,P|454:327|377:355,1,121.499996292114,0|0,3:2|3:2,0:0:0:0:
357,355,51500,1,0,0:0:0:0:
287,299,51800,1,0,3:2:0:0:
209,342,52100,2,0,P|166:345|113:349,1,80.9999975280763,10|0,0:0|3:2,0:0:0:0:
41,370,52700,2,0,P|35:346|25:314,1,40.4999987640381,10|8,0:0|0:0,0:0:0:0:
0,297,53000,2,0,P|4:272|8:239,1,40.4999987640381,0|2,3:2|0:0,0:0:0:0:
7,212,53300,6,0,P|46:190|38:112,1,121.499996292114,4|0,3:2|3:2,0:0:0:0:
11,90,53900,1,0,0:0:0:0:
66,19,54200,1,2,3:2:0:0:
147,55,54500,2,0,P|226:66|313:78,1,161.999995056153,10|0,0:0|0:0,0:0:0:0:
378,22,55400,1,2,3:2:0:0:
441,85,55700,6,0,B|435:174|496:144|498:253,1,161.999995056153,2|0,3:2|0:0,0:0:0:0:
441,302,56600,1,2,3:2:0:0:
365,255,56900,2,0,P|284:266|223:276,2,121.499996292114,14|6|6,0:0|0:3|0:3,0:0:0:0:
368,165,58100,6,0,P|208:134|46:105,1,323.999990112305,2|2,0:0|0:0,0:0:0:0:
4,369,60200,1,2,0:0:0:0:
4,369,62900,6,0,B|93:387|156:329|156:329|178:345|195:363|195:363|212:345|242:328|242:328|265:333|306:349,1,323.999990112305,2|2,0:0|0:0,0:0:0:0:
467,330,64700,2,0,P|464:356|462:383,2,53.9999983520508,2|2|2,0:0|0:0|0:0,0:0:0:0:
508,279,65300,6,0,P|512:214|457:182,1,135,6|0,3:2|3:2,0:0:0:0:
407,175,65900,1,0,0:0:0:0:
346,253,66200,1,4,3:3:0:0:
267,192,66500,2,0,P|223:196|152:204,1,90,8|8,0:0|0:0,0:0:0:0:
128,204,66950,1,0,0:0:0:0:
128,204,67100,2,0,P|118:183|110:162,1,45,10|0,0:0|0:0,0:0:0:0:
75,127,67400,2,0,P|77:104|83:82,1,45,8|0,0:0|0:0,0:0:0:0:
103,37,67700,6,0,P|170:44|236:53,1,135,6|2,3:2|3:2,0:0:0:0:
285,62,68300,1,0,0:0:0:0:
368,9,68600,1,4,3:3:0:0:
453,58,68900,1,8,0:0:0:0:
436,152,69200,6,0,L|473:251,1,90,8|10,0:0|0:0,0:0:0:0:
509,334,69800,2,0,P|481:339|447:346,1,45,10|8,0:0|0:3,0:0:0:0:
416,353,70100,6,0,B|344:309|385:263|294:207,1,180,6|0,3:2|0:0,0:0:0:0:
257,128,71000,1,6,3:3:0:0:
164,161,71300,2,0,P|115:166|64:172,1,90,10|0,0:0|0:0,0:0:0:0:
26,184,71750,2,0,P|5:222|23:261,1,90,10|8,0:0|0:3,0:0:0:0:
70,278,72200,1,6,0:3:0:0:
20,363,72500,6,0,P|86:367|185:375,1,135,6|0,3:2|3:2,0:0:0:0:
204,378,73100,1,2,0:0:0:0:
204,378,73250,1,8,3:3:0:0:
275,309,73550,1,0,3:3:0:0:
275,309,73700,2,0,P|319:311|364:314,1,90,14|2,0:0|3:2,0:0:0:0:
414,316,74150,1,2,3:2:0:0:
475,237,74450,2,0,P|488:195|472:154,1,90,10|8,0:0|0:0,0:0:0:0:
425,137,74900,6,0,P|357:145|291:153,1,135,6|0,3:2|3:2,0:0:0:0:
241,160,75500,1,0,0:0:0:0:
167,226,75800,2,0,P|118:215|64:202,1,90,2|8,3:2|0:0,0:0:0:0:
17,128,76400,1,2,3:2:0:0:
67,43,76700,2,0,P|94:17|165:28,1,90,2|0,0:0|3:2,0:0:0:0:
240,39,77300,6,0,P|307:47|373:55,1,135,0|2,3:2|3:2,0:0:0:0:
422,65,77900,1,0,0:0:0:0:
487,139,78200,1,0,3:2:0:0:
467,236,78500,2,0,P|489:275|479:317,1,90,10|0,0:0|0:0,0:0:0:0:
444,352,78950,1,0,3:2:0:0:
444,352,79100,2,0,P|421:347|399:343,1,45,10|8,0:0|0:0,0:0:0:0:
354,322,79400,2,0,P|332:329|311:336,1,45,0|2,3:2|0:0,0:0:0:0:
267,360,79700,6,0,P|200:350|132:343,1,135,4|0,3:2|3:2,0:0:0:0:
85,357,80300,1,0,0:0:0:0:
9,292,80600,1,2,3:2:0:0:
76,219,80900,2,0,P|69:175|60:119,1,90,10|0,0:0|3:2,0:0:0:0:
49,81,81350,2,0,P|84:54|126:64,1,90,2|0,0:0|0:0,0:0:0:0:
169,89,81800,1,2,3:2:0:0:
177,187,82100,6,0,P|221:177|266:168,1,90,0|0,3:2|0:0,0:0:0:0:
316,155,82550,1,0,3:2:0:0:
316,155,82700,2,0,P|328:134|345:104,1,45,0|8,3:2|0:0,0:0:0:0:
374,82,83000,2,0,P|370:58|364:24,1,45,0|0,3:2|3:2,0:0:0:0:
407,10,83300,6,0,P|475:13|493:100,1,135,14|10,0:0|0:3,0:0:0:0:
445,204,84200,1,6,3:2:0:0:
256,192,84350,12,0,86900,0:0:0:0:
