osu file format v14

[General]
AudioFilename: audio.mp3
AudioLeadIn: 0
PreviewTime: 58100
Countdown: 0
SampleSet: Soft
StackLeniency: 0.4
Mode: 0
LetterboxInBreaks: 0
WidescreenStoryboard: 1

[Editor]
Bookmarks: 38900,65300
DistanceSpacing: 1.3
BeatDivisor: 12
GridSize: 32
TimelineZoom: 1.6

[Metadata]
Title:give it back (TV Size)
TitleUnicode:give it back (TV Size)
Artist:Co shu Nie
ArtistUnicode:Cö shu Nie
Creator:Rosiie
Version:wanpachi's hard
Source:呪術廻戦
Tags:guanineso wanpachi cycopton xahlt japanese jrock j-rock rock female vocals vocalist jujutsu kaisen sorcery fight 2 2nd second anime ed ending 黒 Poulet Roti! たえ
BeatmapID:3006044
BeatmapSetID:1463434

[Difficulty]
HPDrainRate:5
CircleSize:3.8
OverallDifficulty:5.5
ApproachRate:7.2
SliderMultiplier:2.3
SliderTickRate:1

[Events]
//Background and Video events
0,0,"35583692_p0_master1200.jpg",0,0
//Break Periods
//Storyboard Layer 0 (Background)
//Storyboard Layer 1 (Fail)
//Storyboard Layer 2 (Pass)
//Storyboard Layer 3 (Foreground)
//Storyboard Layer 4 (Overlay)
//Storyboard Sound Samples

[TimingPoints]
500,606.060606060606,4,2,1,40,1,0
2924,600,4,2,1,40,1,0
3824,638.297872340426,4,2,1,40,1,0
4143,555.555555555556,4,2,1,40,1,0
4420,600,4,2,1,40,1,0
5320,600,4,2,1,40,1,0
10120,-169.491525423729,4,2,1,40,0,0
10720,659.340659340659,4,2,1,40,1,0
11379,570.071258907363,4,2,1,40,1,0
12520,600,4,2,1,40,1,0
12520,-166.666666666667,4,2,1,40,0,0
14920,-169.491525423729,4,2,1,40,0,0
15520,659.340659340659,4,2,1,40,1,0
16179,570.071258907363,4,2,1,40,1,0
17320,600,4,2,1,40,1,0
17320,-166.666666666667,4,2,1,40,0,0
25720,625,4,2,1,40,1,0
25720,-166.666666666667,4,2,1,40,0,0
26657,526.315789473684,4,2,1,40,1,0
26920,600,4,2,1,40,1,0
26920,-166.666666666667,4,2,1,40,0,0
29300,-200,4,2,1,40,0,0
30520,625,4,2,1,40,1,0
31457,526.315789473684,4,2,1,40,1,0
31720,582.52427184466,4,2,1,40,1,0
32885,666.666666666667,4,2,1,40,1,0
33218,600,4,2,1,40,1,0
34118,600,4,2,1,40,1,0
34118,-200,4,2,1,40,0,0
37718,591.133004926108,4,2,1,40,1,0
38300,-125,4,2,1,40,0,0
38900,600,4,2,1,40,1,0
38900,-83.3333333333333,4,2,1,50,0,1
38975,-83.3333333333333,4,2,1,50,0,0
48500,-83.3333333333333,4,2,1,50,0,1
48575,-83.3333333333333,4,2,1,50,0,0
57500,-100,4,2,1,50,0,0
57800,-125,4,2,1,50,0,0
58100,-200,4,2,1,40,0,0
64700,-111.111111111111,4,2,1,40,0,0
65300,-76.9230769230769,4,2,1,60,0,1
65375,-76.9230769230769,4,2,1,60,0,0
67700,-76.9230769230769,4,2,1,60,0,1
67775,-76.9230769230769,4,2,1,60,0,0
70100,-76.9230769230769,4,2,1,60,0,1
70175,-76.9230769230769,4,2,1,60,0,0
72500,-76.9230769230769,4,2,1,60,0,1
72575,-76.9230769230769,4,2,1,60,0,0
73700,-76.9230769230769,4,2,1,60,0,1
73775,-76.9230769230769,4,2,1,60,0,0
74900,-76.9230769230769,4,2,1,60,0,1
74975,-76.9230769230769,4,2,1,60,0,0
86900,-76.9230769230769,4,2,1,10,0,0

[Colours]
Combo1 : 208,125,111
Combo2 : 155,173,196
Combo3 : 254,205,139
Combo4 : 125,164,172

[HitObjects]
67,80,10120,6,0,B|157:-4|260:36|260:36|307:132|415:159,1,413.999987365723,2|0,0:0|0:0,0:0:0:0:
504,314,12520,2,0,P|395:288|85:360,1,413.999987365723,2|0,0:0|0:0,0:0:0:0:
22,188,14920,6,0,B|154:148|271:73|271:73|347:85|403:125,1,413.999987365723,2|0,0:0|0:0,0:0:0:0:
500,273,17320,2,0,B|364:305|237:365|237:365|168:320|214:250,1,413.999987365723,2|2,0:0|0:0,0:0:0:0:
350,130,19720,6,0,B|343:41|216:6|117:76|155:161|126:176|51:203|17:191,1,413.999987365723,2|2,0:0|0:0,0:0:0:0:
14,372,22120,2,0,P|234:335|440:316,1,413.999987365723,2|2,0:0|0:0,0:0:0:0:
505,156,24520,6,0,P|428:132|313:58,1,206.999993682861,2|0,0:0|0:0,0:0:0:0:
257,1,25720,2,0,P|171:58|73:91,1,206.999993682861,2|0,0:0|0:0,0:0:0:0:
9,154,26920,2,0,P|204:220|376:335,1,413.999987365723,2|0,0:0|0:0,0:0:0:0:
492,241,29320,6,0,P|491:124|399:73,2,230,2|2|2,0:0|0:0|0:0,0:0:0:0:
140,369,33218,1,2,0:0:0:0:
40,168,34118,6,0,B|0:110|57:68|57:68|117:64|188:37,2,230,2|2|2,0:0|0:0|0:0,0:0:0:0:
444,332,38309,5,2,0:0:0:0:
444,332,38456,1,2,0:0:0:0:
444,332,38604,2,0,P|447:300|454:273,1,46,2|2,0:0|0:0,0:0:0:0:
380,219,38900,6,0,P|291:232|252:297,1,137.999995788574,4|0,3:2|0:0,0:0:0:0:
221,345,39350,1,0,3:2:0:0:
133,365,39500,2,0,P|104:263|107:199,1,137.999995788574,0|0,0:0|3:2,0:0:0:0:
2,82,40100,2,0,P|74:66|111:49,1,68.9999978942872,8|0,0:0|0:0,0:0:0:0:
148,24,40400,2,0,P|212:9|259:55,1,137.999995788574,0|0,3:2|0:0,0:0:0:0:
409,155,41000,1,0,3:2:0:0:
464,84,41150,1,6,0:3:0:0:
426,165,41300,6,0,P|410:232|403:300,1,137.999995788574,0|0,3:2|0:0,0:0:0:0:
335,359,41750,1,0,3:2:0:0:
254,319,41900,2,0,B|172:323|206:353|114:358,1,137.999995788574,0|0,0:0|3:2,0:0:0:0:
5,222,42500,2,0,P|14:188|23:155,1,68.9999978942872,8|0,0:0|0:0,0:0:0:0:
8,66,42800,1,0,3:2:0:0:
183,103,43100,1,8,0:0:0:0:
214,19,43250,1,8,0:0:0:0:
198,107,43400,2,0,P|210:148|221:199,1,68.9999978942872,2|0,3:2|0:0,0:0:0:0:
297,237,43700,6,0,P|380:220|416:148,1,137.999995788574,6|0,3:2|0:0,0:0:0:0:
493,147,44150,1,0,3:2:0:0:
503,236,44300,2,0,P|497:304|489:387,1,137.999995788574,0|0,0:0|3:2,0:0:0:0:
312,381,44900,2,0,P|308:346|305:312,1,68.9999978942872,8|0,0:0|0:0,0:0:0:0:
238,251,45200,2,0,P|169:279|133:344,1,137.999995788574,0|0,3:2|0:0,0:0:0:0:
15,198,45800,2,0,P|18:163|21:129,1,68.9999978942872,2|4,3:2|0:3,0:0:0:0:
11,39,46100,6,0,P|92:104|179:91,1,137.999995788574,2|0,3:2|0:0,0:0:0:0:
181,39,46550,1,2,3:2:0:0:
262,73,46700,2,0,P|331:81|399:91,1,137.999995788574,0|0,0:0|3:2,0:0:0:0:
507,234,47300,2,0,B|435:255|461:287|388:315,1,137.999995788574,12|0,0:0|3:2,0:0:0:0:
307,291,47750,1,0,3:2:0:0:
368,226,47900,1,8,0:0:0:0:
296,279,48050,2,0,P|263:269|228:264,1,68.9999978942872,8|0,0:3|3:2,0:0:0:0:
51,371,48500,6,0,P|103:280|59:170,1,206.999993682861,6|0,3:2|3:2,0:0:0:0:
20,115,49100,1,0,0:0:0:0:
164,9,49400,2,0,P|262:36|296:60,1,137.999995788574,2|8,3:2|0:0,0:0:0:0:
306,234,50000,1,2,3:2:0:0:
147,317,50300,2,0,P|245:343|311:367,1,137.999995788574,2|2,0:0|3:2,0:0:0:0:
368,371,50750,1,2,0:0:0:0:
449,333,50900,6,0,P|460:234|381:175,1,206.999993682861,0|0,3:2|3:2,0:0:0:0:
291,177,51500,1,0,0:0:0:0:
458,112,51800,2,0,P|466:78|474:45,1,68.9999978942872,0|2,3:2|0:0,0:0:0:0:
390,11,52100,2,0,B|282:0|336:73|205:79,1,183.999994384766,10|2,0:0|0:2,0:0:0:0:
124,28,52700,1,10,0:0:0:0:
77,104,52850,2,0,P|87:137|94:170,1,68.9999978942872,8|0,0:0|3:2,0:0:0:0:
66,360,53300,6,0,P|151:321|270:326,1,206.999993682861,4|0,3:2|3:2,0:0:0:0:
343,363,53900,1,0,0:0:0:0:
467,234,54200,2,0,P|461:204|462:151,1,68.9999978942872,2|0,3:2|0:0,0:0:0:0:
493,82,54500,2,0,P|421:37|349:61,1,137.999995788574,10|0,0:0|3:2,0:0:0:0:
228,151,55100,1,0,0:0:0:0:
56,102,55400,1,2,3:2:0:0:
12,24,55550,1,0,0:0:0:0:
42,108,55700,6,0,P|17:231|13:294,1,137.999995788574,2|0,3:2|0:0,0:0:0:0:
55,324,56150,1,8,0:0:0:0:
138,288,56300,2,0,P|215:291|253:357,1,137.999995788574,0|2,0:0|3:2,0:0:0:0:
428,361,56900,2,0,B|438:286|397:312|403:228,1,137.999995788574,14|8,0:0|0:3,0:0:0:0:
463,160,57350,1,6,0:3:0:0:
416,83,57500,6,0,P|387:76|359:70,1,57.5,8|8,0:3|0:3,0:0:0:0:
275,100,57800,6,0,P|252:105|230:110,1,46,6|0,0:3|0:0,0:0:0:0:
146,81,58100,6,0,P|85:129|52:293,1,230,2|2,0:0|0:0,0:0:0:0:
250,368,60200,1,2,0:0:0:0:
463,48,62900,6,0,P|352:82|278:86,1,172.5,2|0,0:0|0:0,0:0:0:0:
225,64,64100,1,2,0:0:0:0:
307,320,64700,6,0,P|274:307|241:298,2,68.9999978942872,2|2|2,0:0|0:0|0:0,0:0:0:0:
279,173,65300,6,0,P|206:166|149:212,1,149.499993156433,6|0,3:2|0:0,0:0:0:0:
88,307,65750,1,0,3:2:0:0:
23,235,65900,2,0,P|43:109|43:49,1,149.499993156433,0|4,0:0|3:3,0:0:0:0:
224,14,66500,2,0,P|322:25|374:99,1,149.499993156433,8|8,0:0|0:0,0:0:0:0:
372,94,66900,5,8,0:0:0:0:
411,91,67000,5,8,0:0:0:0:
433,124,67100,6,0,P|428:148|424:173,2,49.8333310521445,10|8|8,0:0|0:0|0:0,0:0:0:0:
453,201,67400,6,0,P|456:225|460:250,2,49.8333310521445,8|8|8,0:0|0:0|0:0,0:0:0:0:
431,278,67700,6,0,B|356:293|383:322|298:348,1,149.499993156433,6|0,3:2|0:0,0:0:0:0:
257,260,68150,1,2,3:2:0:0:
179,317,68300,2,0,P|68:282|-14:267,1,149.499993156433,0|4,0:0|3:3,0:0:0:0:
1,84,68900,2,0,P|91:54|133:-26,1,149.499993156433,8|8,0:0|0:0,0:0:0:0:
219,6,69350,1,0,3:2:0:0:
273,86,69500,2,0,P|310:81|353:77,1,74.7499965782167,10|0,0:0|3:2,0:0:0:0:
413,5,69800,5,10,0:0:0:0:
498,180,70100,6,0,B|476:256|437:229|412:298,1,149.499993156433,6|0,3:2|0:0,0:0:0:0:
460,382,70550,1,0,3:2:0:0:
362,380,70700,2,0,P|290:358|216:347,1,149.499993156433,0|6,0:0|3:3,0:0:0:0:
25,379,71300,2,0,P|92:352|82:253,1,149.499993156433,10|0,0:0|0:0,0:0:0:0:
150,197,71750,1,10,0:0:0:0:
61,157,71900,2,0,P|31:74|15:2,1,149.499993156433,0|6,3:2|0:3,0:0:0:0:
240,3,72500,6,0,B|316:28|271:57|350:102,1,149.499993156433,6|2,3:2|0:0,0:0:0:0:
385,89,72900,5,2,0:0:0:0:
423,101,73000,5,2,0:0:0:0:
460,86,73100,6,0,P|466:58|485:7,1,74.7499965782167,2|8,0:0|3:3,0:0:0:0:
503,206,73550,1,0,3:3:0:0:
409,189,73700,2,0,P|282:240|250:305,1,149.499993156433,14|2,0:0|3:2,0:0:0:0:
226,328,74150,1,2,3:2:0:0:
318,357,74300,1,8,0:0:0:0:
221,347,74450,2,0,P|187:363|152:377,1,74.7499965782167,10|0,0:0|0:0,0:0:0:0:
31,187,74900,6,0,P|115:121|93:-19,1,224.24998973465,6|0,3:2|3:2,0:0:0:0:
17,22,75500,1,0,0:0:0:0:
210,0,75800,2,0,P|222:43|244:167,1,149.499993156433,2|8,3:2|0:0,0:0:0:0:
160,322,76400,1,2,3:2:0:0:
346,378,76700,1,2,0:0:0:0:
455,308,76900,2,0,P|466:235|483:168,1,124.583327630361,2|2,0:0|0:2,0:0:0:0:
510,93,77300,6,0,P|456:31|311:20,1,224.24998973465,0|2,3:2|3:2,0:0:0:0:
234,60,77900,1,0,0:0:0:0:
36,33,78200,2,0,P|53:71|62:121,1,74.7499965782167,0|2,3:2|0:0,0:0:0:0:
24,193,78500,2,0,P|96:210|164:241,1,149.499993156433,10|0,0:0|0:0,0:0:0:0:
251,285,78950,1,0,3:2:0:0:
188,359,79100,1,10,0:0:0:0:
266,301,79250,2,0,P|302:292|336:276,1,74.7499965782167,8|0,0:0|3:2,0:0:0:0:
508,133,79700,6,0,B|401:103|443:38|325:-4,1,224.24998973465,4|0,3:2|3:2,0:0:0:0:
237,6,80300,1,0,0:0:0:0:
239,200,80600,2,0,P|202:208|168:224,1,74.7499965782167,2|0,3:2|0:0,0:0:0:0:
84,173,80900,2,0,P|115:240|132:313,1,149.499993156433,10|0,0:0|3:2,0:0:0:0:
218,359,81350,1,2,0:0:0:0:
295,300,81500,1,0,0:0:0:0:
476,370,81800,2,0,P|483:307|492:269,1,74.7499965782167,2|0,3:2|0:0,0:0:0:0:
416,228,82100,6,0,P|402:117|387:49,1,149.499993156433,0|0,3:2|0:0,0:0:0:0:
311,28,82550,1,0,3:2:0:0:
254,106,82700,2,0,P|225:102|155:85,1,74.7499965782167,0|8,3:2|0:0,0:0:0:0:
117,17,83000,1,0,3:2:0:0:
5,176,83300,2,0,P|3:277|12:381,1,149.499993156433,14|0,0:0|3:2,0:0:0:0:
98,355,83750,1,10,0:3:0:0:
186,314,83900,2,0,P|223:315|260:314,1,74.7499965782167,4|4,0:3|0:3,0:0:0:0:
346,359,84200,5,6,3:2:0:0:
256,192,84350,12,0,86900,0:0:0:0:
