osu file format v14

[General]
AudioFilename: audio.mp3
AudioLeadIn: 0
PreviewTime: 58100
Countdown: 0
SampleSet: Soft
StackLeniency: 0.4
Mode: 0
LetterboxInBreaks: 0
WidescreenStoryboard: 1

[Editor]
DistanceSpacing: 0.1
BeatDivisor: 4
GridSize: 32
TimelineZoom: 3.599999

[Metadata]
Title:give it back (TV Size)
TitleUnicode:give it back (TV Size)
Artist:Co shu Nie
ArtistUnicode:Cö shu Nie
Creator:Rosiie
Version:guan's insane
Source:呪術廻戦
Tags:guanineso wanpachi cycopton xahlt japanese jrock j-rock rock female vocals vocalist jujutsu kaisen sorcery fight 2 2nd second anime ed ending 黒 Poulet Roti! たえ
BeatmapID:3010638
BeatmapSetID:1463434

[Difficulty]
HPDrainRate:6
CircleSize:4.2
OverallDifficulty:7.8
ApproachRate:8.8
SliderMultiplier:1.74
SliderTickRate:1

[Events]
//Background and Video events
0,0,"jjk.jpg",0,0
//Break Periods
//Storyboard Layer 0 (Background)
//Storyboard Layer 1 (Fail)
//Storyboard Layer 2 (Pass)
//Storyboard Layer 3 (Foreground)
//Storyboard Layer 4 (Overlay)
//Storyboard Sound Samples

[TimingPoints]
500,606.060606060606,4,2,1,40,1,0
500,-106.382978723404,4,2,1,44,0,0
1106,-135.135135135135,4,2,1,44,0,0
2015,-106.382978723404,4,2,1,5,0,0
2318,-106.382978723404,4,2,1,44,0,0
2924,600,4,2,1,40,1,0
2924,-185.185185185185,4,2,1,44,0,0
3824,638.297872340426,4,2,1,40,1,0
3824,-185.185185185185,4,2,1,44,0,0
4143,555.555555555556,4,2,1,40,1,0
4420,600,4,2,1,40,1,0
4420,-135.135135135134,4,2,1,44,0,0
5320,600,4,2,1,40,1,0
5320,-185.185185185183,4,2,1,44,0,0
5920,-294.117647058818,4,2,1,44,0,0
6520,-185.185185185185,4,2,1,44,0,0
7120,-294.117647058818,4,2,1,44,0,0
10120,-714.285714285684,4,2,1,44,0,0
10720,659.340659340659,4,2,1,40,1,0
10720,-185.185185185183,4,2,1,44,0,0
11379,570.071258907363,4,2,1,40,1,0
11379,-135.135135135134,4,2,1,44,0,0
12520,600,4,2,1,40,1,0
12920,-185.185185185183,4,2,1,44,0,0
14620,-185.185185185183,4,2,1,5,0,0
14920,-714.285714285684,4,2,1,44,0,0
15520,659.340659340659,4,2,1,40,1,0
15520,-185.185185185183,4,2,1,44,0,0
16179,570.071258907363,4,2,1,40,1,0
16179,-135.135135135134,4,2,1,44,0,0
17320,600,4,2,1,40,1,0
17720,-185.185185185183,4,2,1,44,0,0
18720,-185.185185185183,4,2,1,5,0,0
18920,-185.185185185183,4,2,1,44,0,0
19720,-714.285714285684,4,2,1,44,0,0
20620,-185.185185185183,4,2,1,44,0,0
22120,-714.285714285684,4,2,1,44,0,0
23020,-185.185185185183,4,2,1,44,0,0
25720,625,4,2,1,40,1,0
25720,-135.135135135134,4,2,1,44,0,0
26657,526.315789473684,4,2,1,40,1,0
26920,600,4,2,1,40,1,0
26920,-294.117647058818,4,2,1,44,0,0
29320,-714.285714285684,4,2,1,44,0,0
30520,625,4,2,1,40,1,0
31457,526.315789473684,4,2,1,40,1,0
31720,582.52427184466,4,2,1,40,1,0
32885,666.666666666667,4,2,1,40,1,0
33218,600,4,2,1,40,1,0
33218,-714.285714285714,4,2,1,40,0,0
34118,600,4,2,1,40,1,0
34118,-294.117647058818,4,2,1,44,0,0
37718,591.133004926108,4,2,1,40,1,0
38900,600,4,2,1,40,1,0
38900,-39.3700787401573,4,2,1,54,0,0
39350,-106.382978723403,4,2,1,54,0,0
39800,-57.4712643678158,4,2,1,54,0,0
40100,-51.5463917525771,4,2,1,54,0,0
40400,-74.6268656716412,4,2,1,54,0,0
41300,-51.5463917525771,4,2,1,54,0,0
41900,-64.9350649350645,4,2,1,54,0,0
42200,-57.4712643678158,4,2,1,54,0,0
42500,-51.5463917525771,4,2,1,54,0,0
43700,-39.3700787401573,4,2,1,54,0,0
44300,-64.9350649350645,4,2,1,54,0,0
44900,-51.5463917525771,4,2,1,54,0,0
45200,-64.9350649350645,4,2,1,54,0,0
45500,-57.4712643678158,4,2,1,54,0,0
45800,-106.382978723403,4,2,1,54,0,0
46700,-57.4712643678158,4,2,1,54,0,0
47000,-64.9350649350645,4,2,1,54,0,0
47300,-46.7289719626166,4,2,1,54,0,0
48500,-51.5463917525771,4,2,1,54,0,0
49400,-106.382978723403,4,2,1,54,0,0
49700,-57.4712643678158,4,2,1,54,0,0
50000,-64.9350649350645,4,2,1,54,0,0
50300,-51.5463917525771,4,2,1,54,0,0
50900,-64.9350649350645,4,2,1,54,0,0
51350,-74.6268656716412,4,2,1,54,0,0
51800,-57.4712643678158,4,2,1,54,0,0
53300,-51.5463917525771,4,2,1,54,0,0
53750,-106.382978723404,4,2,1,54,0,0
54200,-57.4712643678161,4,2,1,54,0,0
54500,-51.5463917525773,4,2,1,54,0,0
54800,-74.6268656716418,4,2,1,54,0,0
55700,-64.9350649350649,4,2,1,54,0,0
56600,-51.5463917525773,4,2,1,54,0,0
58100,-714.285714285714,4,2,1,44,0,0
60900,-294.117647058824,4,2,1,44,0,0
62900,-714.285714285714,4,2,1,44,0,0
64700,-185.185185185185,4,2,1,74,0,0
65300,-39.3700787401575,4,2,1,64,0,0
65750,-106.382978723404,4,2,1,64,0,0
66200,-57.4712643678161,4,2,1,64,0,0
66500,-51.5463917525773,4,2,1,64,0,0
67700,-39.3700787401575,4,2,1,64,0,0
68150,-57.4712643678161,4,2,1,64,0,0
68600,-51.5463917525773,4,2,1,64,0,0
69800,-106.382978723404,4,2,1,64,0,0
70100,-51.5463917525773,4,2,1,64,0,0
70550,-74.6268656716418,4,2,1,64,0,0
71000,-57.4712643678161,4,2,1,64,0,0
71300,-51.5463917525773,4,2,1,64,0,0
71900,-64.9350649350649,4,2,1,64,0,0
72500,-51.5463917525773,4,2,1,64,0,0
73250,-185.185185185185,4,2,1,64,0,0
73700,-39.3700787401575,4,2,1,64,0,0
74150,-51.5463917525773,4,2,1,64,0,0
74450,-106.382978723404,4,2,1,64,0,0
74900,-57.4712643678161,4,2,1,64,0,0
75350,-106.382978723404,4,2,1,64,0,0
75800,-64.9350649350649,4,2,1,64,0,0
76100,-57.4712643678161,4,2,1,64,0,0
77300,-64.9350649350649,4,2,1,64,0,0
77900,-74.6268656716418,4,2,1,64,0,0
79700,-57.4712643678161,4,2,1,64,0,0
80150,-106.382978723404,4,2,1,64,0,0
80600,-74.6268656716418,4,2,1,64,0,0
80900,-57.4712643678161,4,2,1,64,0,0
81500,-64.9350649350649,4,2,1,64,0,0
82100,-57.4712643678161,4,2,1,64,0,0
83300,-74.6268656716418,4,2,1,64,0,0
83750,-106.382978723404,4,2,1,64,0,0
84200,-294.117647058822,4,2,1,64,0,0
86900,-294.117647058822,4,2,1,5,0,0

[Colours]
Combo1 : 255,128,64
Combo2 : 237,221,213
Combo3 : 255,255,128
Combo4 : 206,188,178

[HitObjects]
38,263,500,5,2,0:0:0:0:
7,194,803,2,0,L|18:152,2,27.2599995840454,2|2|2,0:0|0:0|0:0,0:0:0:0:
38,263,1106,6,0,B|103:249|123:299|117:294|140:352|202:340,1,193.140004715332,2|0,0:0|0:0,0:0:0:0:
191,264,2318,5,2,0:0:0:0:
200,340,2520,1,2,0:0:0:0:
267,376,2722,1,2,0:0:0:0:
340,349,2924,6,0,L|321:281,1,62.6400015292969,2|2,0:0|0:0,0:0:0:0:
276,230,3824,2,0,L|282:206,1,23.4900005734863,2|2,0:0|0:0,0:0:0:0:
301,136,4143,1,2,0:0:0:0:
394,234,4420,5,2,0:0:0:0:
394,234,4495,2,0,P|446:247|478:200,1,112.66500275061,2|2,0:0|0:0,0:0:0:0:
501,75,5320,6,0,L|489:31,1,46.9800011469727,2|2,0:0|0:0,0:0:0:0:
427,89,5920,2,0,L|419:60,1,29.580000180542,2|2,0:0|0:0,0:0:0:0:
227,123,6520,6,0,L|238:78,1,46.9800011469727,2|2,0:0|0:0,0:0:0:0:
301,136,7120,2,0,L|308:107,1,29.580000180542,2|2,0:0|0:0,0:0:0:0:
183,17,7720,6,0,L|124:32,1,59.160000361084,2|2,0:0|0:0,0:0:0:0:
73,91,8620,1,2,0:0:0:0:
11,40,8920,5,2,0:0:0:0:
73,91,9220,1,2,0:0:0:0:
26,256,9520,5,2,0:0:0:0:
47,184,9670,1,2,0:0:0:0:
47,184,10120,6,0,L|52:161,1,18.2700002230225,2|2,0:0|0:0,0:0:0:0:
10,317,10720,2,0,L|29:245,1,62.6400015292969,2|2,0:0|0:0,0:0:0:0:
126,327,11379,6,0,B|191:340|220:274|220:274|195:327|224:369,1,214.600005239258,2|2,0:0|0:0,0:0:0:0:
145,248,12519,5,2,0:0:0:0:
201,196,12720,1,2,0:0:0:0:
315,328,12920,6,0,B|374:399|476:379|478:292|428:255|377:282,1,266.220006499512,2|0,0:0|0:0,0:0:0:0:
315,328,14920,6,0,L|320:350,1,18.2700002230225,2|0,0:0|0:0,0:0:0:0:
278,195,15520,2,0,L|297:266,1,62.6400015292969,2|2,0:0|0:0,0:0:0:0:
377,135,16179,6,0,B|379:87|429:70|429:70|382:66|346:106|365:166,1,214.600005239258,2|2,0:0|0:0,0:0:0:0:
453,143,17319,5,2,0:0:0:0:
512,97,17520,1,2,0:0:0:0:
377,135,17720,6,0,B|315:151|315:151|281:146|260:111|284:78,1,156.600003823242,2|0,0:0|0:0,0:0:0:0:
317,11,18920,2,0,L|349:19,2,31.3200007646485,2|2|2,0:0|0:0|0:0,0:0:0:0:
317,11,19720,6,0,L|297:6,1,20.3000002478027,2|0,0:0|0:0,0:0:0:0:
100,117,20620,6,0,P|148:128|188:88,1,109.62000267627,2|2,0:0|0:0,0:0:0:0:
206,15,21520,1,2,0:0:0:0:
187,88,21720,1,2,0:0:0:0:
20,25,22120,6,0,L|26:1,1,24.3600002973633,2|0,0:0|0:0,0:0:0:0:
100,117,23020,6,0,B|105:145|105:145|90:180|90:180|96:207,1,93.9600022939454,2|2,0:0|0:0,0:0:0:0:
147,264,23821,1,2,0:0:0:0:
35,333,24120,5,2,0:0:0:0:
35,333,24520,6,0,B|24:310|-2:299|-2:299|80:337,1,140.940003440918,2|0,0:0|0:0,0:0:0:0:
286,339,25720,6,0,B|263:386|180:381|162:323|162:323|178:312|189:298,1,193.140004715332,2|2,0:0|0:0,0:0:0:0:
342,199,26920,6,0,B|355:165|392:159|392:159|351:157|336:188|340:184|327:219|292:227,1,192.270001173523,2|0,0:0|0:0,0:0:0:0:
20,25,29320,6,0,L|66:37,2,48.7200005947266,2|2|2,0:0|0:0|0:0,0:0:0:0:
100,117,33218,6,0,L|124:110,1,24.3600002973633,2|0,0:0|0:0,0:0:0:0:
295,42,34118,6,0,P|240:33|212:82,2,118.320000722168,2|2|2,0:0|0:0|0:0,0:0:0:0:
295,42,37718,1,2,0:0:0:0:
212,81,38309,5,2,0:0:0:0:
281,117,38456,1,2,0:0:0:0:
397,64,38604,5,2,0:0:0:0:
487,29,38752,1,2,0:0:0:0:
436,181,38900,6,0,B|430:161|416:148|416:148|505:180|505:180|526:200|526:244|493:258,1,220.979998314056,4|0,3:2|0:0,0:0:0:0:
396,345,39350,2,0,P|417:325|467:327,1,81.7799987521363,0|0,3:2|0:0,0:0:0:0:
300,309,39800,6,0,B|268:315|237:286|237:286|261:305|265:330,1,113.535000952824,0|0,3:2|0:0,0:0:0:0:
194,349,40100,2,0,B|161:361|161:361|155:368|155:368|117:383,1,84.3900019959183,8|0,0:0|0:0,0:0:0:0:
4,243,40400,6,0,B|19:233|29:209|29:209|9:286,2,116.579994485504,0|2|0,3:2|3:2|3:2,0:0:0:0:
8,293,41150,1,6,0:3:0:0:
80,138,41300,6,0,B|129:119|159:157|153:159|178:200|230:187,1,168.780003991837,0|0,3:2|0:0,0:0:0:0:
80,138,41750,1,0,3:2:0:0:
171,58,41900,6,0,B|193:57|196:29|196:29|181:50|146:59,1,100.484998006737,2|0,0:0|0:0,0:0:0:0:
63,23,42200,2,0,B|47:-1|17:10|17:10|51:18|71:40,1,113.535000952824,2|0,3:2|0:0,0:0:0:0:
262,108,42500,6,0,B|299:92|299:92|305:85|305:85|338:73,1,84.3900019959183,8|0,0:0|0:0,0:0:0:0:
385,12,42800,1,2,3:2:0:0:
508,139,42950,1,2,0:0:0:0:
375,145,43100,5,8,0:0:0:0:
441,89,43250,1,8,0:0:0:0:
370,149,43400,1,2,3:2:0:0:
459,320,43700,6,0,B|487:276|553:339|487:395|433:344|445:340|410:293|350:320,1,220.979998314056,6|0,3:2|0:0,0:0:0:0:
265,363,44150,1,0,3:2:0:0:
339,222,44300,6,0,B|286:252|286:252|303:237|306:219,1,100.484998006737,0|0,3:2|0:0,0:0:0:0:
234,200,44600,1,0,3:2:0:0:
358,317,44750,1,8,0:3:0:0:
117,382,44900,6,0,P|99:343|121:306,1,84.3900019959183,8|0,0:0|0:0,0:0:0:0:
234,200,45200,6,0,B|207:198|188:177|188:177|179:205|156:218,1,100.484998006737,0|0,3:2|0:0,0:0:0:0:
117,152,45500,2,0,B|88:150|68:173|68:173|57:143|26:130,1,113.535000952824,0|0,3:2|0:0,0:0:0:0:
0,205,45800,6,0,L|10:243,1,40.8899993760681,2|0,3:2|0:0,0:0:0:0:
134,52,46100,5,2,3:2:0:0:
18,28,46325,5,2,0:0:0:0:
117,152,46550,5,2,3:2:0:0:
117,152,46625,1,2,0:0:0:0:
117,152,46700,2,0,B|148:139|148:139|155:132|155:132|188:122,1,75.6900006352158,2|0,0:0|0:0,0:0:0:0:
313,54,47000,6,0,P|319:20|308:52,1,100.484998006737,0|0,3:2|0:0,0:0:0:0:
330,128,47300,6,0,B|354:176|424:179|447:130|447:130|433:118|419:95,1,186.179994318237,12|0,0:0|3:2,0:0:0:0:
248,192,47750,5,0,3:2:0:0:
367,348,47900,1,8,0:0:0:0:
367,268,48050,5,8,0:3:0:0:
263,364,48200,1,0,3:2:0:0:
209,307,48350,1,8,0:3:0:0:
367,268,48500,6,0,B|418:262|437:303|430:300|446:339|494:341|494:341|439:333|427:282|433:240|490:221|517:257,1,337.560007983673,6|0,3:2|0:0,0:0:0:0:
479,101,49400,6,0,L|492:53,1,40.8899993760681,2|0,3:2|0:0,0:0:0:0:
357,163,49700,6,0,B|364:184|391:191|391:191|350:193|334:156,1,113.535000952824,8|0,0:0|0:0,0:0:0:0:
280,113,50000,2,0,B|285:97|310:88|310:88|271:88|257:126,1,100.484998006737,2|0,3:2|0:0,0:0:0:0:
222,188,50300,6,0,B|189:200|189:200|183:207|183:207|145:222,1,84.3900019959183,2|0,0:0|0:0,0:0:0:0:
30,53,50600,1,2,3:2:0:0:
95,15,50750,1,2,0:0:0:0:
153,68,50900,6,0,B|179:106|146:143|146:143|114:178|151:231,1,167.474996677895,0|0,3:2|0:0,0:0:0:0:
50,276,51350,6,0,B|12:280|12:317|12:317|38:280|80:277,1,145.724993106881,0|0,3:2|0:0,0:0:0:0:
187,380,51800,6,0,B|206:321|206:321|154:300,1,113.535000952824,0|0,3:2|0:0,0:0:0:0:
187,380,52100,5,10,0:0:0:0:
328,294,52300,5,2,0:0:0:0:
394,369,52500,5,2,0:0:0:0:
267,232,52700,5,10,0:0:0:0:
306,167,52850,1,8,0:0:0:0:
381,150,53000,1,0,3:2:0:0:
440,197,53150,1,2,3:2:0:0:
352,27,53300,6,0,B|394:11|426:51|426:51|423:52|423:52|441:98|489:96,1,168.780003991837,4|0,3:2|0:0,0:0:0:0:
343,23,53750,2,0,B|310:35|310:35|304:42|304:42|266:56,1,81.7799987521363,0|0,3:2|0:0,0:0:0:0:
68,56,54200,6,0,B|60:41|38:31|38:31|113:66,1,113.535000952824,2|0,3:2|0:0,0:0:0:0:
168,103,54500,2,0,P|189:68|174:30,1,84.3900019959183,10|0,0:0|0:0,0:0:0:0:
21,194,54800,6,0,B|55:198|80:170|80:170|61:195|64:218,2,116.579994485504,0|2|2,3:2|3:2|3:2,0:0:0:0:
27,118,55550,1,0,3:2:0:0:
148,216,55700,6,0,B|187:205|187:205|239:232|239:232|284:220,1,133.979997342316,2|0,3:2|3:2,0:0:0:0:
139,217,56150,1,8,0:0:0:0:
282,220,56300,5,2,3:2:0:0:
29,376,56600,6,0,P|8:328|70:303,1,126.585002993877,2|0,3:2|0:0,0:0:0:0:
131,332,56900,1,14,0:0:0:0:
21,194,57050,1,0,3:2:0:0:
63,300,57200,5,8,0:3:0:0:
139,217,57350,1,6,0:3:0:0:
142,212,57650,5,8,0:3:0:0:
59,304,57800,1,6,0:3:0:0:
365,228,58100,6,0,L|411:215,1,48.7200005947266,2|2,0:0|0:0,0:0:0:0:
365,228,60200,1,2,0:0:0:0:
383,301,60900,6,0,L|431:288,1,49.3000003009033,2|2,0:0|0:0,0:0:0:0:
365,228,61700,1,2,0:0:0:0:
402,374,62225,1,2,0:0:0:0:
402,374,62900,6,0,L|449:361,1,48.7200005947266,2|2,0:0|0:0,0:0:0:0:
402,374,64700,5,2,0:0:0:0:
383,301,64900,1,2,0:0:0:0:
365,228,65100,1,2,0:0:0:0:
470,73,65300,6,0,B|482:40|522:36|522:36|471:27|452:73|459:73|447:112|399:111,1,220.979998314056,6|0,3:2|0:0,0:0:0:0:
289,7,65750,2,0,P|328:-1|363:21,1,81.7799987521363,0|0,3:2|0:0,0:0:0:0:
200,56,66200,6,0,B|135:37|135:37|158:49|169:72,1,113.535000952824,4|0,3:3|0:0,0:0:0:0:
101,102,66500,2,0,B|-1:141|-1:141|33:129|45:95,1,168.780003991837,8|8,0:0|0:0,0:0:0:0:
35,25,66950,1,0,0:0:0:0:
163,149,67100,5,10,0:0:0:0:
157,166,67200,1,8,0:0:0:0:
152,185,67300,1,8,0:0:0:0:
98,240,67400,5,8,0:0:0:0:
105,265,67500,1,8,0:0:0:0:
115,294,67600,1,8,0:0:0:0:
186,348,67700,6,0,B|224:411|324:406|328:296|256:299,1,220.979998314056,6|0,3:2|0:0,0:0:0:0:
115,294,68150,6,0,B|83:300|52:271|52:271|76:290|80:315,1,113.535000952824,2|0,3:2|0:0,0:0:0:0:
10,335,68450,1,8,0:3:0:0:
201,242,68600,6,0,B|239:227|239:227|245:220|245:220|278:208,1,84.3900019959183,4|0,3:3|0:0,0:0:0:0:
455,345,68900,5,8,0:0:0:0:
379,324,69050,1,0,3:2:0:0:
347,252,69200,5,8,0:0:0:0:
480,215,69350,1,0,3:2:0:0:
511,147,69500,5,10,0:0:0:0:
321,94,69650,1,0,3:2:0:0:
424,16,69800,6,0,P|442:39|440:69,1,61.3349990641022,10|0,0:0|0:0,0:0:0:0:
402,136,70100,6,0,B|390:128|377:116|377:116|324:134|324:134|317:183|274:195,1,168.780003991837,6|0,3:2|0:0,0:0:0:0:
188,104,70550,2,0,B|166:88|142:106|142:106|180:103|204:126,1,116.579994485504,0|0,3:2|0:0,0:0:0:0:
67,32,71000,6,0,B|24:47|24:47|-7:81|24:111,1,113.535000952824,6|0,3:3|0:0,0:0:0:0:
65,178,71300,6,0,B|91:216|58:254|58:254|26:294|63:341,1,168.780003991837,10|0,0:0|0:0,0:0:0:0:
261,220,71750,1,10,0:0:0:0:
238,298,71900,6,0,B|210:346|134:332|124:290|124:290|138:280|145:269,1,167.474996677895,0|0,3:2|0:0,0:0:0:0:
170,202,72350,1,8,0:0:0:0:
319,353,72500,6,0,B|368:355|392:307|392:307|398:304|398:304|369:336|378:369,1,168.780003991837,6|2,3:2|0:0,0:0:0:0:
261,220,72950,1,2,3:2:0:0:
261,220,73025,1,2,0:0:0:0:
261,220,73100,5,2,0:0:0:0:
326,180,73250,2,0,L|382:195,1,58.7250014337159,8|0,3:3|0:0,0:0:0:0:
495,243,73700,6,0,B|510:216|539:203|539:203|433:245,1,165.734998735542,14|0,0:0|0:0,0:0:0:0:
398,303,74000,1,2,3:2:0:0:
471,147,74150,6,0,P|483:108|451:74,1,84.3900019959183,2|8,3:2|0:0,0:0:0:0:
347,21,74450,2,0,L|283:39,1,61.3349990641022,10|0,0:0|0:0,0:0:0:0:
233,91,74750,1,8,0:0:0:0:
102,30,74900,6,0,B|150:21|171:59|166:58|186:94|233:90,1,151.380001270432,6|0,3:2|0:0,0:0:0:0:
26,16,75350,2,0,B|0:44|0:44|19:82,1,81.7799987521363,0|0,3:2|0:0,0:0:0:0:
120,202,75800,6,0,B|145:194|148:167|148:167|131:190|96:196,1,100.484998006737,2|0,3:2|0:0,0:0:0:0:
35,170,76100,6,0,B|24:210|24:210|53:272|53:272|39:315,1,151.380001270432,8|2,0:0|3:2,0:0:0:0:
35,170,76550,1,0,0:0:0:0:
166,266,76700,5,2,0:0:0:0:
40,311,76900,5,2,0:0:0:0:
120,202,77150,5,2,0:0:0:0:
166,266,77300,2,0,B|212:276|241:238|241:238|220:265|225:298,1,133.979997342316,0|0,3:2|0:0,0:0:0:0:
422,300,77750,5,2,3:2:0:0:
335,374,77900,2,0,P|320:334|350:303,1,87.4349958641283,2|0,0:0|0:0,0:0:0:0:
422,300,78200,5,0,3:2:0:0:
230,383,78350,1,2,3:2:0:0:
302,204,78500,5,10,0:0:0:0:
347,303,78700,5,2,0:0:0:0:
265,135,78900,5,2,0:0:0:0:
512,212,79100,5,10,0:0:0:0:
442,190,79250,1,8,0:0:0:0:
373,227,79400,1,0,3:2:0:0:
302,204,79550,1,2,3:2:0:0:
407,56,79700,6,0,B|436:29|490:37|503:81|503:81|485:97|476:123,1,151.380001270432,4|0,3:2|0:0,0:0:0:0:
383,121,80150,2,0,P|372:82|394:48,1,81.7799987521363,0|0,3:2|0:0,0:0:0:0:
265,135,80600,6,0,B|228:123|228:123|220:117|220:117|179:105,1,87.4349958641283,2|0,3:2|0:0,0:0:0:0:
182,29,80900,6,0,B|129:44|129:44|108:78|108:78|54:94,1,151.380001270432,10|0,0:0|3:2,0:0:0:0:
0,14,81350,1,2,0:0:0:0:
62,101,81500,6,0,P|96:145|76:190,1,100.484998006737,2|0,0:2|0:0,0:0:0:0:
22,223,81800,1,2,3:2:0:0:
180,169,81950,1,0,3:2:0:0:
108,328,82100,6,0,B|104:304|94:280|94:280|110:246|158:237|184:266,1,151.380001270432,8|2,0:2|0:0,0:0:0:0:
311,348,82550,1,0,3:2:0:0:
261,276,82700,5,0,3:2:0:0:
215,378,82850,1,8,0:0:0:0:
362,225,83000,5,0,3:2:0:0:
424,343,83150,1,0,3:2:0:0:
314,161,83300,6,0,P|325:128|330:98,2,58.2899972427522,14|0|0,0:0|3:2|3:2,0:0:0:0:
362,225,83750,2,0,P|366:247|375:275,2,40.8899993760681,10|4|4,0:3|0:3|0:3,0:0:0:0:
211,60,84200,6,0,B|160:-6|61:8|44:63|72:133|137:110,1,266.220001624878,6|0,3:2|0:0,0:0:0:0:
