osu file format v14

[General]
AudioFilename: audio.mp3
AudioLeadIn: 0
PreviewTime: 58100
Countdown: 0
SampleSet: Soft
StackLeniency: 0.4
Mode: 0
LetterboxInBreaks: 0
WidescreenStoryboard: 0

[Editor]
Bookmarks: 38900,65300
DistanceSpacing: 0.1
BeatDivisor: 4
GridSize: 4
TimelineZoom: 2.4

[Metadata]
Title:give it back (TV Size)
TitleUnicode:give it back (TV Size)
Artist:Co shu Nie
ArtistUnicode:Cö shu Nie
Creator:Rosiie
Version:alone
Source:呪術廻戦
Tags:guanineso wanpachi cycopton xahlt japanese jrock j-rock rock female vocals vocalist jujutsu kaisen sorcery fight 2 2nd second anime ed ending 黒 Poulet Roti! たえ
BeatmapID:3006043
BeatmapSetID:1463434

[Difficulty]
HPDrainRate:5.7
CircleSize:5
OverallDifficulty:8.5
ApproachRate:9
SliderMultiplier:2.6
SliderTickRate:1

[Events]
//Background and Video events
0,0,"bg.jpg",0,0
//Break Periods
//Storyboard Layer 0 (Background)
//Storyboard Layer 1 (Fail)
//Storyboard Layer 2 (Pass)
//Storyboard Layer 3 (Foreground)
//Storyboard Layer 4 (Overlay)
//Storyboard Sound Samples

[TimingPoints]
500,606.060606060606,4,2,1,40,1,0
2924,600,4,2,1,40,1,0
2924,-250,4,2,1,40,0,0
3824,638.297872340426,4,2,1,40,1,0
3824,-250,4,2,1,40,0,0
4143,555.555555555556,4,2,1,40,1,0
4143,-250,4,2,1,40,0,0
4420,600,4,2,1,40,1,0
4420,-250,4,2,1,40,0,0
5320,600,4,2,1,40,1,0
5320,-166.666666666667,4,2,1,40,0,0
10720,659.340659340659,4,2,1,40,1,0
10720,-166.666666666667,4,2,1,40,0,0
11049,-166.666666666667,4,2,1,5,0,0
11159,-166.666666666667,4,2,1,40,0,0
11379,570.071258907363,4,2,1,40,1,0
11379,-166.666666666667,4,2,1,40,0,0
12234,-166.666666666667,4,2,1,5,0,0
12329,-166.666666666667,4,2,1,40,0,0
12520,600,4,2,1,40,1,0
12520,-166.666666666667,4,2,1,40,0,0
12920,-250.000000000001,4,2,1,40,0,0
15520,659.340659340659,4,2,1,40,1,0
15520,-166.666666666667,4,2,1,40,0,0
15849,-166.666666666667,4,2,1,5,0,0
15959,-166.666666666667,4,2,1,40,0,0
16179,570.071258907363,4,2,1,40,1,0
16179,-166.666666666667,4,2,1,40,0,0
17320,600,4,2,1,40,1,0
17320,-166.666666666667,4,2,1,40,0,0
20620,-166.666666666667,4,2,1,40,0,0
23520,-166.666666666667,4,2,1,5,0,0
23620,-166.666666666667,4,2,1,40,0,0
25720,625,4,2,1,40,1,0
25720,-166.666666666667,4,2,1,40,0,0
26657,526.315789473684,4,2,1,40,1,0
26920,600,4,2,1,40,1,0
26920,-250.000000000001,4,2,1,40,0,0
30520,625,4,2,1,40,1,0
30520,-250.000000000001,4,2,1,40,0,0
31457,526.315789473684,4,2,1,40,1,0
31720,582.52427184466,4,2,1,40,1,0
31720,-250.000000000001,4,2,1,40,0,0
32885,666.666666666667,4,2,1,40,1,0
33218,600,4,2,1,40,1,0
33218,-250.000000000001,4,2,1,40,0,0
34118,600,4,2,1,40,1,0
34118,-250.000000000001,4,2,1,40,0,0
37718,591.133004926108,4,2,1,40,1,0
38900,600,4,2,1,40,1,0
38900,-66.6666666666667,4,2,1,50,0,0
39350,-125,4,2,1,50,0,0
39800,-76.9230769230769,4,2,1,50,0,0
40100,-66.6666666666667,4,2,1,50,0,0
40400,-100,4,2,1,50,0,0
41300,-83.3333333333333,4,2,1,50,0,0
45200,-100,4,2,1,50,0,0
47300,-76.9230769230769,4,2,1,50,0,0
48500,-90.9090909090909,4,2,1,50,0,0
53300,-71.4285714285714,4,2,1,50,0,0
54200,-100,4,2,1,50,0,0
58100,-500,4,2,1,40,0,0
60500,-1000,4,2,1,40,0,0
62900,-500,4,2,1,40,0,0
65300,-62.5,4,2,1,60,0,1
74900,-66.6666666666667,4,2,1,60,0,1
84200,-400,4,2,1,60,0,0
86900,-400,4,2,1,10,0,0

[Colours]
Combo1 : 175,221,254
Combo2 : 102,189,115

[HitObjects]
285,180,500,5,2,0:0:0:0:
112,57,803,5,2,0:0:0:0:
111,68,904,5,2,0:0:0:0:
110,76,1005,5,2,0:0:0:0:
69,136,1106,5,2,0:0:0:0:
144,324,2318,5,2,0:0:0:0:
214,288,2520,1,2,0:0:0:0:
281,328,2722,1,2,0:0:0:0:
137,237,2924,6,0,P|131:193|126:161,1,69.3333333333333,2|2,0:0|0:0,0:0:0:0:
282,19,3824,2,0,P|284:41|286:63,1,26,2|2,0:0|0:0,0:0:0:0:
340,105,4143,1,2,0:0:0:0:
482,216,4420,6,0,L|482:207,2,6.5,2|2|2,0:0|0:0|0:0,0:0:0:0:
342,94,5020,1,2,0:0:0:0:
273,180,5320,6,0,B|240:190|244:206|197:225,1,77.999997619629,2|2,0:0|0:0,0:0:0:0:
405,293,5920,5,2,0:0:0:0:
305,250,6220,1,2,0:0:0:0:
454,127,6520,6,0,P|443:159|433:202,1,77.999997619629,2|2,0:0|0:0,0:0:0:0:
301,328,7120,5,2,0:0:0:0:
432,223,7420,1,2,0:0:0:0:
216,127,7720,6,0,B|169:99|114:111|87:166|145:179|153:146,1,155.999995239258,2|2,0:0|0:0,0:0:0:0:
240,30,8620,1,2,0:0:0:0:
371,187,8920,6,0,P|334:197|297:212,1,77.999997619629,2|2,0:0|0:0,0:0:0:0:
223,293,9520,1,2,0:0:0:0:
293,224,9670,1,2,0:0:0:0:
35,84,10120,5,2,0:0:0:0:
136,207,10570,5,2,0:0:0:0:
150,188,10720,2,0,P|141:156|128:82,1,77.999997619629,2|0,0:0|0:0,0:0:0:0:
137,101,11159,1,2,0:0:0:0:
261,203,11379,2,0,B|391:213|323:292|448:335,1,233.999992858887,2|0,0:0|0:0,0:0:0:0:
476,319,12329,1,2,0:0:0:0:
452,210,12520,6,0,P|454:183|457:159,1,51.999998413086,2|2,0:0|0:0,0:0:0:0:
512,74,12920,2,0,B|498:-6|420:-37|305:-25|302:67|335:116|393:118|416:80,1,346.666666666667,2|2,0:0|0:0,0:0:0:0:
181,23,15520,6,0,P|140:52|124:80,1,77.999997619629,2|0,0:0|0:0,0:0:0:0:
121,86,15959,1,2,0:0:0:0:
29,152,16179,2,0,P|70:162|164:230,1,155.999995239258,2|0,0:0|0:0,0:0:0:0:
234,345,17129,1,0,0:0:0:0:
227,330,17320,6,0,P|190:349|159:363,1,51.999998413086,2|2,0:0|0:0,0:0:0:0:
393,253,17720,2,0,P|351:244|194:174,1,207.999993652344,2|0,0:0|0:0,0:0:0:0:
78,48,18920,6,0,P|84:69|92:102,2,51.999998413086,2|2|2,0:0|0:0|0:0,0:0:0:0:
205,265,19720,5,2,0:0:0:0:
331,9,20620,6,0,P|336:62|352:208,1,181.999994445801,2|0,0:0|0:0,0:0:0:0:
355,216,21520,1,2,0:0:0:0:
265,148,21720,2,0,B|215:163|234:187|146:222,1,103.999996826172,2|2,0:0|0:0,0:0:0:0:
441,366,23020,6,0,P|445:337|456:223,1,129.999996032715,2|0,0:0|0:0,0:0:0:0:
437,212,23620,2,0,P|439:186|441:160,1,51.999998413086,2|2,0:0|0:0,0:0:0:0:
282,267,24120,1,2,0:0:0:0:
46,49,24520,6,0,B|191:71|110:138|248:168,1,233.999992858887,2|0,0:0|0:0,0:0:0:0:
369,176,25720,2,0,B|325:186|295:234|295:234|337:161|290:78,1,233.999992858887,2|2,0:0|0:0,0:0:0:0:
507,0,26920,6,0,P|468:124|425:304,1,311.999990478516,2|0,0:0|0:0,0:0:0:0:
184,202,29320,6,0,B|100:223|142:271|51:296,1,156,2|0,0:0|0:0,0:0:0:0:
14,201,30520,2,0,P|29:255|47:361,1,156,2|2,0:0|0:0,0:0:0:0:
254,205,31720,6,0,B|362:171|307:118|422:84,1,208,2|2,0:0|0:0,0:0:0:0:
294,16,33218,2,0,P|318:53|347:117,1,104,2|0,0:0|0:0,0:0:0:0:
507,213,34118,6,0,P|430:205|389:286,1,156,2|0,0:0|0:0,0:0:0:0:
336,354,35318,2,0,P|315:278|288:205,1,156,2|0,0:0|0:0,0:0:0:0:
396,39,36518,5,2,0:0:0:0:
396,39,37718,5,2,0:0:0:0:
396,39,38309,5,2,0:0:0:0:
290,96,38456,1,2,0:0:0:0:
423,238,38604,5,2,0:0:0:0:
268,307,38752,1,2,0:0:0:0:
414,136,38900,6,0,P|388:222|370:325,1,195.00000743866,4|0,3:2|0:0,0:0:0:0:
309,384,39350,2,0,P|302:339|285:277,1,104,0|0,3:2|0:0,0:0:0:0:
181,177,39800,6,0,B|155:146|113:159|113:159|144:160|171:194,1,126.749994197846,0|0,3:2|0:0,0:0:0:0:
110,225,40100,2,0,P|78:239|16:280,1,97.50000371933,8|0,0:0|0:0,0:0:0:0:
147,74,40400,6,0,B|298:99|223:182|363:216,1,260,0|0,3:2|3:2,0:0:0:0:
437,138,41150,1,6,0:3:0:0:
304,25,41300,6,0,P|333:117|354:212,1,194.999994049072,0|0,3:2|0:0,0:0:0:0:
438,254,41750,2,0,B|403:299|339:285|339:285|391:283|417:248,1,194.999994049072,0|0,3:2|0:0,0:0:0:0:
448,183,42200,1,0,3:2:0:0:
252,363,42500,2,0,P|260:307|280:223,1,116.999996429443,8|0,0:0|0:0,0:0:0:0:
272,231,42800,1,0,3:2:0:0:
174,272,42950,1,0,0:0:0:0:
76,126,43100,5,8,0:0:0:0:
203,199,43250,1,8,0:0:0:0:
78,292,43400,1,2,3:2:0:0:
278,104,43700,6,0,P|341:122|504:197,1,233.999992858887,6|0,3:2|3:2,0:0:0:0:
463,99,44300,5,0,0:0:0:0:
371,208,44450,1,0,0:0:0:0:
254,44,44600,2,0,P|267:80|278:117,1,77.999997619629,0|8,3:2|0:3,0:0:0:0:
162,239,44900,2,0,B|188:202|226:208|226:208|203:213|187:238,1,116.999996429443,8|0,0:0|0:0,0:0:0:0:
248,273,45200,6,0,B|317:284|298:317|374:337,1,130,0|0,3:2|0:0,0:0:0:0:
489,161,45800,2,0,P|471:203|457:267,1,97.5,2|0,3:2|0:0,0:0:0:0:
450,270,46100,5,2,3:2:0:0:
322,177,46325,5,2,0:0:0:0:
152,337,46550,6,0,P|147:288|104:92,1,195,2|0,3:2|3:2,0:0:0:0:
346,14,47300,6,0,B|421:50|421:50|388:148,1,168.999992263794,12|0,0:0|3:2,0:0:0:0:
493,26,47750,1,0,3:2:0:0:
326,114,47900,5,8,0:0:0:0:
471,226,48050,1,8,0:3:0:0:
484,237,48200,1,0,3:2:0:0:
61,268,48500,6,0,B|125:277|181:210|181:210|125:276|170:356,1,286.000008728028,6|0,3:2|0:0,0:0:0:0:
109,130,49400,2,0,P|90:158|99:202,1,71.5000021820069,2|0,3:2|0:0,0:0:0:0:
243,345,49700,2,0,L|258:206,1,107.25000327301,8|0,0:0|0:0,0:0:0:0:
248,222,50000,2,0,L|255:150,1,71.5000021820069,2|0,3:2|0:0,0:0:0:0:
306,108,50300,1,2,0:0:0:0:
453,257,50600,2,0,P|405:258|372:308,1,95.3333362426759,2|0,3:2|0:0,0:0:0:0:
298,374,50900,6,0,P|278:268|249:165,2,214.500006546021,0|0|0,3:2|3:2|3:2,0:0:0:0:
406,157,51950,1,2,0:0:0:0:
340,112,52100,5,10,0:0:0:0:
198,231,52300,5,2,0:0:0:0:
87,174,52500,5,2,0:0:0:0:
234,0,52700,5,10,0:0:0:0:
289,53,52850,1,8,0:0:0:0:
253,118,53000,1,0,3:2:0:0:
21,60,53300,6,0,B|61:-22|156:-22|208:35|185:98|123:116|98:68,1,272.999991668701,4|0,3:2|3:2,0:0:0:0:
224,0,53900,1,0,0:0:0:0:
351,234,54200,2,0,P|360:186|378:122,1,97.5,2|0,3:2|0:0,0:0:0:0:
379,75,54500,6,0,P|338:83|300:137,1,97.5,10|0,0:0|0:0,0:0:0:0:
381,56,54800,2,0,B|265:75|316:131|219:164,1,195,0|0,3:2|0:0,0:0:0:0:
155,61,55400,2,0,B|179:86|211:84|211:84|191:76|177:53,1,97.5,2|0,3:2|0:0,0:0:0:0:
111,0,55700,6,0,L|133:196,1,195,2|8,3:2|0:0,0:0:0:0:
84,285,56300,1,0,0:0:0:0:
271,125,56600,2,0,P|322:115|360:145,1,97.5,2|0,3:2|0:0,0:0:0:0:
408,176,56900,5,14,0:0:0:0:
352,307,57050,1,0,0:0:0:0:
235,217,57200,5,8,0:3:0:0:
179,348,57350,1,6,0:3:0:0:
74,84,57500,5,8,0:3:0:0:
96,156,57650,1,8,0:3:0:0:
120,231,57800,1,6,0:3:0:0:
505,384,58100,6,0,P|509:342|514:298,1,78,2|0,0:0|0:0,0:0:0:0:
437,336,59300,6,0,P|433:294|428:250,1,78,2|2,0:0|0:0,0:0:0:0:
356,384,60500,6,0,P|360:339|365:292,1,91
290,329,62900,6,0,P|286:287|281:243,1,78,2|0,0:0|0:0,0:0:0:0:
229,374,64100,1,2,0:0:0:0:
98,24,64700,5,2,0:0:0:0:
115,104,64900,5,2,0:0:0:0:
143,224,65100,5,2,0:0:0:0:
333,311,65300,6,0,B|260:215|124:244|140:373|198:397|245:381|264:323,2,312,6|0|4,3:2|3:2|3:3,0:0:0:0:
464,135,66500,6,0,P|471:186|479:237,1,104,8|0,0:0|0:0,0:0:0:0:
368,375,66800,2,0,P|356:306|346:237,1,138.666666666667,8|8,0:0|0:0,0:0:0:0:
396,149,67100,5,10,0:0:0:0:
334,114,67200,1,8,0:0:0:0:
270,149,67300,1,8,0:0:0:0:
204,206,67400,5,8,0:0:0:0:
122,189,67500,1,8,0:0:0:0:
90,122,67600,1,8,0:0:0:0:
180,41,67700,6,0,L|164:276,1,208,6|0,3:2|0:0,0:0:0:0:
27,259,68150,2,0,B|145:271|98:336|203:372,1,208,2|8,3:2|0:3,0:0:0:0:
317,209,68600,1,4,3:3:0:0:
212,290,68750,1,0,0:0:0:0:
383,361,68900,5,8,0:0:0:0:
283,280,69050,2,0,P|294:322|304:385,1,104,0|8,3:2|0:0,0:0:0:0:
460,230,69350,1,0,3:2:0:0:
286,141,69500,1,10,0:0:0:0:
370,274,69650,1,0,3:2:0:0:
469,107,69800,2,0,P|425:117|378:165,1,104,10|8,0:0|0:3,0:0:0:0:
222,359,70100,6,0,B|177:299|192:246|236:234|231:192|231:192|282:212|296:263|276:298,2,312,6|0|6,3:2|3:2|3:3,0:0:0:0:
463,58,71300,6,0,B|512:129|467:189|449:188|427:185|373:253|426:344,1,312,10|10,0:0|0:0,0:0:0:0:
488,249,71900,2,0,B|432:169|314:161|259:278|360:350|414:310|419:254,1,312,0|8,3:2|0:0,0:0:0:0:
334,131,72500,6,0,B|279:122|221:166|272:213|151:246,1,208,6|2,3:2|0:0,0:0:0:0:
104,200,72950,1,0,3:2:0:0:
262,344,73100,5,2,0:0:0:0:
169,240,73250,2,0,L|181:356,1,104,8|4,3:3|3:3,0:0:0:0:
322,211,73550,1,0,3:3:0:0:
257,76,73700,6,0,P|226:112|235:169,1,104,14|0,0:0|0:0,0:0:0:0:
474,262,74000,5,2,3:2:0:0:
341,376,74150,2,0,P|349:318|360:256,1,104,2|8,3:2|0:0,0:0:0:0:
459,91,74450,5,10,0:0:0:0:
459,91,74750,5,8,0:0:0:0:
333,6,74900,6,0,P|348:61|376:209,1,195.00000743866,6|0,3:2|0:0,0:0:0:0:
406,299,75350,2,0,B|342:303|314:239|314:239|348:282|393:277,1,195.00000743866,0|0,3:2|0:0,0:0:0:0:
455,162,75800,2,0,P|413:160|369:215,1,97.50000371933,2|0,3:2|0:0,0:0:0:0:
242,352,76100,2,0,P|229:286|197:193,1,146.250005578995,8|0,0:0|0:0,0:0:0:0:
214,184,76400,2,0,P|236:242|249:293,1,97.50000371933,2|0,3:2|0:0,0:0:0:0:
329,52,76700,5,2,0:0:0:0:
137,192,76900,5,2,0:0:0:0:
378,303,77150,5,2,0:0:0:0:
281,189,77300,6,0,P|145:245|4:322,2,292.50001115799,0|2|0,3:2|3:2|3:2,0:0:0:0:
45,133,78350,1,2,0:0:0:0:
174,57,78500,6,0,P|158:114|135:274,1,195.00000743866,10|0,0:0|0:0,0:0:0:0:
46,57,78950,1,0,3:2:0:0:
253,144,79100,1,10,0:0:0:0:
74,277,79250,1,8,0:0:0:0:
155,141,79400,2,0,P|105:136|62:170,1,97.50000371933,0|2,3:2|0:0,0:0:0:0:
271,378,79700,6,0,P|283:293|342:58,1,292.50001115799,4|0,3:2|3:2,0:0:0:0:
281,14,80300,1,0,0:0:0:0:
462,112,80600,2,0,P|413:119|381:163,1,97.50000371933,2|0,3:2|0:0,0:0:0:0:
280,312,80900,6,0,P|269:241|231:100,1,195.00000743866,10|0,0:0|3:2,0:0:0:0:
280,50,81350,1,2,0:0:0:0:
164,152,81500,1,0,0:0:0:0:
447,321,81800,5,2,3:2:0:0:
343,264,81950,1,0,0:0:0:0:
498,155,82100,6,0,B|382:183|449:236|319:270,1,195.00000743866,0|0,3:2|0:0,0:0:0:0:
264,214,82550,1,0,3:2:0:0:
88,359,82700,5,0,3:2:0:0:
55,254,82850,1,8,0:0:0:0:
158,223,83000,1,0,3:2:0:0:
191,326,83150,1,0,3:2:0:0:
89,175,83300,5,14,0:0:0:0:
166,128,83450,1,0,0:0:0:0:
241,174,83600,1,0,3:2:0:0:
324,266,83750,5,10,0:3:0:0:
423,296,83900,1,4,0:3:0:0:
485,226,84050,1,4,0:3:0:0:
391,93,84200,6,0,B|224:121|312:217|161:265,1,292.5,6|0,3:2|0:0,0:0:0:0:
