osu file format v14

[General]
AudioFilename: audio.mp3
AudioLeadIn: 0
PreviewTime: 132831
Countdown: 0
SampleSet: Soft
StackLeniency: 0.7
Mode: 0
LetterboxInBreaks: 0
WidescreenStoryboard: 1

[Editor]
Bookmarks: 13491,34590,58409,58656,58986,59315,59645,59975,60305,60634,60964,61294,61623,61953,62283,62612,62942,63272,63601,63931,64261,64590,64920,65250,65579,65909,66239,66568,66898,67228,67557,67887,68217,68546,79425,89975,111074,124260,132831,133160,133490,133820,134149,134479,134809,135138,135468,135798,136127,136457,136787,137116,137446,137776,138105,143380,153929
DistanceSpacing: 1
BeatDivisor: 4
GridSize: 32
TimelineZoom: 2.4

[Metadata]
Title:bullet
TitleUnicode:bullet
Artist:Co shu Nie
ArtistUnicode:Cö shu Nie
Creator:Gillstar
Version:Normal
Source:PSYCHO-PASS 3
Tags:synderes frostwich sparhten amiya xenon japanese anime pure ed ending サイコパス
BeatmapID:2290052
BeatmapSetID:1060156

[Difficulty]
HPDrainRate:3
CircleSize:3
OverallDifficulty:4
ApproachRate:6
SliderMultiplier:1.1
SliderTickRate:1

[Events]
//Background and Video events
0,0,"psychopass3.jpg",0,0
//Break Periods
2,58526,67801
2,133031,137030
//Storyboard Layer 0 (Background)
//Storyboard Layer 1 (Fail)
//Storyboard Layer 2 (Pass)
//Storyboard Layer 3 (Foreground)
//Storyboard Layer 4 (Overlay)
//Storyboard Sound Samples

[TimingPoints]
305,329.67032967033,4,2,1,60,1,0
305,-100,4,2,1,60,0,0
2942,-100,4,2,1,70,0,0
13491,-100,4,2,1,50,0,0
16129,-100,4,2,2,55,0,0
18766,-100,4,2,1,50,0,0
21403,-100,4,2,1,55,0,0
24041,-100,4,2,1,60,0,0
34096,-100,4,2,1,70,0,0
34590,-100,4,2,1,80,0,0
58409,-100,4,2,1,5,0,0
68546,-100,4,2,1,50,0,0
71513,-100,4,2,2,55,0,0
72832,-100,4,2,1,55,0,0
74151,-100,4,2,1,50,0,0
76788,-100,4,2,1,60,0,0
86843,-100,4,2,1,50,0,0
87337,-100,4,2,1,60,0,0
89480,-100,4,2,1,70,0,0
89975,-100,4,2,1,80,0,0
111074,329.67032967033,3,2,1,70,1,0
111074,-100,4,2,1,70,0,0
113876,329.67032967033,3,2,1,60,1,0
113876,-100,4,2,1,60,0,0
116843,-100,4,2,1,70,0,0
122282,329.67032967033,3,2,1,60,1,0
122282,-100,4,2,1,60,0,0
123271,-100,4,2,1,70,0,0
123435,-100,4,2,1,40,0,0
123765,-100,4,2,1,60,0,0
124260,-100,4,2,1,70,0,0
132172,-100,4,2,1,50,0,0
132831,329.67032967033,4,2,1,50,1,0
132831,-100,4,2,1,50,0,0
138105,-100,4,2,1,60,0,0
140413,-100,4,2,1,50,0,0
140743,-100,4,2,1,70,0,0
143133,-100,4,2,1,75,0,0
143215,-100,4,2,1,80,0,0
143298,-100,4,2,1,85,0,0
143380,-100,4,2,1,80,0,0

[Colours]
Combo1 : 206,0,103
Combo2 : 255,79,79
Combo3 : 255,128,128
Combo4 : 255,100,177

[HitObjects]
36,58,2942,6,0,P|119:70|210:85,1,165,4|0,3:1|0:0,0:0:0:0:
305,110,3766,1,2,3:2:0:0:
346,74,3931,2,0,P|395:83|423:92,1,55,10|0,0:0|3:0,0:0:0:0:
449,60,4261,6,0,P|460:128|467:186,1,110,2|8,0:0|0:0,0:0:0:0:
387,246,4920,1,2,3:2:0:0:
459,328,5250,1,8,0:0:0:0:
354,361,5579,6,0,P|306:349|229:351,1,110,2|10,3:2|0:0,0:0:0:0:
137,369,6239,2,0,L|123:297,1,55,2|2,3:2|3:2,0:0:0:0:
118,260,6568,1,10,0:0:0:0:
226,241,6898,6,0,P|272:210|275:151,1,110,2|10,0:0|0:0,0:0:0:0:
259,107,7392,1,2,0:0:0:0:
163,51,7722,1,0,3:0:0:0:
111,71,7887,2,0,L|37:91,1,55,10|0,0:0|1:0,0:0:0:0:
43,138,8217,6,0,L|31:264,1,110,2|8,3:2|0:0,0:0:0:0:
76,348,8876,2,0,P|97:351|129:356,1,55,2|0,3:2|3:0,0:0:0:0:
184,344,9206,1,10,0:0:0:0:
199,235,9535,6,0,P|247:246|319:256,1,110,2|10,0:0|0:0,0:0:0:0:
345,294,10030,1,2,0:0:0:0:
383,333,10195,2,0,L|458:310,1,55,2|0,3:2|3:0,0:0:0:0:
488,300,10524,1,10,0:0:0:0:
477,190,10854,6,0,B|456:70,1,110,2|8,3:2|0:0,0:0:0:0:
350,103,11513,2,0,L|278:92,1,55,2|2,3:2|3:2,0:0:0:0:
258,53,11843,2,0,L|203:61,1,55,10|0,0:0|3:0,0:0:0:0:
165,101,12173,5,2,0:0:0:0:
60,133,12502,1,8,0:0:0:0:
113,229,12832,1,2,3:2:0:0:
217,195,13162,1,8,0:0:0:0:
321,161,13491,6,0,P|341:233|308:327,1,165,4|2,3:2|0:0,0:0:0:0:
315,317,14151,1,2,3:2:0:0:
217,367,14480,2,0,L|199:301,1,55,2|2,3:2|0:3,0:0:0:0:
185,261,14810,1,2,3:2:0:0:
231,161,15140,1,2,3:2:0:0:
189,59,15469,2,0,P|139:53|69:38,1,110,2|2,3:2|3:0,0:0:0:0:
43,82,15964,1,8,0:0:0:0:
28,135,16129,6,0,P|53:171|77:238,1,110,4|0,3:2|3:0,0:0:0:0:
94,341,16788,2,0,L|157:355,1,55,0|2,3:0|0:0,0:0:0:0:
189,316,17118,2,0,L|242:304,1,55,0|2,3:0|0:0,0:0:0:0:
283,341,17447,6,0,P|338:315|405:328,1,110,0|8,3:0|0:0,0:0:0:0:
465,243,18107,2,0,L|477:172,1,55,0|0,3:0|1:0,0:0:0:0:
486,135,18436,1,0,0:0:0:0:
435,37,18766,6,0,P|370:54|311:58,1,110,2|8,3:2|0:0,0:0:0:0:
222,24,19425,2,0,P|214:63|214:95,1,55,0|8,1:0|0:0,0:0:0:0:
232,130,19755,1,0,1:0:0:0:
309,207,20085,6,0,P|322:261|303:329,1,110,0|8,3:0|0:0,0:0:0:0:
220,375,20744,2,0,P|212:336|203:305,1,55,0|8,1:0|0:0,0:0:0:0:
178,274,21074,1,0,1:0:0:0:
137,237,21239,1,0,1:0:0:0:
82,238,21403,6,0,P|38:219|28:153,1,110,4|8,3:2|0:0,0:0:0:0:
44,111,21898,1,0,3:0:0:0:
132,45,22228,2,0,L|198:49,1,55,8|4,0:3|3:2,0:0:0:0:
240,62,22557,1,4,3:2:0:0:
292,46,22722,6,0,P|299:104|311:218,1,165,4|8,1:2|0:0,0:0:0:0:
230,286,23546,1,0,3:0:0:0:
188,250,23711,2,0,L|175:196,1,55,10|0,0:0|0:0,0:0:0:0:
147,148,24041,6,0,L|59:130,2,82.5,4|0|10,3:2|3:0|0:0,0:0:0:0:
300,87,25030,1,10,0:0:0:0:
385,155,25359,6,0,L|473:137,2,82.5,0|2|10,3:2|3:2|0:0,0:0:0:0:
369,264,26184,2,0,L|306:283,1,55,2|10,3:2|0:0,0:0:0:0:
233,352,26678,2,0,P|195:307|209:199,1,165,2|10,3:2|0:0,0:0:0:0:
311,81,27667,1,10,0:0:0:0:
264,51,27832,1,0,1:0:0:0:
209,45,27997,6,0,L|107:64,1,82.5,2|0,3:2|3:0,0:0:0:0:
63,111,28491,1,8,0:0:0:0:
15,210,28821,1,0,3:0:0:0:
42,257,28986,2,0,P|53:290|59:324,1,55,0|8,1:0|0:3,0:0:0:0:
84,357,29315,5,2,3:2:0:0:
84,357,29480,1,10,0:0:0:0:
153,271,29810,1,2,3:2:0:0:
153,271,29975,1,10,0:0:0:0:
265,257,30305,1,2,3:2:0:0:
265,257,30469,2,0,B|371:266|307:316|426:323,1,165,10|2,0:0|3:2,0:0:0:0:
118,167,31953,6,0,P|46:152|45:56,1,165,4|4,3:2|3:2,0:0:0:0:
195,37,32942,2,0,B|269:50|269:50|281:59|281:59|363:75,1,165,4|0,3:2|1:0,0:0:0:0:
403,98,33601,2,0,P|415:132|412:169,1,55,8|4,0:3|0:3,0:0:0:0:
402,204,33931,1,8,0:0:0:0:
402,204,34096,1,8,0:0:0:0:
310,341,34590,6,0,P|279:281|222:252,1,110,4|10,1:0|0:0,0:0:0:0:
189,354,35250,2,0,L|132:365,1,55,2|2,1:2|3:0,0:0:0:0:
80,367,35579,1,10,0:0:0:0:
11,280,35909,6,0,P|-2:225|18:164,1,110,2|10,3:2|0:0,0:0:0:0:
53,72,36568,2,0,L|129:85,1,55,2|2,3:2|3:0,0:0:0:0:
151,113,36898,2,0,L|205:103,1,55,10|2,0:0|0:3,0:0:0:0:
251,72,37228,6,0,L|278:201,1,110,2|10,3:2|0:0,0:0:0:0:
223,277,37887,2,0,P|256:303|288:310,1,55,0|2,1:0|3:0,0:0:0:0:
319,326,38217,1,8,0:0:0:0:
421,366,38546,6,0,P|439:313|430:244,1,110,2|8,3:2|0:0,0:0:0:0:
341,200,39206,2,0,L|354:134,1,55,2|2,1:2|3:0,0:0:0:0:
391,107,39535,1,8,0:0:0:0:
393,52,39700,1,2,1:3:0:0:
348,20,39865,6,0,L|222:47,1,110,4|8,3:2|0:0,0:0:0:0:
135,11,40524,2,0,P|128:42|131:76,1,55,0|2,1:0|3:0,0:0:0:0:
146,117,40854,1,8,0:0:0:0:
200,212,41184,6,0,L|82:250,1,110,2|8,3:2|0:0,0:0:0:0:
8,178,41843,2,0,P|-13:226|8:299,1,110,2|8,3:2|0:0,0:0:0:0:
33,322,42337,1,2,1:3:0:0:
80,349,42502,6,0,B|217:346|150:268|280:256,1,220,2|4,3:2|3:2,0:0:0:0:
416,333,43656,1,8,0:3:0:0:
463,304,43821,2,0,L|472:230,1,55,4|0,3:2|0:0,0:0:0:0:
432,208,44151,2,0,L|441:134,1,55,4|0,3:2|1:0,0:0:0:0:
445,98,44480,1,0,1:0:0:0:
350,40,44810,1,4,0:3:0:0:
257,100,45140,6,0,P|210:113|140:101,1,110,4|10,1:0|0:0,0:0:0:0:
64,35,45799,2,0,P|50:80|51:111,1,55,2|2,1:2|3:0,0:0:0:0:
50,142,46129,1,10,0:0:0:0:
29,249,46458,6,0,P|82:234|155:238,1,110,2|10,3:2|0:0,0:0:0:0:
236,282,47118,2,0,P|249:252|251:219,1,55,2|2,1:2|3:0,0:0:0:0:
238,176,47447,1,10,0:0:0:0:
245,66,47777,6,0,L|353:90,1,110,2|8,3:2|0:0,0:0:0:0:
445,145,48436,2,0,L|463:210,1,55,2|2,1:2|3:0,0:0:0:0:
441,250,48766,1,10,0:0:0:0:
432,304,48931,1,2,0:3:0:0:
425,358,49096,6,0,P|370:365|308:320,1,110,2|8,3:2|0:0,0:0:0:0:
214,320,49755,2,0,L|199:254,1,55,2|0,3:2|1:0,0:0:0:0:
252,243,50085,2,0,L|267:177,1,55,8|4,0:3|0:3,0:0:0:0:
259,134,50414,6,0,P|205:93|104:104,1,165,4|0,3:2|3:0,0:0:0:0:
80,145,51074,1,10,0:0:0:0:
10,229,51403,2,0,P|15:262|20:297,1,55,2|8,3:2|0:0,0:0:0:0:
33,336,51733,6,0,P|120:340|156:259,1,165,2|0,3:2|0:0,0:0:0:0:
197,243,52392,1,2,3:2:0:0:
274,321,52722,2,0,L|338:292,1,55,8|8,0:3|0:3,0:0:0:0:
371,291,53052,6,0,L|428:264,1,55,0|8,3:0|0:0,0:0:0:0:
456,165,53546,1,0,3:0:0:0:
457,110,53711,2,0,L|347:85,1,110,8|0,0:0|3:0,0:0:0:0:
301,58,54206,1,8,0:0:0:0:
193,33,54535,5,0,3:0:0:0:
143,57,54700,2,0,P|124:98|132:180,1,110,8|8,0:0|0:3,0:0:0:0:
136,271,55359,1,0,1:0:0:0:
472,346,56348,6,0,L|458:267,1,55,10|0,0:0|1:0,0:0:0:0:
408,277,56678,2,0,L|419:213,1,55,0|8,1:0|0:3,0:0:0:0:
450,178,57008,5,2,0:3:0:0:
468,126,57173,1,0,1:0:0:0:
454,72,57337,2,0,P|398:41|335:49,1,110,8|8,0:0|0:0,0:0:0:0:
288,131,57997,1,8,0:0:0:0:
184,94,58326,1,4,1:2:0:0:
402,221,68876,6,0,P|372:202|243:189,1,165,4|2,3:2|0:0,0:0:0:0:
211,231,69535,1,2,3:2:0:0:
183,337,69865,2,0,L|109:353,1,55,2|2,3:2|0:3,0:0:0:0:
74,359,70195,5,2,3:2:0:0:
13,267,70524,1,2,3:2:0:0:
71,173,70854,2,0,P|67:134|63:112,1,55,2|0,3:2|0:0,0:0:0:0:
43,67,71184,1,2,3:0:0:0:
147,32,71513,6,0,P|193:37|276:47,1,110,4|0,3:2|3:2,0:0:0:0:
365,28,72173,2,0,P|375:57|377:86,1,55,0|2,3:0|0:0,0:0:0:0:
415,120,72502,2,0,P|401:147|382:169,1,55,0|2,3:0|0:0,0:0:0:0:
342,199,72832,6,0,L|208:182,1,110,2|0,3:2|1:0,0:0:0:0:
182,282,73491,2,0,L|75:306,1,110,8|0,0:0|0:0,0:0:0:0:
34,267,73986,1,0,1:0:0:0:
13,215,74151,6,0,L|46:93,1,110,2|8,3:2|0:0,0:0:0:0:
128,41,74810,2,0,L|199:52,1,55,0|8,1:0|0:0,0:0:0:0:
203,100,75140,2,0,L|257:91,1,55,0|8,1:0|0:0,0:0:0:0:
306,67,75469,6,0,P|330:119|314:191,1,110,0|8,3:0|0:0,0:0:0:0:
218,200,76129,2,0,L|237:265,1,55,0|8,1:0|0:0,0:0:0:0:
284,275,76458,1,0,1:0:0:0:
333,298,76623,1,0,1:0:0:0:
384,318,76788,6,0,P|405:263|429:213,1,110,4|8,3:2|0:0,0:0:0:0:
458,171,77283,1,0,3:0:0:0:
436,63,77612,1,8,0:3:0:0:
384,42,77777,2,0,L|314:47,1,55,4|4,3:2|3:2,0:0:0:0:
302,94,78107,6,0,L|129:63,1,165,4|0,1:2|1:0,0:0:0:0:
36,103,78931,1,4,0:3:0:0:
20,155,79096,2,0,L|29:214,1,55,10|0,0:0|0:0,0:0:0:0:
68,246,79425,6,0,L|46:338,2,82.5,4|2|10,3:2|3:2|0:0,0:0:0:0:
204,152,80414,1,10,0:0:0:0:
240,255,80744,2,0,L|262:347,2,82.5,0|2|10,3:2|3:2|0:0,0:0:0:0:
204,152,81568,6,0,P|193:106|225:50,1,110,2|0,3:2|1:0,0:0:0:0:
278,38,82063,2,0,L|410:54,1,110,2|0,3:2|0:0,0:0:0:0:
439,69,82557,2,0,B|462:163|402:131|434:249,1,165,10|10,0:0|0:0,0:0:0:0:
443,339,83381,6,0,L|354:359,1,82.5,2|0,3:2|3:0,0:0:0:0:
279,353,83876,1,8,0:0:0:0:
253,245,84206,1,0,3:0:0:0:
289,204,84370,2,0,L|273:138,1,55,0|8,1:0|0:3,0:0:0:0:
260,97,84700,5,2,3:2:0:0:
260,97,84865,1,10,0:0:0:0:
161,60,85195,5,2,3:2:0:0:
161,60,85359,1,10,0:0:0:0:
63,104,85689,5,2,3:2:0:0:
63,104,85854,2,0,L|32:270,1,165,10|2,0:0|3:2,0:0:0:0:
352,348,87337,6,0,L|418:332,1,55,4|2,3:2|1:2,0:0:0:0:
441,292,87667,1,10,0:0:0:0:
448,237,87832,2,0,P|450:161|435:115,1,110,4|2,3:2|3:2,0:0:0:0:
397,95,88326,1,8,0:0:0:0:
297,48,88656,6,0,L|219:37,1,55,2|2,3:2|1:2,0:0:0:0:
191,61,88986,2,0,L|136:68,1,55,8|4,0:3|0:3,0:0:0:0:
88,53,89315,1,8,0:0:0:0:
88,53,89480,1,8,0:0:0:0:
17,202,89975,6,0,P|81:183|141:192,1,110,4|10,1:0|0:0,0:0:0:0:
215,246,90634,2,0,L|202:309,1,55,2|2,1:2|3:0,0:0:0:0:
200,355,90964,1,10,0:0:0:0:
305,329,91294,6,0,P|348:318|424:302,1,110,2|10,3:2|0:0,0:0:0:0:
482,219,91953,2,0,L|454:163,1,55,2|2,3:2|3:0,0:0:0:0:
411,139,92283,2,0,L|383:83,1,55,10|2,0:0|0:3,0:0:0:0:
349,48,92612,6,0,P|292:42|233:89,1,110,2|10,3:2|0:0,0:0:0:0:
179,153,93272,2,0,L|195:220,1,55,0|2,1:0|3:0,0:0:0:0:
229,246,93601,1,8,0:0:0:0:
330,204,93931,6,0,P|348:252|333:316,1,110,2|8,3:2|0:0,0:0:0:0:
235,349,94590,2,0,L|162:336,1,55,2|2,1:2|3:0,0:0:0:0:
136,306,94920,1,8,0:0:0:0:
82,319,95085,1,2,1:3:0:0:
28,331,95250,6,0,P|13:270|32:211,1,110,4|8,3:2|0:0,0:0:0:0:
132,208,95909,2,0,P|134:177|129:143,1,55,0|2,1:0|3:0,0:0:0:0:
93,112,96239,1,8,0:0:0:0:
147,16,96568,6,0,L|277:-4,1,110,2|8,3:2|0:0,0:0:0:0:
274,108,97228,2,0,L|382:124,1,110,2|8,3:2|0:0,0:0:0:0:
437,132,97722,1,2,1:3:0:0:
490,146,97887,6,0,P|521:238|465:347,1,220,2|4,3:2|3:2,0:0:0:0:
305,321,99041,1,2,1:3:0:0:
258,350,99206,2,0,L|185:360,1,55,4|0,3:2|0:0,0:0:0:0:
157,327,99535,2,0,L|102:319,1,55,4|0,3:2|1:0,0:0:0:0:
50,338,99865,1,0,1:0:0:0:
33,229,100195,1,4,0:3:0:0:
100,142,100524,6,0,P|142:117|217:118,1,110,4|10,1:0|0:0,0:0:0:0:
271,28,101184,2,0,L|339:35,1,55,2|2,1:2|3:0,0:0:0:0:
380,41,101513,1,10,0:0:0:0:
459,117,101843,6,0,L|443:246,1,110,2|10,3:2|0:0,0:0:0:0:
454,335,102502,2,0,L|383:353,1,55,2|2,1:2|3:0,0:0:0:0:
366,304,102832,2,0,L|293:289,1,55,10|2,0:0|0:3,0:0:0:0:
257,290,103162,6,0,P|235:241|246:183,1,110,2|8,3:2|0:0,0:0:0:0:
336,127,103821,1,2,1:2:0:0:
338,72,103986,1,2,3:0:0:0:
311,23,104151,2,0,L|240:41,1,55,10|2,0:0|0:3,0:0:0:0:
224,80,104480,6,0,L|97:65,1,110,2|8,3:2|0:0,0:0:0:0:
36,145,105140,2,0,L|48:213,1,55,2|0,3:2|1:0,0:0:0:0:
97,218,105469,2,0,L|85:286,1,55,8|4,0:3|0:3,0:0:0:0:
59,320,105799,6,0,P|102:347|212:309,1,165,4|0,3:2|3:0,0:0:0:0:
240,274,106458,1,10,0:0:0:0:
190,175,106788,2,0,L|198:105,1,55,2|8,3:2|0:0,0:0:0:0:
227,74,107118,6,0,P|285:33|387:62,1,165,2|0,3:2|0:0,0:0:0:0:
416,83,107777,1,2,3:2:0:0:
508,142,108107,2,0,L|488:213,1,55,8|8,0:3|0:3,0:0:0:0:
446,225,108436,6,0,L|382:241,1,55,0|8,3:0|0:0,0:0:0:0:
284,258,108931,1,0,3:0:0:0:
228,257,109096,2,0,P|215:216|230:152,1,110,8|0,0:0|3:0,0:0:0:0:
282,149,109590,2,0,P|295:108|280:44,1,110,8|0,0:0|3:0,0:0:0:0:
235,11,110085,1,8,0:0:0:0:
140,67,110414,2,0,P|103:89|88:110,1,55,8|8,0:3|0:3,0:0:0:0:
49,128,110744,2,0,P|39:169|43:195,1,55,0|0,1:0|1:0,0:0:0:0:
49,235,111074,6,0,B|180:234|100:313|263:314,1,220,4|8,3:2|0:3,0:0:0:0:
396,248,112227,1,0,1:0:0:0:
430,205,112392,2,0,L|438:141,1,55,8|0,0:0|3:0,0:0:0:0:
393,115,112722,2,0,L|385:51,1,55,8|0,0:0|0:0,0:0:0:0:
347,21,113052,2,0,L|174:49,1,165,4|8,3:2|0:0,0:0:0:0:
85,96,113876,6,0,P|38:172|89:283,1,220,4|8,3:2|0:3,0:0:0:0:
175,216,114865,2,0,L|294:191,1,110,4|0,3:2|3:0,0:0:0:0:
324,157,115359,1,0,3:0:0:0:
378,154,115524,2,0,L|411:204,1,55,0|8,3:0|0:0,0:0:0:0:
451,234,115854,2,0,P|445:310|306:318,1,220,4|8,3:2|0:3,0:0:0:0:
215,305,116843,6,0,L|120:334,2,82.5,4|2|2,3:2|3:2|3:2,0:0:0:0:
250,262,117502,1,10,0:0:0:0:
313,172,117832,2,0,L|408:201,2,82.5,4|2|2,3:2|3:2|3:2,0:0:0:0:
278,129,118491,1,8,0:0:0:0:
221,34,118821,1,4,3:2:0:0:
125,88,119150,6,0,L|118:150,1,55,2|0,3:2|0:0,0:0:0:0:
89,189,119480,1,10,0:0:0:0:
100,298,119810,1,4,3:2:0:0:
204,332,120139,2,0,L|268:317,1,55,8|0,0:3|1:0,0:0:0:0:
292,276,120469,2,0,L|345:288,1,55,8|4,0:3|0:3,0:0:0:0:
395,311,120799,6,0,P|407:263|428:219,1,82.5,2|2,3:2|3:2,0:0:0:0:
446,183,121211,1,2,3:2:0:0:
339,155,121540,6,0,P|327:107|306:63,1,82.5,2|2,3:2|3:2,0:0:0:0:
287,28,121952,1,0,3:0:0:0:
178,46,122282,6,0,P|77:43|144:149,1,275,4|0,3:2|0:0,0:0:0:0:
192,163,123271,1,12,0:0:0:0:
301,173,123600,2,0,L|315:236,1,55,8|2,0:0|1:2,0:0:0:0:
277,269,123930,2,0,L|253:336,1,55,2|2,1:2|1:2,0:0:0:0:
212,352,124260,6,0,L|124:328,1,82.5,4|0,3:2|3:0,0:0:0:0:
56,298,124754,1,0,3:0:0:0:
56,298,124919,1,8,0:0:0:0:
45,188,125249,6,0,L|68:77,1,110,0|8,3:0|0:0,0:0:0:0:
164,27,125908,2,0,L|231:46,1,55,8|0,0:0|1:0,0:0:0:0:
267,65,126238,6,0,L|277:155,1,82.5,4|0,3:2|3:0,0:0:0:0:
289,232,126732,1,0,3:0:0:0:
289,232,126897,1,8,0:0:0:0:
233,327,127227,5,0,3:0:0:0:
339,355,127556,2,0,L|412:332,1,55,8|8,0:0|0:3,0:0:0:0:
421,291,127886,1,8,0:3:0:0:
443,240,128051,1,4,0:3:0:0:
469,191,128216,6,0,L|351:135,1,110,4|0,3:2|0:0,0:0:0:0:
313,49,128875,2,0,L|252:60,1,55,8|2,0:0|0:0,0:0:0:0:
215,93,129205,1,4,3:2:0:0:
116,53,129534,6,0,P|92:73|81:106,1,55,10|2,0:0|0:0,0:0:0:0:
50,139,129864,2,0,P|47:170|62:201,1,55,8|0,0:0|1:0,0:0:0:0:
102,221,130194,2,0,B|201:226|154:281|256:279,1,165,4|4,3:2|3:2,0:0:0:0:
398,204,131183,2,0,P|431:245|403:364,1,165,12|12,0:0|0:0,0:0:0:0:
251,349,132172,6,0,L|241:280,1,55,0|2,0:0|0:3,0:0:0:0:
223,242,132501,1,2,0:2:0:0:
277,146,132831,1,4,3:2:0:0:
26,81,138105,6,0,P|68:63|150:74,1,110,2|2,3:2|3:2,0:0:0:0:
168,107,138600,1,2,0:0:0:0:
96,190,138929,2,0,L|108:315,1,110,0|0,0:0|0:0,0:0:0:0:
144,339,139424,6,0,P|193:357|279:287,1,165,2|0,3:2|0:0,0:0:0:0:
298,245,140083,1,2,3:2:0:0:
246,147,140413,1,0,3:0:0:0:
303,53,140743,6,0,P|383:41|457:102,1,165,4|0,3:2|1:0,0:0:0:0:
459,141,141402,2,0,B|467:237|418:187|431:315,1,165,4|4,3:2|0:3,0:0:0:0:
387,335,142061,6,0,L|313:351,1,55,12|8,0:0|0:3,0:0:0:0:
298,303,142391,2,0,L|244:291,1,55,8|8,0:0|0:3,0:0:0:0:
193,314,142721,1,8,0:0:0:0:
193,314,142885,1,8,0:0:0:0:
31,349,143380,6,0,P|10:288|27:226,1,110,4|10,1:0|0:0,0:0:0:0:
73,149,144039,2,0,L|139:160,1,55,2|2,1:2|3:0,0:0:0:0:
163,200,144369,1,10,0:0:0:0:
264,243,144699,6,0,L|281:121,1,110,2|10,3:2|0:0,0:0:0:0:
345,46,145358,2,0,L|394:91,1,55,2|2,3:2|3:0,0:0:0:0:
440,87,145688,2,0,L|464:153,1,55,10|2,0:0|0:3,0:0:0:0:
431,186,146017,6,0,L|423:311,1,110,2|8,3:2|0:0,0:0:0:0:
330,354,146677,2,0,L|261:339,1,55,2|2,1:2|3:0,0:0:0:0:
224,324,147006,1,10,0:0:0:0:
169,334,147171,1,2,0:3:0:0:
115,345,147336,6,0,P|94:279|111:221,1,110,2|8,3:2|0:0,0:0:0:0:
207,210,147995,2,0,L|214:156,1,55,2|8,3:2|0:3,0:0:0:0:
162,134,148325,2,0,L|155:80,1,55,4|4,0:3|0:3,0:0:0:0:
195,41,148655,6,0,P|290:28|341:85,1,165,4|0,3:2|3:0,0:0:0:0:
354,122,149314,1,10,0:0:0:0:
410,216,149644,2,0,L|403:279,1,55,2|8,3:2|0:0,0:0:0:0:
384,322,149973,2,0,P|329:337|256:321,1,110,2|8,3:2|0:0,0:0:0:0:
206,245,150633,6,0,L|199:169,1,55,2|0,3:2|1:0,0:0:0:0:
229,143,150962,2,0,L|222:67,1,55,8|8,0:3|0:3,0:0:0:0:
191,43,151292,2,0,P|85:40|53:157,1,220,4|8,3:2|0:0,0:0:0:0:
39,242,152281,1,0,0:0:0:0:
100,333,152611,6,0,B|237:344|259:232|259:232|280:124|422:139,1,412.5,4|0,3:2|1:0,0:0:0:0:
