osu file format v14

[General]
AudioFilename: audio.mp3
AudioLeadIn: 0
PreviewTime: 132831
Countdown: 0
SampleSet: Soft
StackLeniency: 0.7
Mode: 0
LetterboxInBreaks: 0
WidescreenStoryboard: 0

[Editor]
Bookmarks: 13491,34590,58409,58656,58986,59315,59645,59975,60305,60634,60964,61294,61623,61953,62283,62612,62942,63272,63601,63931,64261,64590,64920,65250,65579,65909,66239,66568,66898,67228,67557,67887,68217,68546,79425,89975,111074,124260,132831,133160,133490,133820,134149,134479,134809,135138,135468,135798,136127,136457,136787,137116,137446,137776,138105,143380,153929
DistanceSpacing: 0.5
BeatDivisor: 4
GridSize: 32
TimelineZoom: 2.4

[Metadata]
Title:bullet
TitleUnicode:bullet
Artist:Co shu Nie
ArtistUnicode:Cö shu Nie
Creator:Gillstar
Version:Expert
Source:PSYCHO-PASS 3
Tags:synderes frostwich sparhten amiya xenon japanese anime pure ed ending サイコパス
BeatmapID:2219809
BeatmapSetID:1060156

[Difficulty]
HPDrainRate:5
CircleSize:3.8
OverallDifficulty:9
ApproachRate:9.5
SliderMultiplier:2.2
SliderTickRate:1

[Events]
//Background and Video events
0,0,"psychopass3.jpg",0,0
//Break Periods
2,58608,68021
2,133031,137580
//Storyboard Layer 0 (Background)
//Storyboard Layer 1 (Fail)
//Storyboard Layer 2 (Pass)
//Storyboard Layer 3 (Foreground)
//Storyboard Layer 4 (Overlay)
//Storyboard Sound Samples

[TimingPoints]
305,329.67032967033,4,2,1,60,1,0
2942,-66.6666666666667,4,2,1,70,0,0
13491,-125,4,2,1,50,0,0
16129,-66.6666666666667,4,2,2,55,0,0
18766,-100,4,2,1,50,0,0
21403,-66.6666666666667,4,2,1,55,0,0
24041,-100,4,2,1,60,0,0
29315,-66.6666666666667,4,2,1,60,0,0
29480,-142.857142857143,4,2,1,60,0,0
30469,-100,4,2,1,60,0,0
31953,-100,4,2,1,60,0,0
34096,-333.333333333333,4,2,1,70,0,0
34590,-58.8235294117647,4,2,1,80,0,0
58409,-58.8235294117647,4,2,1,5,0,0
68546,-333.333333333333,4,2,1,50,0,0
68876,-125,4,2,1,50,0,0
71184,-125,4,2,1,50,0,0
71513,-66.6666666666667,4,2,2,55,0,0
72832,-66.6666666666667,4,2,1,55,0,0
74151,-100,4,2,1,50,0,0
76788,-66.6666666666667,4,2,1,60,0,0
79920,-100,4,2,1,60,0,0
84700,-66.6666666666667,4,2,1,60,0,0
84865,-142.857142857143,4,2,1,60,0,0
85195,-66.6666666666667,4,2,1,60,0,0
85359,-142.857142857143,4,2,1,60,0,0
85854,-100,4,2,1,60,0,0
86843,-100,4,2,1,50,0,0
87008,-250,4,2,1,50,0,0
87337,-250,4,2,1,60,0,0
87667,-83.3333333333333,4,2,1,60,0,0
89315,-100,4,2,1,60,0,0
89480,-333.333333333333,4,2,1,70,0,0
89975,-58.8235294117647,4,2,1,80,0,0
111074,329.67032967033,3,2,1,70,1,0
111074,-58.8235294117647,3,2,1,70,0,0
113876,329.67032967033,3,2,1,60,1,0
113876,-58.8235294117647,3,2,1,60,0,0
116843,-58.8235294117647,4,2,1,70,0,0
120799,-76.9230769230769,4,2,1,70,0,0
122282,329.67032967033,3,2,1,60,1,0
122282,-333.333333333333,3,2,1,60,0,0
123271,-58.8235294117647,3,2,1,70,0,0
123436,-58.8235294117647,3,2,1,40,0,0
123765,-58.8235294117647,3,2,1,60,0,0
124260,-58.8235294117647,3,2,1,70,0,0
132172,-58.8235294117647,3,2,1,50,0,0
132831,329.67032967033,4,2,1,50,1,0
138105,-100,4,2,1,60,0,0
140413,-125,4,2,1,50,0,0
140743,-125,4,2,1,70,0,0
140907,-58.8235294117647,4,2,1,70,0,0
143133,-58.8235294117647,4,2,1,75,0,0
143215,-58.8235294117647,4,2,1,80,0,0
143298,-58.8235294117647,4,2,1,85,0,0
143380,-55.5555555555556,4,2,1,80,0,0

[Colours]
Combo1 : 206,0,103
Combo2 : 255,79,79
Combo3 : 255,128,128
Combo4 : 255,100,177

[HitObjects]
183,361,2612,5,8,0:0:0:0:
127,308,2695,1,8,0:0:0:0:
125,233,2777,1,8,0:0:0:0:
162,166,2859,1,8,0:0:0:0:
166,158,2942,6,0,B|74:150|117:204|0:195,1,165.000006294251,4|2,3:1|0:3,0:0:0:0:
247,197,3189,1,0,3:0:0:0:
305,141,3272,2,0,P|300:97|308:41,1,82.5000031471254,10|0,0:0|0:0,0:0:0:0:
489,30,3436,1,0,0:0:0:0:
489,30,3519,2,0,P|426:37|404:138,1,165.000006294251,2|0,1:2|0:0,0:0:0:0:
496,241,3766,2,0,B|511:203|511:203|495:150,1,82.5000031471254,2|0,3:2|0:0,0:0:0:0:
359,215,3931,2,0,L|329:396,1,165.000006294251,10|0,0:0|3:0,0:0:0:0:
286,318,4178,1,0,0:0:0:0:
232,259,4261,6,0,B|137:283|201:320|59:334,1,165.000006294251,2|0,0:0|3:0,0:0:0:0:
30,280,4508,1,0,0:0:0:0:
69,211,4590,2,0,P|72:163|77:122,1,82.5000031471254,8|0,0:0|0:0,0:0:0:0:
187,46,4755,5,2,0:0:0:0:
260,69,4837,1,0,1:0:0:0:
185,58,4920,2,0,P|100:82|41:16,1,165.000006294251,2|0,3:2|3:0,0:0:0:0:
165,189,5167,1,0,0:0:0:0:
238,156,5250,2,0,B|247:200|247:200|237:236,1,82.5000031471254,8|0,0:0|0:0,0:0:0:0:
105,323,5414,2,0,B|138:293|138:293|174:283,1,82.5000031471254,2|0,0:0|0:0,0:0:0:0:
413,350,5579,6,0,L|230:308,1,165.000006294251,2|0,3:2|0:0,0:0:0:0:
319,270,5826,1,0,3:0:0:0:
386,227,5909,2,0,B|364:122,1,82.5000031471254,10|0,0:0|0:0,0:0:0:0:
335,48,6074,5,0,0:0:0:0:
257,30,6156,1,0,1:0:0:0:
336,33,6239,2,0,B|437:39|390:91|526:85,1,165.000006294251,2|2,3:2|3:2,0:0:0:0:
284,124,6486,1,0,0:0:0:0:
206,104,6568,2,0,P|158:119|125:133,1,82.5000031471254,10|0,0:0|0:0,0:0:0:0:
16,18,6733,2,0,P|64:33|97:47,1,82.5000031471254,2|0,3:2|0:0,0:0:0:0:
189,258,6898,6,0,P|128:212|28:237,1,165.000006294251,2|0,0:0|3:0,0:0:0:0:
1,283,7145,1,0,0:0:0:0:
39,213,7228,2,0,L|29:120,1,82.5000031471254,10|0,0:0|0:0,0:0:0:0:
243,39,7392,5,2,0:0:0:0:
266,112,7475,1,0,1:0:0:0:
243,189,7557,2,0,P|234:108|241:19,1,165.000006294251,0|0,3:0|3:0,0:0:0:0:
318,11,7805,1,0,0:0:0:0:
391,43,7887,2,0,B|427:23|427:23|484:41,1,82.5000031471254,10|0,0:0|0:0,0:0:0:0:
468,272,8052,5,0,1:0:0:0:
445,199,8134,1,0,1:0:0:0:
468,122,8217,2,0,P|477:203|470:292,1,165.000006294251,2|0,3:2|0:0,0:0:0:0:
414,342,8464,1,0,3:0:0:0:
340,313,8546,2,0,B|321:275|321:275|330:224,1,82.5000031471254,8|0,0:0|0:0,0:0:0:0:
372,131,8711,2,0,L|258:151,1,82.5000031471254
110,207,8876,6,0,P|180:197|255:267,1,165.000006294251,2|0,3:2|3:0,0:0:0:0:
78,281,9123,1,0,0:0:0:0:
29,217,9206,2,0,P|-14:161|8:61,1,165.000006294251,10|0,0:0|3:0,0:0:0:0:
205,7,9453,5,0,0:0:0:0:
205,7,9535,2,0,B|311:17|250:59|375:70,1,165.000006294251,2|0,0:0|3:0,0:0:0:0:
163,75,9783,1,0,0:0:0:0:
92,40,9865,2,0,P|80:92|79:139,1,82.5000031471254,10|0,0:0|0:0,0:0:0:0:
196,160,10030,5,2,0:0:0:0:
268,191,10112,1,0,1:0:0:0:
339,226,10195,2,0,L|165:259,1,165.000006294251,2|0,3:2|3:0,0:0:0:0:
29,353,10442,1,0,0:0:0:0:
102,383,10524,2,0,B|117:343|117:343|106:304,1,82.5000031471254,10|0,0:0|0:0,0:0:0:0:
21,192,10689,2,0,B|63:199|63:199|90:227,1,82.5000031471254
252,370,10854,6,0,P|332:336|437:338,1,165.000006294251,2|0,3:2|0:0,0:0:0:0:
481,361,11101,1,0,3:0:0:0:
416,322,11184,2,0,P|408:272|401:229,1,82.5000031471254,8|0,0:0|0:0,0:0:0:0:
359,79,11348,5,2,0:0:0:0:
282,77,11431,1,0,1:0:0:0:
361,66,11513,2,0,B|467:76|406:118|531:129,1,165.000006294251,2|2,3:2|3:2,0:0:0:0:
374,161,11761,1,0,0:0:0:0:
305,200,11843,2,0,P|298:240|291:281,1,82.5000031471254,10|0,0:0|0:0,0:0:0:0:
151,341,12008,2,0,B|188:326|188:326|272:353,1,82.5000031471254,0|0,3:0|0:0,0:0:0:0:
68,375,12173,6,0,P|45:283|72:189,1,165.000006294251,2|0,0:0|3:0,0:0:0:0:
134,241,12420,1,0,0:0:0:0:
203,202,12502,2,0,P|212:158|205:110,1,82.5000031471254,8|0,0:0|0:0,0:0:0:0:
57,66,12667,5,0,0:0:0:0:
26,134,12750,1,0,1:0:0:0:
73,72,12832,2,0,B|179:62|118:20|243:9,1,165.000006294251,2|0,3:2|3:0,0:0:0:0:
409,359,13162,5,8,0:0:0:0:
353,306,13244,1,8,0:0:0:0:
351,231,13326,1,8,0:0:0:0:
388,164,13409,1,8,0:0:0:0:
394,158,13491,6,0,L|491:147,1,88,4|0,3:2|0:0,0:0:0:0:
316,29,13821,2,0,B|301:75|301:75|319:126,1,88,0|2,3:0|0:0,0:0:0:0:
477,311,14151,2,0,B|492:265|492:265|474:214,1,88,2|0,3:2|0:0,0:0:0:0:
216,370,14480,5,2,3:2:0:0:
114,301,14645,1,2,0:3:0:0:
230,245,14810,2,0,L|332:259,1,88,2|0,3:2|0:0,0:0:0:0:
118,128,15140,2,0,L|16:142,1,88,2|0,3:2|0:0,0:0:0:0:
218,20,15469,2,0,P|235:85|197:169,1,132,2|0,3:2|0:0,0:0:0:0:
209,160,15799,1,2,3:0:0:0:
61,239,15964,5,8,0:0:0:0:
40,313,16046,1,8,0:0:0:0:
90,372,16129,2,0,P|179:347|269:347,1,165.000006294251,4|2,3:2|0:0,0:0:0:0:
323,366,16376,1,0,0:0:0:0:
336,374,16458,2,0,B|349:334|349:334|340:274,1,82.5000031471254,0|2,3:0|0:0,0:0:0:0:
292,195,16623,5,0,0:0:0:0:
309,187,16706,1,2,0:0:0:0:
330,179,16788,2,0,P|366:169|415:163,1,82.5000031471254,0|0,3:0|0:0,0:0:0:0:
223,269,16953,2,0,P|213:233|207:184,1,82.5000031471254,2|2,0:0|0:0,0:0:0:0:
282,44,17118,6,0,P|276:84|266:124,1,82.5000031471254,0|0,3:0|0:0,0:0:0:0:
412,246,17283,2,0,P|452:251|492:261,1,82.5000031471254,2|2,0:0|0:0,0:0:0:0:
314,301,17447,5,0,3:0:0:0:
286,352,17530,1,2,0:0:0:0:
239,372,17612,1,2,0:0:0:0:
185,367,17695,1,2,0:0:0:0:
144,342,17777,6,0,P|138:292|122:172,1,165.000006294251,8|0,0:0|0:0,0:0:0:0:
112,103,18024,1,0,0:0:0:0:
100,177,18107,2,0,P|96:223|93:268,1,82.5000031471254,0|0,3:0|0:0,0:0:0:0:
52,327,18272,5,0,1:0:0:0:
52,327,18354,1,0,1:0:0:0:
227,201,18519,5,0,1:0:0:0:
227,201,18601,1,0,1:0:0:0:
0,85,18766,6,0,L|220:56,1,220,2|8,3:2|0:0,0:0:0:0:
466,310,19425,1,0,1:0:0:0:
466,310,19508,1,0,3:0:0:0:
466,310,19590,1,8,0:0:0:0:
399,250,19755,5,0,1:0:0:0:
322,266,19920,1,8,0:0:0:0:
416,174,20085,6,0,L|442:63,1,110,0|0,3:0|0:0,0:0:0:0:
441,66,20332,1,0,3:0:0:0:
441,66,20414,1,8,0:0:0:0:
217,335,20744,1,0,1:0:0:0:
217,335,20826,1,0,3:0:0:0:
217,335,20909,1,8,0:0:0:0:
130,317,21074,5,0,1:0:0:0:
71,369,21239,1,0,1:0:0:0:
114,234,21403,6,0,P|102:142|93:68,1,165.000006294251,4|0,3:2|1:0,0:0:0:0:
165,33,21651,1,0,1:0:0:0:
210,99,21733,2,0,P|168:127|123:162,1,82.5000031471254,8|0,0:0|0:0,0:0:0:0:
11,247,21898,6,0,P|123:232|214:334,1,247.500009441376,0|8,3:0|0:3,0:0:0:0:
157,384,22228,1,8,0:3:0:0:
146,372,22310,1,4,0:3:0:0:
141,358,22392,2,0,P|132:308|136:260,1,82.5000031471254,4|0,3:2|0:0,0:0:0:0:
293,279,22557,2,0,P|301:319|300:360,1,82.5000031471254,4|0,3:2|0:0,0:0:0:0:
237,207,22722,5,4,1:2:0:0:
282,181,22805,1,0,1:0:0:0:
328,189,22887,1,8,0:3:0:0:
367,228,22969,1,8,0:3:0:0:
410,260,23052,1,4,0:3:0:0:
460,266,23134,1,4,0:3:0:0:
502,234,23217,2,0,P|507:189|514:140,1,82.5000031471254,8|0,0:0|0:0,0:0:0:0:
405,107,23381,5,0,3:0:0:0:
438,366,23546,1,0,3:0:0:0:
187,270,23711,2,0,P|170:148|148:18,1,247.500009441376,10|0,0:0|0:0,0:0:0:0:
146,15,24041,5,4,3:2:0:0:
48,155,24288,5,0,3:0:0:0:
197,286,24535,6,0,P|108:264|34:374,1,220,10|0,0:0|3:0,0:0:0:0:
277,260,25030,1,10,0:0:0:0:
250,169,25195,5,0,1:0:0:0:
269,91,25277,1,0,1:0:0:0:
248,19,25359,2,0,P|236:88|263:202,1,165,0|2,3:2|3:2,0:0:0:0:
254,357,25854,6,0,L|452:313,1,165,10|0,0:0|0:0,0:0:0:0:
486,348,26184,1,2,3:2:0:0:
350,266,26348,2,0,B|327:318|327:318|352:373,1,110,10|0,0:0|0:0,0:0:0:0:
472,248,26678,6,0,L|503:14,1,220,2|0,3:2|0:0,0:0:0:0:
369,158,27173,2,0,P|278:187|198:74,1,220,10|0,0:0|3:0,0:0:0:0:
216,33,27667,1,10,0:0:0:0:
150,235,27832,5,0,1:0:0:0:
222,261,27914,1,0,1:0:0:0:
298,285,27997,2,0,L|115:324,1,165,2|0,3:2|3:0,0:0:0:0:
396,371,28491,6,0,P|426:272|364:166,1,220,8|0,0:0|3:0,0:0:0:0:
64,261,28986,5,0,1:0:0:0:
43,220,29068,1,0,1:0:0:0:
39,175,29151,1,8,0:3:0:0:
52,132,29233,1,8,0:3:0:0:
81,98,29315,6,0,B|124:93|124:93|183:115,1,82.5000031471254,2|0,3:2|0:0,0:0:0:0:
174,120,29480,2,0,L|188:21,1,76.9999976501466,10|0,0:0|0:0,0:0:0:0:
376,189,29810,5,2,3:2:0:0:
366,200,29892,1,0,3:0:0:0:
359,209,29975,2,0,L|345:110,1,76.9999976501466,10|0,0:0|0:0,0:0:0:0:
189,316,30305,5,2,3:2:0:0:
226,384,30469,2,0,L|276:52,1,330,10|2,0:0|3:2,0:0:0:0:
476,41,31458,5,2,0:0:0:0:
482,45,31623,1,2,0:0:0:0:
282,362,31953,6,0,L|232:30,3,330,4|4|4|0,3:2|3:2|3:2|1:0,0:0:0:0:
240,27,33519,5,0,1:0:0:0:
220,76,33601,1,8,0:3:0:0:
227,133,33684,1,8,0:3:0:0:
263,179,33766,1,4,0:3:0:0:
269,240,33848,1,4,0:3:0:0:
243,292,33931,2,0,L|238:348,1,55,8|0,0:0|0:0,0:0:0:0:
234,371,34096,6,0,L|225:294,1,65.9999979858399,8|0,0:0|0:0,0:0:0:0:
168,188,34590,6,0,B|48:184|111:253|-38:253,1,187.000003566742,4|2,1:0|0:3,0:0:0:0:
66,287,34837,1,0,0:0:0:0:
144,266,34920,2,0,P|200:284|241:310,1,93.500001783371,10|0,0:0|0:0,0:0:0:0:
376,380,35085,6,0,L|344:188,1,187.000003566742,2|2,3:0|1:2,0:0:0:0:
350,118,35332,1,0,0:0:0:0:
339,192,35414,2,0,L|325:292,1,93.500001783371,2|0,3:0|0:0,0:0:0:0:
477,345,35579,6,0,P|391:293|297:330,1,187.000003566742,10|2,0:0|0:3,0:0:0:0:
249,361,35826,1,0,0:0:0:0:
173,344,35909,2,0,B|125:333|125:333|60:361,1,93.500001783371,2|0,3:2|0:0,0:0:0:0:
236,273,36074,6,0,P|231:220|225:170,1,93.500001783371,2|0,3:0|0:0,0:0:0:0:
321,35,36239,2,0,B|441:31|378:100|528:94,1,187.000003566742,10|2,0:0|0:3,0:0:0:0:
268,101,36486,1,0,0:0:0:0:
202,57,36568,6,0,B|171:43|171:43|102:65,1,93.500001783371,2|0,3:2|0:0,0:0:0:0:
46,268,36733,2,0,P|43:215|35:156,1,93.500001783371,2|0,3:0|0:0,0:0:0:0:
0,105,36898,2,0,P|87:87|157:157,1,187.000003566742,10|2,0:0|0:3,0:0:0:0:
214,328,37145,5,0,0:0:0:0:
269,384,37228,2,0,L|287:194,1,187.000003566742,2|2,3:2|0:3,0:0:0:0:
330,260,37475,1,0,0:0:0:0:
377,322,37557,2,0,L|485:305,1,93.500001783371,10|0,0:0|0:0,0:0:0:0:
512,194,37722,2,0,L|419:182,1,93.500001783371,2|0,3:0|0:0,0:0:0:0:
299,106,37887,6,0,B|416:103|357:47|492:46,1,187.000003566742,0|2,1:0|3:0,0:0:0:0:
296,18,38134,1,0,0:0:0:0:
228,57,38217,2,0,B|208:101|208:101|229:161,1,93.500001783371,8|0,0:0|0:0,0:0:0:0:
220,274,38381,6,0,L|323:249,1,93.500001783371,2|0,0:3|0:3,0:3:0:0:
316,244,38546,2,0,L|108:217,1,187.000003566742,2|2,3:2|0:3,0:0:0:0:
60,255,38794,1,0,0:0:0:0:
124,211,38876,2,0,P|121:160|117:105,1,93.500001783371,8|0,0:0|0:0,0:0:0:0:
40,37,39041,2,0,P|36:83|33:130,1,93.500001783371,2|0,3:0|0:0,0:0:0:0:
89,350,39206,5,2,1:2:0:0:
16,373,39288,1,0,1:0:0:0:
94,362,39370,2,0,B|140:345|140:345|195:357,1,93.500001783371,2|0,3:0|0:0,0:0:0:0:
260,368,39535,2,0,P|267:321|278:272,1,93.500001783371,8|0,0:0|0:0,0:0:0:0:
326,113,39700,5,2,1:3:0:0:
394,83,39783,1,0,1:0:0:0:
465,118,39865,2,0,P|363:114|311:28,1,187.000003566742,4|2,3:2|0:3,0:0:0:0:
346,219,40112,1,0,0:0:0:0:
408,271,40195,2,0,L|506:280,1,93.500001783371,8|0,0:0|0:0,0:0:0:0:
270,177,40359,6,0,B|164:200|231:248|78:266,1,187.000003566742,2|0,3:0|1:0,0:0:0:0:
31,260,40607,1,0,0:0:0:0:
111,250,40689,2,0,B|126:204|126:204|111:154,1,93.500001783371,2|0,3:0|0:0,0:0:0:0:
6,105,40854,6,0,L|211:69,1,187.000003566742,8|2,0:0|0:3,0:0:0:0:
262,98,41101,1,0,0:0:0:0:
310,39,41184,2,0,B|356:28|356:28|401:48,1,93.500001783371,2|0,3:2|0:0,0:0:0:0:
479,113,41348,2,0,P|487:54|497:5,1,93.500001783371,2|0,3:0|0:0,0:0:0:0:
490,233,41513,6,0,P|396:210|323:268,1,187.000003566742,8|2,0:0|0:3,0:0:0:0:
357,331,41761,1,0,0:0:0:0:
323,266,41843,2,0,P|315:216|325:170,1,93.500001783371,2|0,3:2|0:0,0:0:0:0:
430,288,42008,2,0,P|438:333|430:379,1,93.500001783371,2|0,3:0|0:0,0:0:0:0:
163,384,42173,6,0,P|141:285|174:195,1,187.000003566742,8|2,0:0|1:3,0:0:0:0:
172,198,42420,1,0,1:0:0:0:
179,192,42502,2,0,P|195:244|178:301,1,93.500001783371,2|0,3:2|0:0,0:0:0:0:
254,142,42667,5,8,0:3:0:0:
224,114,42750,1,8,0:3:0:0:
181,107,42832,1,0,1:0:0:0:
141,119,42914,1,8,0:3:0:0:
99,121,42997,2,0,L|3:107,1,93.500001783371,8|0,0:3|0:0,0:0:0:0:
0,100,43162,6,0,L|217:63,1,187.000003566742,4|0,3:2|1:0,0:0:0:0:
229,33,43409,1,0,1:0:0:0:
286,39,43491,1,8,0:0:0:0:
329,71,43574,1,8,0:3:0:0:
380,95,43656,1,8,0:3:0:0:
435,88,43739,1,8,0:3:0:0:
466,38,43821,6,0,P|508:122|467:229,1,187.000003566742,4|0,3:2|0:0,0:0:0:0:
412,175,44068,1,0,0:0:0:0:
340,211,44151,2,0,P|298:295|339:402,1,187.000003566742,4|0,3:2|1:0,0:0:0:0:
450,331,44398,5,0,1:0:0:0:
486,360,44480,1,0,1:0:0:0:
446,375,44563,1,8,0:3:0:0:
409,351,44645,1,8,0:3:0:0:
380,307,44728,1,8,0:3:0:0:
324,295,44810,1,4,0:3:0:0:
268,304,44892,1,4,0:3:0:0:
231,351,44975,1,4,0:3:0:0:
175,366,45057,1,4,0:3:0:0:
126,346,45140,6,0,P|113:241|100:139,1,187.000003566742,4|2,1:0|0:3,0:0:0:0:
97,88,45387,1,0,0:0:0:0:
89,165,45469,2,0,L|79:285,1,93.500001783371,10|0,0:0|0:0,0:0:0:0:
216,190,45634,6,0,B|342:181|268:124|418:113,1,187.000003566742,2|2,3:0|1:2,0:0:0:0:
452,76,45881,1,0,0:0:0:0:
505,135,45964,2,0,P|497:181|490:227,1,93.500001783371,2|0,3:0|0:0,0:0:0:0:
402,384,46129,6,0,P|394:256|387:181,1,187.000003566742,10|2,0:0|0:3,0:0:0:0:
343,264,46376,1,0,0:0:0:0:
295,328,46458,2,0,B|252:353|252:353|179:326,1,93.500001783371,2|0,3:2|0:0,0:0:0:0:
187,209,46623,2,0,B|230:184|230:184|303:211,1,93.500001783371,2|0,3:0|0:0,0:0:0:0:
124,374,46788,2,0,P|37:364|46:257,1,187.000003566742,10|2,0:0|0:3,0:0:0:0:
83,223,47035,5,0,1:0:0:0:
109,174,47118,1,2,1:2:0:0:
103,120,47200,1,0,1:0:0:0:
87,68,47283,2,0,L|-25:89,1,93.500001783371,2|0,3:0|0:0,0:0:0:0:
84,47,47447,2,0,B|139:27|139:27|286:88,1,187.000003566742,10|2,0:0|0:3,0:0:0:0:
490,144,47695,5,0,0:0:0:0:
490,144,47777,2,0,B|435:124|435:124|288:185,1,187.000003566742,2|2,3:2|0:3,0:0:0:0:
238,340,48024,1,0,0:0:0:0:
307,376,48107,2,0,B|321:334|321:334|304:283,1,93.500001783371,8|0,0:0|0:0,0:0:0:0:
213,241,48272,6,0,P|281:195|384:255,1,187.000003566742,2|2,3:0|1:2,0:0:0:0:
456,337,48519,1,0,0:0:0:0:
442,258,48601,2,0,P|436:301|442:353,1,93.500001783371,2|0,3:0|0:0,0:0:0:0:
456,378,48766,2,0,P|473:262|464:181,1,187.000003566742,10|2,0:0|0:3,0:0:0:0:
393,161,49013,5,0,0:0:0:0:
315,179,49096,2,0,P|305:75|334:-2,1,187.000003566742,2|2,3:2|0:3,0:0:0:0:
410,61,49343,1,0,0:0:0:0:
343,99,49425,2,0,B|178:84|243:203|58:192,1,280.500005350113,8|0,0:0|0:0,0:0:0:0:
174,224,49755,6,0,P|224:232|273:241,1,93.500001783371,2|0,3:2|0:0,0:0:0:0:
125,269,49920,1,0,1:0:0:0:
61,269,50002,1,0,1:0:0:0:
12,236,50085,1,8,0:3:0:0:
4,174,50167,1,8,0:3:0:0:
41,122,50250,1,4,0:3:0:0:
99,109,50332,1,4,0:3:0:0:
106,109,50414,6,0,P|152:100|198:93,1,93.500001783371,4|0,3:2|0:0,0:0:0:0:
242,159,50579,2,0,P|371:145|477:259,1,280.500005350113,8|0,0:0|0:0,0:0:0:0:
416,299,50909,2,0,P|400:248|408:196,1,93.500001783371,0|0,3:0|0:0,0:0:0:0:
482,53,51074,6,0,B|328:42|393:161|228:146,1,280.500005350113,10|0,0:0|0:0,0:0:0:0:
158,113,51403,2,0,P|153:44|146:-4,1,93.500001783371,2|0,3:2|0:0,0:0:0:0:
71,144,51568,5,8,0:0:0:0:
238,59,51733,1,2,3:2:0:0:
59,6,51898,1,0,3:0:0:0:
12,251,52063,6,0,P|116:230|242:374,1,280.500005350113,8|0,0:0|0:0,0:0:0:0:
307,378,52392,2,0,P|313:329|295:274,1,93.500001783371,2|0,3:2|0:0,0:0:0:0:
223,238,52557,5,0,1:0:0:0:
264,205,52640,1,0,1:0:0:0:
318,203,52722,1,8,0:3:0:0:
367,230,52805,1,8,0:3:0:0:
413,260,52887,1,8,0:3:0:0:
466,253,52969,1,8,0:3:0:0:
506,225,53052,6,0,L|491:131,1,93.500001783371,0|0,3:0|0:0,0:0:0:0:
488,116,53217,2,0,L|465:321,1,187.000003566742,8|0,0:0|0:0,0:0:0:0:
26,300,53546,6,0,L|41:206,1,93.500001783371,0|0,3:0|0:0,0:0:0:0:
44,191,53711,2,0,L|67:396,1,187.000003566742,8|0,0:0|0:0,0:0:0:0:
387,129,54041,6,0,L|372:35,1,93.500001783371,0|0,3:0|0:0,0:0:0:0:
369,20,54206,2,0,L|346:225,1,187.000003566742,8|0,0:0|0:0,0:0:0:0:
145,204,54535,6,0,L|160:110,1,93.500001783371,0|0,3:0|0:0,0:0:0:0:
163,95,54700,2,0,L|186:300,1,187.000003566742,8|0,0:0|0:0,0:0:0:0:
253,383,55030,5,8,0:3:0:0:
288,336,55112,1,8,0:3:0:0:
285,271,55195,1,8,0:3:0:0:
251,220,55277,1,8,0:3:0:0:
246,213,55359,5,0,1:0:0:0:
212,162,55442,1,0,1:0:0:0:
209,97,55524,1,0,1:0:0:0:
244,50,55607,1,0,1:0:0:0:
249,44,55689,5,2,0:3:0:0:
85,350,56348,6,0,L|-14:367,1,93.500001783371,10|0,0:0|0:0,0:0:0:0:
117,312,56513,1,0,1:0:0:0:
160,289,56596,1,0,1:0:0:0:
205,285,56678,1,0,1:0:0:0:
256,298,56761,1,8,0:3:0:0:
297,340,56843,1,8,0:3:0:0:
343,357,56925,1,8,0:3:0:0:
393,342,57008,2,0,P|401:284|408:247,1,93.500001783371,2|0,0:3|0:0,0:0:0:0:
490,159,57173,5,0,1:0:0:0:
459,113,57255,1,0,1:0:0:0:
403,92,57337,1,8,0:0:0:0:
348,106,57420,1,8,0:3:0:0:
314,140,57502,1,8,0:3:0:0:
310,148,57585,1,4,0:3:0:0:
306,157,57667,2,0,P|314:202|320:249,1,93.500001783371,8|0,0:0|0:0,0:0:0:0:
156,200,57832,5,0,3:0:0:0:
151,192,57914,1,0,3:0:0:0:
145,184,57997,2,0,P|101:169|57:150,1,93.500001783371,8|0,0:0|0:0,0:0:0:0:
185,61,58162,5,0,3:0:0:0:
194,60,58244,1,8,0:0:0:0:
204,59,58326,2,0,P|238:28|276:0,1,93.500001783371,4|0,1:2|0:0,0:0:0:0:
421,31,68546,6,0,L|483:42,1,49.4999984893799
495,56,68876,6,0,L|392:75,1,88,4|0,3:2|0:0,0:0:0:0:
327,127,69206,2,0,B|313:86|313:86|336:24,1,88,0|2,3:0|0:0,0:0:0:0:
495,211,69535,2,0,L|408:195,1,88,2|0,3:2|0:0,0:0:0:0:
262,366,69865,5,2,3:2:0:0:
378,317,70030,1,2,0:3:0:0:
258,263,70195,2,0,P|247:198|241:160,1,88,2|0,3:2|0:0,0:0:0:0:
75,360,70524,2,0,P|86:295|92:257,1,88,2|0,3:2|0:0,0:0:0:0:
107,163,70854,6,0,P|40:177|-7:187,1,88,2|0,3:2|0:0,0:0:0:0:
166,58,71184,2,0,P|233:72|280:82,1,88,2|8,3:0|0:0,0:0:0:0:
407,231,71513,6,0,L|430:38,1,165.000006294251,4|2,3:2|0:0,0:0:0:0:
327,159,71761,1,0,0:0:0:0:
319,169,71843,2,0,L|204:188,1,82.5000031471254,0|0,3:2|0:0,0:0:0:0:
374,316,72008,5,2,0:0:0:0:
389,319,72090,1,2,0:0:0:0:
404,319,72173,2,0,P|458:308|504:289,1,82.5000031471254,0|0,3:0|0:0,0:0:0:0:
291,293,72337,2,0,B|277:335|277:335|299:377,1,82.5000031471254,2|2,0:0|0:0,0:0:0:0:
396,227,72502,2,0,P|430:184|454:139,1,82.5000031471254,0|0,3:0|0:0,0:0:0:0:
423,86,72667,2,0,B|466:78|466:78|504:107,1,82.5000031471254,2|2,0:0|0:0,0:0:0:0:
375,14,72832,5,2,3:2:0:0:
324,20,72914,1,2,0:0:0:0:
274,26,72997,1,2,0:0:0:0:
223,32,73079,1,2,0:0:0:0:
175,38,73162,6,0,B|80:54|143:100|15:110,1,165.000006294251,0|0,1:0|0:0,0:0:0:0:
102,136,73409,1,0,1:0:0:0:
179,118,73491,2,0,P|217:141|252:167,1,82.5000031471254,8|0,0:0|0:0,0:0:0:0:
333,225,73656,5,0,1:0:0:0:
333,225,73739,1,0,1:0:0:0:
140,356,73903,5,0,1:0:0:0:
126,310,73986,1,0,1:0:0:0:
138,268,74068,1,0,1:0:0:0:
173,244,74151,6,0,B|300:237|229:338|391:316,1,220,2|8,3:2|0:0,0:0:0:0:
476,115,74810,5,0,1:0:0:0:
476,115,74892,1,0,3:0:0:0:
476,115,74975,1,8,0:0:0:0:
408,163,75140,5,0,1:0:0:0:
339,123,75305,1,8,0:0:0:0:
396,70,75469,2,0,L|505:50,1,110,0|0,3:0|0:0,0:0:0:0:
504,50,75717,1,0,3:0:0:0:
504,50,75799,1,8,0:0:0:0:
146,183,76129,5,0,1:0:0:0:
146,183,76211,1,0,3:0:0:0:
146,183,76294,1,8,0:0:0:0:
214,230,76458,5,0,1:0:0:0:
280,184,76623,1,0,1:0:0:0:
219,134,76788,2,0,L|44:163,1,165.000006294251,4|0,3:2|1:0,0:0:0:0:
31,237,77035,1,0,1:0:0:0:
77,302,77118,2,0,B|33:320|33:320|-26:305,1,82.5000031471254,8|0,0:0|0:0,0:0:0:0:
144,348,77283,6,0,P|250:368|302:227,1,247.500009441376,0|8,3:0|0:3,0:0:0:0:
257,205,77612,1,8,0:3:0:0:
250,214,77695,1,4,0:3:0:0:
245,221,77777,2,0,B|231:261|231:261|248:317,1,82.5000031471254,4|0,3:2|0:0,0:0:0:0:
387,306,77942,2,0,B|401:266|401:266|384:210,1,82.5000031471254,4|8,3:2|0:0,0:0:0:0:
276,121,78107,2,0,L|387:102,1,82.5000031471254,4|0,1:2|0:0,0:0:0:0:
476,62,78272,5,0,1:0:0:0:
512,91,78354,1,0,1:0:0:0:
472,106,78436,1,0,1:0:0:0:
435,82,78519,1,0,1:0:0:0:
406,38,78601,1,0,1:0:0:0:
350,26,78684,1,0,1:0:0:0:
293,25,78766,1,8,0:3:0:0:
234,47,78848,1,8,0:3:0:0:
196,94,78931,6,0,P|184:137|179:182,1,82.5000031471254,4|0,0:3|0:0,0:0:0:0:
126,234,79096,2,0,P|55:243|73:90,1,247.500009441376,10|0,0:0|0:0,0:0:0:0:
41,98,79425,5,4,3:2:0:0:
59,336,79673,5,2,3:2:0:0:
286,270,79920,6,0,B|426:275|322:359|501:349,1,220,10|0,0:0|3:0,0:0:0:0:
478,351,80414,1,10,0:0:0:0:
202,368,80744,6,0,P|191:268|180:186,1,165,0|2,3:2|3:2,0:0:0:0:
443,275,81239,2,0,P|454:175|465:93,1,165,10|0,0:0|0:0,0:0:0:0:
481,38,81568,1,2,3:2:0:0:
408,9,81733,1,10,0:0:0:0:
323,95,81898,5,0,1:0:0:0:
246,108,81980,1,0,1:0:0:0:
173,131,82063,2,0,L|342:158,1,165,2|0,3:2|3:0,0:0:0:0:
141,38,82557,6,0,P|68:38|35:176,1,220,10|0,0:0|3:0,0:0:0:0:
101,166,83052,2,0,P|90:216|82:287,1,110,10|0,0:0|0:0,0:0:0:0:
159,296,83381,2,0,B|58:307|117:351|10:363,1,165,2|0,3:2|3:0,0:0:0:0:
251,384,83876,6,0,P|259:311|284:162,1,220,8|0,0:0|3:0,0:0:0:0:
474,23,84370,5,0,1:0:0:0:
495,64,84453,1,0,1:0:0:0:
499,109,84535,1,8,0:3:0:0:
486,152,84618,1,8,0:3:0:0:
457,186,84700,6,0,B|416:177|416:177|360:201,1,82.5000031471254,2|0,3:2|0:0,0:0:0:0:
369,204,84865,2,0,L|378:107,1,76.9999976501466,10|0,0:0|0:0,0:0:0:0:
68,310,85195,6,0,B|109:301|109:301|165:325,1,82.5000031471254,2|0,3:2|0:0,0:0:0:0:
156,328,85359,2,0,L|147:231,1,76.9999976501466,10|0,0:0|0:0,0:0:0:0:
278,75,85689,5,2,3:2:0:0:
222,18,85854,2,0,L|263:359,1,330,10|2,0:0|3:2,0:0:0:0:
74,129,86843,5,2,0:2:0:0:
74,129,86925,1,2,0:2:0:0:
74,129,87008,2,0,L|0:115,1,66,2|0,0:3|0:0,0:0:0:0:
121,54,87337,5,4,3:2:0:0:
154,89,87420,1,0,1:0:0:0:
164,137,87502,1,2,1:2:0:0:
148,183,87585,1,0,1:0:0:0:
111,214,87667,2,0,L|34:225,1,65.9999979858399,10|0,0:0|0:0,0:0:0:0:
17,230,87832,6,0,L|223:258,1,197.99999395752,4|0,3:2|0:0,0:0:0:0:
276,298,88162,2,0,B|291:270|291:270|283:225,1,65.9999979858399,2|0,3:2|0:0,0:0:0:0:
263,162,88326,1,8,0:0:0:0:
428,54,88491,5,8,0:3:0:0:
428,54,88574,1,0,1:0:0:0:
428,54,88656,2,0,L|498:35,1,65.9999979858399,2|0,3:2|0:0,0:0:0:0:
328,9,88821,5,2,1:2:0:0:
318,65,88903,1,0,1:0:0:0:
338,117,88986,1,8,0:3:0:0:
383,146,89068,1,8,0:3:0:0:
420,187,89151,1,4,0:3:0:0:
435,241,89233,1,4,0:3:0:0:
427,293,89315,2,0,P|425:320|423:354,1,55,8|0,0:0|0:0,0:0:0:0:
422,374,89480,6,0,L|413:297,1,65.9999979858399,8|0,0:0|0:0,0:0:0:0:
346,251,89975,6,0,P|440:236|498:328,1,187.000003566742,4|2,1:0|0:3,0:0:0:0:
282,302,90222,1,0,0:0:0:0:
217,257,90305,2,0,B|188:248|188:248|113:277,1,93.500001783371,10|0,0:0|0:0,0:0:0:0:
54,357,90469,6,0,P|38:244|25:161,1,187.000003566742,2|2,3:0|1:2,0:0:0:0:
100,143,90717,1,0,0:0:0:0:
25,165,90799,2,0,L|15:271,1,93.500001783371,2|0,3:0|0:0,0:0:0:0:
180,172,90964,2,0,B|288:174|239:106|369:117,1,187.000003566742,10|2,0:0|0:3,0:0:0:0:
313,181,91211,5,0,0:0:0:0:
250,133,91294,2,0,B|238:90|238:90|261:32,1,93.500001783371,2|0,3:2|0:0,0:0:0:0:
415,164,91458,2,0,B|427:207|427:207|405:267,1,93.500001783371,2|0,3:0|0:0,0:0:0:0:
294,374,91623,2,0,L|331:173,1,187.000003566742,10|2,0:0|0:3,0:0:0:0:
246,227,91870,1,0,0:0:0:0:
178,265,91953,6,0,L|79:251,1,93.500001783371,2|0,3:2|0:0,0:0:0:0:
12,153,92118,2,0,L|111:139,1,93.500001783371,2|0,3:0|0:0,0:0:0:0:
218,105,92283,2,0,P|121:111|78:16,1,187.000003566742,10|2,0:0|0:3,0:0:0:0:
313,11,92530,5,0,0:0:0:0:
313,11,92612,2,0,L|342:197,1,187.000003566742,2|2,3:2|0:3,0:0:0:0:
318,270,92859,1,0,0:0:0:0:
349,203,92942,2,0,P|355:155|360:96,1,93.500001783371,10|0,0:0|0:0,0:0:0:0:
512,230,93107,2,0,P|463:227|409:249,1,93.500001783371,2|0,3:0|0:0,0:0:0:0:
497,78,93272,6,0,B|389:80|438:12|308:23,1,187.000003566742,0|2,1:0|3:0,0:0:0:0:
244,67,93519,1,0,0:0:0:0:
174,31,93601,2,0,B|129:48|129:48|73:32,1,93.500001783371,8|0,0:0|0:0,0:0:0:0:
39,242,93766,6,0,P|33:184|28:147,1,93.500001783371,2|0,0:3|0:3,0:3:0:0:
39,153,93931,2,0,P|119:142|223:225,1,187.000003566742,2|2,3:2|0:3,0:0:0:0:
217,270,94178,1,0,0:0:0:0:
186,199,94261,2,0,P|172:152|183:90,1,93.500001783371,8|0,0:0|0:0,0:0:0:0:
302,243,94425,2,0,P|305:289|292:333,1,93.500001783371,2|0,3:0|0:0,0:0:0:0:
118,355,94590,5,2,1:2:0:0:
40,370,94673,1,0,1:0:0:0:
120,364,94755,2,0,L|135:252,1,93.500001783371,2|0,3:0|0:0,0:0:0:0:
281,169,94920,2,0,L|266:57,1,93.500001783371,8|0,0:0|0:0,0:0:0:0:
83,7,95085,5,2,1:3:0:0:
15,41,95167,1,0,1:0:0:0:
90,14,95250,2,0,B|211:12|135:79|293:76,1,187.000003566742,4|2,3:2|0:3,0:0:0:0:
196,121,95497,1,0,0:0:0:0:
118,100,95579,2,0,P|62:118|20:146,1,93.500001783371,8|0,0:0|0:0,0:0:0:0:
34,248,95744,6,0,P|134:214|238:267,1,187.000003566742,2|0,3:0|1:0,0:0:0:0:
280,271,95991,1,0,0:0:0:0:
346,227,96074,2,0,L|373:316,1,93.500001783371,2|0,3:0|0:0,0:0:0:0:
448,372,96239,6,0,L|476:182,1,187.000003566742,8|2,0:0|0:3,0:0:0:0:
413,138,96486,1,0,0:0:0:0:
347,95,96568,2,0,B|328:51|328:51|353:2,1,93.500001783371,2|0,3:2|0:0,0:0:0:0:
512,76,96733,2,0,P|467:66|409:53,1,93.500001783371,2|0,3:0|0:0,0:0:0:0:
280,155,96898,6,0,P|220:117|95:146,1,187.000003566742,8|2,0:0|0:3,0:0:0:0:
40,171,97145,1,0,0:0:0:0:
116,145,97228,2,0,P|121:97|121:50,1,93.500001783371,2|0,3:2|0:0,0:0:0:0:
21,0,97392,2,0,P|21:46|26:93,1,93.500001783371,2|0,3:0|0:0,0:0:0:0:
169,224,97557,2,0,B|48:222|124:289|-34:286,1,187.000003566742,8|2,0:0|1:3,0:0:0:0:
149,357,97805,5,0,1:0:0:0:
149,357,97887,2,0,P|245:358|256:234,1,187.000003566742,2|2,3:2|0:3,0:0:0:0:
256,209,98134,1,0,0:0:0:0:
308,148,98217,2,0,P|347:152|425:176,1,93.500001783371,8|0,0:0|0:0,0:0:0:0:
497,237,98381,2,0,P|458:241|380:265,1,93.500001783371,2|0,0:3|0:0,0:0:0:0:
512,78,98546,6,0,P|394:74|349:4,1,187.000003566742,4|2,3:2|3:0,0:0:0:0:
284,61,98794,1,0,0:0:0:0:
208,38,98876,2,0,B|183:22|183:22|81:54,1,93.500001783371,8|0,0:0|0:0,0:0:0:0:
19,160,99041,5,2,1:3:0:0:
25,153,99123,1,0,1:0:0:0:
30,145,99206,2,0,P|124:137|186:217,1,187.000003566742,4|0,3:2|0:0,0:0:0:0:
144,269,99453,1,0,0:0:0:0:
179,340,99535,2,0,P|268:349|331:284,1,187.000003566742,4|0,3:2|1:0,0:0:0:0:
355,204,99783,5,0,1:0:0:0:
405,243,99865,1,0,1:0:0:0:
423,299,99947,1,8,0:3:0:0:
391,353,100030,1,8,0:3:0:0:
330,371,100112,1,8,0:3:0:0:
276,346,100195,1,4,0:3:0:0:
248,291,100277,1,4,0:3:0:0:
244,230,100359,1,4,0:3:0:0:
240,169,100442,1,4,0:3:0:0:
237,112,100524,6,0,B|116:110|192:177|34:174,1,187.000003566742,4|2,1:0|0:3,0:0:0:0:
316,145,100772,1,0,0:0:0:0:
379,98,100854,2,0,B|398:57|398:57|380:9,1,93.500001783371,10|0,0:0|0:0,0:0:0:0:
459,147,101019,6,0,L|484:358,1,187.000003566742,2|2,3:0|1:2,0:0:0:0:
411,366,101266,1,0,0:0:0:0:
344,324,101348,2,0,L|359:225,1,93.500001783371,2|0,3:0|0:0,0:0:0:0:
255,364,101513,6,0,P|172:323|64:365,1,187.000003566742,10|2,0:0|0:3,0:0:0:0:
7,358,101761,1,0,0:0:0:0:
84,361,101843,2,0,P|74:302|67:244,1,93.500001783371,2|0,3:2|0:0,0:0:0:0:
177,182,102008,2,0,P|170:228|163:274,1,93.500001783371,2|0,3:0|0:0,0:0:0:0:
0,144,102173,6,0,P|101:141|142:45,1,187.000003566742,10|2,0:0|0:3,0:0:0:0:
208,34,102420,1,0,1:0:0:0:
259,24,102502,1,2,1:2:0:0:
305,47,102585,1,0,1:0:0:0:
328,95,102667,2,0,P|344:47|363:-8,1,93.500001783371,2|0,3:0|0:0,0:0:0:0:
493,123,102832,2,0,B|372:121|448:188|290:185,1,187.000003566742,10|2,0:0|0:3,0:0:0:0:
244,118,103079,5,0,0:0:0:0:
244,118,103162,2,0,L|222:322,1,187.000003566742,2|2,3:2|0:3,0:0:0:0:
247,375,103409,1,0,0:0:0:0:
214,306,103491,2,0,L|206:191,1,93.500001783371,8|0,0:0|0:0,0:0:0:0:
333,352,103656,6,0,P|438:363|463:271,1,187.000003566742,2|2,3:0|1:2,0:0:0:0:
419,239,103903,1,0,0:0:0:0:
421,160,103986,2,0,L|518:178,1,93.500001783371,2|0,3:0|0:0,0:0:0:0:
412,143,104151,2,0,B|357:123|357:123|210:184,1,187.000003566742,10|2,0:0|0:3,0:0:0:0:
45,273,104398,5,0,0:0:0:0:
45,273,104480,2,0,B|100:253|100:253|247:314,1,187.000003566742,2|2,3:2|0:3,0:0:0:0:
263,368,104728,1,0,0:0:0:0:
338,341,104810,2,0,P|386:229|306:63,1,280.500005350113,8|0,0:0|0:0,0:0:0:0:
268,41,105140,6,0,P|250:87|262:140,1,93.500001783371,2|0,3:2|0:0,0:0:0:0:
241,162,105305,1,0,1:0:0:0:
212,123,105387,1,0,1:0:0:0:
173,96,105469,1,8,0:3:0:0:
127,82,105552,1,8,0:3:0:0:
80,83,105634,1,4,0:3:0:0:
35,98,105717,1,4,0:3:0:0:
28,105,105799,6,0,P|33:58|39:12,1,93.500001783371,4|0,3:2|0:0,0:0:0:0:
42,0,105964,2,0,L|58:284,1,280.500005350113,8|0,0:0|0:0,0:0:0:0:
67,370,106294,2,0,B|53:326|53:326|68:275,1,93.500001783371,0|0,3:0|0:0,0:0:0:0:
133,218,106458,6,0,B|287:207|222:326|387:311,1,280.500005350113,10|0,0:0|0:0,0:0:0:0:
321,371,106788,2,0,P|310:312|321:267,1,93.500001783371,2|0,3:2|0:0,0:0:0:0:
494,246,106953,5,8,0:0:0:0:
327,161,107118,1,2,3:2:0:0:
506,108,107283,1,0,3:0:0:0:
245,0,107447,6,0,L|215:286,1,280.500005350113,8|0,0:0|0:0,0:0:0:0:
218,298,107777,2,0,L|209:193,1,93.500001783371,2|0,3:2|0:0,0:0:0:0:
285,145,107942,5,0,1:0:0:0:
244,112,108024,1,0,1:0:0:0:
190,110,108107,1,8,0:3:0:0:
141,137,108189,1,8,0:3:0:0:
95,167,108272,1,8,0:3:0:0:
42,160,108354,1,8,0:3:0:0:
2,132,108436,6,0,L|17:38,1,93.500001783371,0|0,3:0|0:0,0:0:0:0:
20,23,108601,2,0,L|43:228,1,187.000003566742,8|0,0:0|0:0,0:0:0:0:
500,159,108931,6,0,L|485:65,1,93.500001783371,0|0,3:0|0:0,0:0:0:0:
482,50,109096,2,0,L|459:255,1,187.000003566742,8|0,0:0|0:0,0:0:0:0:
131,267,109425,6,0,L|146:173,1,93.500001783371,0|0,3:0|0:0,0:0:0:0:
149,158,109590,2,0,L|172:363,1,187.000003566742,8|0,0:0|0:0,0:0:0:0:
371,294,109920,6,0,L|356:200,1,93.500001783371,0|0,3:0|0:0,0:0:0:0:
353,185,110085,2,0,L|330:390,1,187.000003566742,8|0,0:0|0:0,0:0:0:0:
40,306,110414,5,8,0:3:0:0:
4,335,110497,1,8,0:3:0:0:
44,350,110579,1,8,0:3:0:0:
81,326,110662,1,8,0:3:0:0:
110,282,110744,1,0,1:0:0:0:
166,270,110826,1,0,1:0:0:0:
222,279,110909,1,0,1:0:0:0:
259,326,110991,1,0,1:0:0:0:
315,341,111074,6,0,P|412:359|459:284,1,187.000003566742,4|0,3:2|0:0,0:0:0:0:
397,249,111321,2,0,P|392:187|386:146,1,93.500001783371,0|0,3:0|0:0,0:0:0:0:
466,106,111486,5,0,1:0:0:0:
436,78,111568,1,0,1:0:0:0:
393,71,111650,1,8,0:3:0:0:
351,80,111733,1,8,0:3:0:0:
315,96,111815,1,4,0:3:0:0:
310,100,111898,2,0,L|109:71,1,187.000003566742,2|0,3:2|0:0,0:0:0:0:
11,178,112145,5,0,1:0:0:0:
49,150,112227,1,0,1:0:0:0:
98,148,112310,1,0,1:0:0:0:
138,172,112392,2,0,P|134:222|130:274,1,93.500001783371,8|0,0:0|0:0,0:0:0:0:
52,312,112557,5,0,3:0:0:0:
84,357,112639,1,0,3:0:0:0:
139,371,112722,1,8,0:0:0:0:
192,355,112804,2,0,P|270:301|390:357,1,187.000003566742,8|0,0:0|0:0,0:0:0:0:
464,369,113052,6,0,B|475:215|356:280|371:115,1,280.500005350113,4|0,3:2|0:0,0:0:0:0:
377,97,113381,2,0,P|369:147|362:196,1,93.500001783371,0|0,3:0|0:0,0:0:0:0:
292,58,113546,5,8,0:0:0:0:
479,165,113711,1,8,0:0:0:0:
286,245,113876,2,0,P|206:183|29:259,1,280.500005350113,4|0,3:2|0:0,0:0:0:0:
54,246,114205,2,0,P|46:174|40:141,1,93.500001783371,0|0,3:0|0:0,0:0:0:0:
0,84,114370,5,0,1:0:0:0:
45,57,114452,1,0,1:0:0:0:
97,64,114535,1,8,0:3:0:0:
143,98,114617,1,8,0:3:0:0:
184,135,114700,1,4,0:3:0:0:
237,136,114782,1,4,0:3:0:0:
282,93,114865,6,0,P|344:224|290:366,1,280.500005350113,4|0,3:2|0:0,0:0:0:0:
235,384,115194,2,0,P|226:336|241:291,1,93.500001783371,0|0,3:0|0:0,0:0:0:0:
307,249,115359,5,0,3:0:0:0:
396,256,115524,5,0,3:0:0:0:
470,335,115689,5,8,0:0:0:0:
492,159,115854,6,0,P|497:107|499:62,1,93.500001783371,4|0,3:2|0:0,0:0:0:0:
393,16,116018,2,0,P|395:62|399:109,1,93.500001783371,8|0,0:0|0:0,0:0:0:0:
327,172,116183,5,0,1:0:0:0:
290,138,116266,1,0,1:0:0:0:
243,108,116348,1,0,1:0:0:0:
190,93,116430,1,8,0:3:0:0:
138,87,116513,5,8,0:3:0:0:
131,89,116595,1,8,0:3:0:0:
124,90,116678,1,4,0:3:0:0:
118,93,116760,1,4,0:3:0:0:
108,96,116843,6,0,L|308:63,1,187.000003566742,4|0,3:2|0:0,0:0:0:0:
305,65,117090,2,0,L|212:49,1,93.500001783371,2|0,3:2|0:0,0:0:0:0:
32,21,117337,1,2,3:2:0:0:
0,244,117502,6,0,P|82:181|247:223,1,280.500005350113,10|0,0:0|0:0,0:0:0:0:
404,288,117832,6,0,L|204:321,1,187.000003566742,4|0,3:2|0:0,0:0:0:0:
207,319,118079,2,0,L|299:334,1,93.500001783371,2|0,3:2|0:0,0:0:0:0:
480,363,118326,1,2,3:2:0:0:
512,158,118491,6,0,P|416:202|300:93,1,280.500005350113,8|0,0:0|0:0,0:0:0:0:
265,28,118821,1,4,3:2:0:0:
259,24,119150,6,0,P|264:101|271:227,1,187.000003566742,2|0,3:2|0:0,0:0:0:0:
325,266,119397,1,0,0:0:0:0:
326,270,119480,2,0,B|219:293|271:342|138:349,1,187.000003566742,10|0,0:0|0:0,0:0:0:0:
93,373,119727,1,0,0:0:0:0:
164,336,119810,2,0,L|156:240,1,93.500001783371,4|0,3:2|0:0,0:0:0:0:
36,190,119974,5,8,0:3:0:0:
0,219,120057,1,4,0:3:0:0:
40,234,120139,1,8,0:3:0:0:
77,210,120222,1,0,1:0:0:0:
106,166,120304,1,0,1:0:0:0:
162,154,120386,1,0,1:0:0:0:
218,163,120469,1,8,0:3:0:0:
255,210,120551,1,8,0:3:0:0:
311,225,120634,1,4,0:3:0:0:
366,209,120716,1,4,0:3:0:0:
371,202,120799,6,0,P|379:133|391:50,1,142.99999345398,2|0,3:2|0:0,0:0:0:0:
389,60,121046,1,2,3:2:0:0:
389,60,121128,1,8,0:0:0:0:
389,60,121211,1,2,3:2:0:0:
110,348,121540,6,0,P|102:279|90:196,1,142.99999345398,2|0,3:2|0:0,0:0:0:0:
92,206,121788,1,2,3:2:0:0:
92,206,121870,1,8,0:0:0:0:
92,206,121952,1,0,3:0:0:0:
230,22,122282,6,0,L|252:206,1,181.49999446106,4|0,3:2|0:0,0:0:0:0:
262,216,123271,6,0,P|256:265|250:323,1,93.500001783371,12|0,0:0|0:0,0:0:0:0:
253,383,123435,5,8,0:0:0:0:
288,336,123518,1,8,0:0:0:0:
285,271,123600,1,8,0:0:0:0:
251,220,123683,1,8,0:0:0:0:
246,213,123765,5,2,1:2:0:0:
210,157,123847,1,2,1:2:0:0:
209,97,123930,1,2,1:2:0:0:
244,50,124012,1,2,1:2:0:0:
249,44,124095,1,2,1:2:0:0:
257,37,124177,1,2,1:2:0:0:
264,28,124260,6,0,B|143:36|205:85|69:93,1,187.000003566742,4|0,3:2|0:0,0:0:0:0:
1,201,124507,2,0,P|87:191|153:265,1,187.000003566742,0|0,3:0|0:0,0:0:0:0:
265,303,124754,6,0,L|251:210,1,93.500001783371,0|0,3:0|0:0,0:0:0:0:
251,198,124919,2,0,L|237:390,1,187.000003566742,8|0,0:0|0:0,0:0:0:0:
248,28,125249,6,0,B|369:36|307:85|443:93,1,187.000003566742,0|0,3:0|0:0,0:0:0:0:
511,201,125496,1,0,3:0:0:0:
511,201,125578,1,8,0:0:0:0:
511,201,125661,2,0,P|425:191|359:265,1,187.000003566742,0|0,3:0|0:0,0:0:0:0:
420,381,125908,2,0,P|426:334|433:288,1,93.500001783371,8|0,0:0|0:0,0:0:0:0:
259,254,126073,5,0,1:0:0:0:
231,181,126155,1,0,1:0:0:0:
251,108,126238,2,0,P|264:212|245:295,1,187.000003566742,4|0,3:2|0:0,0:0:0:0:
257,371,126485,2,0,B|136:363|198:314|62:306,1,187.000003566742,0|0,3:0|0:0,0:0:0:0:
16,349,126732,2,0,P|10:293|19:245,1,93.500001783371,0|0,3:0|0:0,0:0:0:0:
147,178,126897,6,0,P|61:190|21:89,1,187.000003566742,8|0,0:0|0:0,0:0:0:0:
249,30,127227,6,0,L|269:224,1,187.000003566742,0|0,3:0|0:0,0:0:0:0:
267,237,127474,1,0,3:0:0:0:
267,237,127556,2,0,L|276:139,1,93.500001783371,8|0,0:0|0:0,0:0:0:0:
475,99,127721,5,8,0:3:0:0:
411,54,127803,1,8,0:3:0:0:
346,95,127886,1,8,0:3:0:0:
281,55,127968,1,4,0:3:0:0:
212,89,128051,1,4,0:3:0:0:
150,46,128133,1,4,0:3:0:0:
82,90,128216,6,0,L|61:284,1,187.000003566742,4|0,3:2|0:0,0:0:0:0:
18,344,128463,2,0,P|130:302|203:358,1,187.000003566742,0|0,3:0|0:0,0:0:0:0:
250,373,128710,2,0,P|257:317|266:273,1,93.500001783371,2|0,3:2|0:0,0:0:0:0:
294,192,128875,6,0,B|174:188|237:257|88:257,1,187.000003566742,8|2,0:0|0:0,0:0:0:0:
351,255,129122,1,0,0:0:0:0:
424,222,129205,2,0,P|448:162|410:36,1,187.000003566742,4|0,3:2|0:0,0:0:0:0:
350,9,129452,5,0,3:0:0:0:
350,9,129534,1,10,0:0:0:0:
350,9,129617,2,0,P|342:58|338:111,1,93.500001783371,0|2,3:0|0:0,0:0:0:0:
188,127,129782,5,0,1:0:0:0:
188,127,129864,2,0,P|196:176|200:229,1,93.500001783371,8|0,0:0|0:0,0:0:0:0:
358,382,130029,5,0,1:0:0:0:
397,316,130111,1,0,1:0:0:0:
352,251,130194,2,0,B|232:247|295:316|146:316,1,187.000003566742,4|0,3:2|0:0,0:0:0:0:
110,368,130441,5,0,1:0:0:0:
110,368,130523,2,0,P|99:293|91:245,1,93.500001783371,8|0,0:0|0:0,0:0:0:0:
9,171,130688,6,0,P|131:186|213:54,1,280.500005350113,4|0,3:2|0:0,0:0:0:0:
302,20,131018,6,0,P|294:75|288:130,1,93.500001783371,0|0,3:0|0:0,0:0:0:0:
206,368,131183,6,0,B|170:228|300:202|300:202|433:182|387:4,1,467.500008916855,12|0,0:0|0:0,0:0:0:0:
381,376,131677,6,0,B|417:236|287:210|287:210|154:190|200:12,1,467.500008916855,12|0,0:0|0:0,0:0:0:0:
210,19,132172,6,0,L|110:40,1,93.500001783371
55,83,132336,1,2,0:3:0:0:
48,89,132419,1,2,0:2:0:0:
41,94,132501,1,2,0:2:0:0:
36,97,132584,1,2,0:2:0:0:
32,102,132666,2,0,L|132:123,1,93.500001783371,2|0,0:0|0:0,0:0:0:0:
199,136,132831,5,4,3:2:0:0:
502,351,138105,6,0,B|449:335|449:335|379:377,1,110,2|0,3:2|0:0,0:0:0:0:
397,371,138435,2,0,L|379:248,1,110,2|2,3:2|0:0,0:0:0:0:
46,243,138765,6,0,B|99:227|99:227|169:269,1,110,0|0,3:0|0:0,0:0:0:0:
151,263,139094,2,0,L|169:140,1,110,2|0,3:2|0:0,0:0:0:0:
320,29,139424,6,0,B|454:38|370:114|536:119,2,220,2|0|2,3:2|3:0|3:2,0:0:0:0:
272,362,140413,6,0,L|256:218,1,132,0|0,3:0|0:0,0:0:0:0:
309,160,140743,5,4,3:2:0:0:
309,160,140825,1,0,1:0:0:0:
309,160,140907,2,0,L|210:142,1,93.500001783371,0|0,1:0|0:0,0:0:0:0:
212,64,141072,2,0,L|120:80,1,93.500001783371,0|0,3:0|0:0,0:0:0:0:
6,209,141237,5,0,1:0:0:0:
42,175,141320,1,0,1:0:0:0:
91,163,141402,2,0,P|98:223|99:281,1,93.500001783371,4|0,3:2|0:0,0:0:0:0:
40,335,141567,5,0,1:0:0:0:
89,352,141649,1,0,1:0:0:0:
142,345,141732,1,8,0:3:0:0:
184,302,141814,1,8,0:3:0:0:
233,285,141896,1,4,0:3:0:0:
286,292,141979,1,4,0:3:0:0:
330,338,142061,2,0,P|339:291|365:234,1,93.500001783371,12|0,0:0|0:0,0:0:0:0:
471,157,142226,5,8,0:3:0:0:
494,163,142309,1,8,0:3:0:0:
508,171,142391,2,0,P|462:186|400:192,1,93.500001783371,8|0,0:0|0:0,0:0:0:0:
275,108,142556,5,8,0:3:0:0:
306,133,142638,1,8,0:3:0:0:
334,161,142721,1,8,0:0:0:0:
226,180,142885,5,8,0:0:0:0:
387,62,143050,1,2,0:0:0:0:
399,54,143133,1,2,0:0:0:0:
413,46,143215,1,2,0:0:0:0:
428,39,143298,1,2,0:0:0:0:
492,94,143380,6,0,B|372:84|451:25|295:6,1,197.99999395752,4|2,1:0|0:3,0:0:0:0:
257,53,143627,1,0,0:0:0:0:
189,19,143710,2,0,P|177:77|175:132,1,98.9999969787599,10|0,0:0|0:0,0:0:0:0:
226,180,143874,6,0,P|126:221|55:124,1,197.99999395752,2|2,3:0|1:2,0:0:0:0:
20,108,144122,1,0,0:0:0:0:
70,170,144204,2,0,P|82:228|84:283,1,98.9999969787599,2|0,3:0|0:0,0:0:0:0:
28,357,144369,6,0,B|114:296|114:296|225:340,1,197.99999395752,10|2,0:0|0:3,0:0:0:0:
272,364,144616,1,0,0:0:0:0:
339,320,144699,2,0,P|387:320|452:342,1,98.9999969787599,2|0,3:2|0:0,0:0:0:0:
265,270,144863,2,0,L|253:156,1,98.9999969787599,2|0,3:0|0:0,0:0:0:0:
179,31,145028,6,0,B|55:44|128:100|6:115,1,197.99999395752,10|2,0:0|0:3,0:0:0:0:
237,93,145276,1,0,0:0:0:0:
304,50,145358,2,0,P|352:58|414:75,1,98.9999969787599,2|0,3:2|0:0,0:0:0:0:
492,147,145523,2,0,P|444:155|382:172,1,98.9999969787599,2|0,3:0|0:0,0:0:0:0:
274,290,145688,2,0,B|323:263|323:263|497:327,1,197.99999395752,10|2,0:0|0:3,0:0:0:0:
193,364,145935,5,0,0:0:0:0:
193,364,146017,2,0,P|151:263|194:176,1,197.99999395752,2|2,3:2|0:3,0:0:0:0:
258,202,146265,1,0,0:0:0:0:
315,149,146347,2,0,P|327:116|306:49,1,98.9999969787599,8|0,0:0|0:0,0:0:0:0:
178,104,146512,6,0,P|71:95|12:166,1,197.99999395752,2|2,3:0|1:2,0:0:0:0:
92,336,146759,1,0,0:0:0:0:
80,251,146841,2,0,P|72:300|78:352,1,98.9999969787599,2|0,3:0|0:0,0:0:0:0:
92,377,147006,2,0,P|115:264|98:167,1,197.99999395752,10|2,0:0|0:3,0:0:0:0:
29,31,147254,5,0,0:0:0:0:
29,31,147336,2,0,B|153:44|80:100|201:115,1,197.99999395752,2|2,3:2|0:3,0:0:0:0:
277,130,147583,1,0,0:0:0:0:
337,78,147666,2,0,P|405:197|340:340,1,296.99999093628,8|0,0:0|0:0,0:0:0:0:
285,384,147995,2,0,P|270:338|281:290,1,98.9999969787599,2|0,3:2|0:0,0:0:0:0:
373,266,148160,5,8,0:3:0:0:
337,223,148243,1,8,0:3:0:0:
282,211,148325,1,4,0:3:0:0:
226,220,148407,1,4,0:3:0:0:
189,267,148490,1,4,0:3:0:0:
133,282,148572,1,4,0:3:0:0:
77,265,148655,2,0,P|70:197|64:157,1,98.9999969787599,4|0,3:2|0:0,0:0:0:0:
2,33,148820,6,0,B|167:25|87:141|280:126,1,296.99999093628,8|0,0:0|0:0,0:0:0:0:
292,53,149149,2,0,P|342:46|391:37,1,98.9999969787599,0|0,3:0|0:0,0:0:0:0:
512,267,149314,6,0,P|422:186|251:246,1,296.99999093628,10|0,0:0|0:0,0:0:0:0:
192,323,149644,2,0,P|182:252|169:198,1,98.9999969787599,2|0,3:2|0:0,0:0:0:0:
103,371,149809,5,8,0:0:0:0:
287,312,149973,1,2,3:2:0:0:
88,222,150138,1,0,3:0:0:0:
309,117,150303,6,0,L|15:74,1,296.99999093628,8|0,0:0|0:0,0:0:0:0:
9,77,150633,2,0,L|131:58,1,98.9999969787599,2|0,3:2|0:0,0:0:0:0:
188,0,150798,5,0,1:0:0:0:
198,56,150880,1,0,1:0:0:0:
178,108,150962,1,8,0:3:0:0:
133,137,151045,1,8,0:3:0:0:
96,178,151127,1,8,0:3:0:0:
81,232,151210,1,8,0:3:0:0:
92,281,151292,2,0,P|97:332|100:387,1,98.9999969787599,4|0,3:2|0:0,0:0:0:0:
83,374,151457,6,0,B|247:391|182:272|357:284,1,296.99999093628,10|0,0:0|0:0,0:0:0:0:
404,355,151787,5,0,1:0:0:0:
448,289,151869,1,0,1:0:0:0:
425,215,151951,2,0,P|374:203|310:188,1,98.9999969787599,8|0,0:0|0:0,0:0:0:0:
68,173,152116,5,0,1:0:0:0:
59,170,152199,2,0,P|109:158|174:143,1,98.9999969787599,8|0,0:3|0:0,0:0:0:0:
400,64,152363,5,8,0:3:0:0:
409,61,152446,1,4,0:3:0:0:
418,58,152528,1,4,0:3:0:0:
424,56,152611,2,0,P|373:44|309:29,1,98.9999969787599,4|0,3:2|0:0,0:0:0:0:
235,22,152776,5,0,3:0:0:0:
227,23,152858,2,0,B|212:67|212:67|244:132,1,98.9999969787599,8|0,0:0|0:0,0:0:0:0:
432,258,153023,5,0,3:0:0:0:
435,250,153105,2,0,B|404:215|404:215|332:210,1,98.9999969787599,8|0,0:0|0:0,0:0:0:0:
123,297,153270,5,0,3:0:0:0:
128,303,153352,2,0,B|173:293|173:293|213:233,1,98.9999969787599,8|0,0:0|0:0,0:0:0:0:
271,204,153517,5,0,1:0:0:0:
271,204,153600,1,0,1:0:0:0:
271,204,153682,1,0,1:0:0:0:
271,204,153765,1,0,1:0:0:0:
271,204,153847,1,0,1:0:0:0:
