osu file format v14

[General]
AudioFilename: audio.mp3
AudioLeadIn: 0
PreviewTime: 55995
Countdown: 0
SampleSet: Soft
StackLeniency: 0.2
Mode: 2
LetterboxInBreaks: 0
WidescreenStoryboard: 1

[Editor]
DistanceSpacing: 1.1
BeatDivisor: 4
GridSize: 8
TimelineZoom: 4.459998

[Metadata]
Title:asura
TitleUnicode:asura
Artist:Co shu Nie
ArtistUnicode:Cö shu Nie
Creator:skill issue lol
Version:ymiir's overdose
Source:
Tags:fayew baron alienflybot autofanboy afb ymiir fii -wwwww アスラ rock alternative experimental Aurora EP japanese pop Miku Nakamura コシュニエ 中村未来 Shunsuke Matsumoto 松本駿介 Ryosuke Fujita 藤田亮介 j-pop jpop j-rock jrock math
BeatmapID:2743490
BeatmapSetID:1101376

[Difficulty]
HPDrainRate:6
CircleSize:4.2
OverallDifficulty:9.3
ApproachRate:9.3
SliderMultiplier:1.78
SliderTickRate:2

[Events]
//Background and Video events
0,0,"asura.jpg",0,0
//Break Periods
//Storyboard Layer 0 (Background)
//Storyboard Layer 1 (Fail)
//Storyboard Layer 2 (Pass)
//Storyboard Layer 3 (Foreground)
//Storyboard Layer 4 (Overlay)
//Storyboard Sound Samples

[TimingPoints]
399,333.333333333333,4,2,2,50,1,0
4398,333.333333333333,5,2,2,50,1,0
5064,-83.3333333333333,5,2,2,50,0,0
5397,-100,5,2,2,50,0,0
6065,333.333333333333,3,2,2,50,1,0
10064,333.333333333333,5,2,2,50,1,0
11730,333.333333333333,3,2,2,50,1,0
12729,333.333333333333,4,2,2,50,1,0
14062,333.333333333333,4,2,2,50,1,1
14062,-90.9090909090909,4,2,2,50,0,1
19728,-76.9230769230769,4,2,2,50,0,1
20062,-51.5463917525773,4,2,2,50,0,1
20395,-33.3333333333333,4,2,2,50,0,1
20728,-90.9090909090909,4,2,2,50,0,1
30061,-100,3,2,2,50,0,0
30562,-100,3,2,2,50,0,0
31062,-57.1428571428571,3,2,2,50,0,0
31395,-100,3,2,2,50,0,0
31562,-100,3,2,2,50,0,0
32062,-100,3,2,2,50,0,0
32728,333.333333333333,3,2,2,50,1,0
42727,-83.3333333333333,3,2,2,50,0,0
43061,-100,3,2,2,50,0,0
44727,416.666666666667,4,2,2,50,1,0
44727,-80,4,2,2,50,0,0
50393,-66.6666666666667,4,2,2,50,0,0
51400,333.333333333333,3,2,2,50,1,0
51900,-66.6666666666667,3,2,2,50,0,0
52400,-100,3,2,2,50,0,0
52900,-66.6666666666667,3,2,2,50,0,0
53066,-100,3,2,2,50,0,0
53400,333.333333333333,5,2,2,50,1,0
54900,333.333333333333,3,2,2,50,1,0
56816,-100,3,2,2,5,0,0
56900,333.333333333333,3,2,2,50,1,1
56900,-85.4700854700855,3,2,2,50,0,1
60899,333.333333333333,5,2,2,50,1,0
60899,-85.4700854700855,5,2,2,50,0,1
61732,-86.9565217391304,3,2,2,50,0,1
62565,333.333333333333,3,2,2,50,1,0
62565,-85.4700854700855,3,2,2,50,0,1
64565,-85.4700854700855,3,2,2,50,0,0
65565,333.333333333333,4,1,0,50,1,0
65565,-86.9565217391304,4,1,0,50,0,0
66898,-100,4,1,0,50,0,0
67731,-100,4,2,2,50,0,0
68231,-100,4,2,2,50,0,1
70565,-100,4,2,2,50,0,0
70898,-100,4,2,2,50,0,1
76564,-71.4285714285714,4,2,2,50,0,1
76898,-100,4,2,2,50,0,1
78898,333.333333333333,5,2,2,50,1,0
81898,-83.3333333333333,4,2,2,50,0,1
82231,333.333333333333,3,2,2,50,1,0
82231,-83.3333333333333,4,2,2,50,0,0
87587,333.333333333333,3,2,2,50,1,0
87940,333.333333333333,3,2,2,50,1,0
88255,333.333333333333,3,2,2,50,1,0
88255,-83.3333333333333,3,2,2,50,0,0
88480,333.333333333333,4,2,2,50,1,0
88480,-83.3333333333333,4,2,2,50,0,0

[Colours]
Combo1 : 130,238,254
Combo2 : 246,138,146
Combo3 : 141,164,242
Combo4 : 238,221,146

[HitObjects]
236,212,3065,5,8,0:0:0:0:
395,187,3148,1,8,0:0:0:0:
236,212,3314,1,8,0:0:0:0:
401,330,3481,2,0,L|383:280,1,44.5,2|2,0:1|0:1,0:0:0:0:
319,303,3648,2,0,L|280:272,1,44.5,2|2,0:1|0:1,0:0:0:0:
372,273,3815,1,2,0:1:0:0:
200,67,3898,5,8,0:0:0:0:
300,53,4064,1,2,0:1:0:0:
471,264,4148,1,8,0:0:0:0:
372,273,4315,1,2,0:1:0:0:
205,368,4398,6,0,L|369:349,1,133.5,4|0,0:0|0:0,0:0:0:0:
323,311,4731,1,8,0:0:0:0:
292,272,4814,1,0,0:0:0:0:
251,248,4897,1,8,0:0:0:0:
195,235,4982,1,8,0:0:0:0:
367,40,5064,6,0,L|191:60,1,160.199995111084,4|8,0:0|0:0,0:0:0:0:
233,114,5398,1,8,0:0:0:0:
266,155,5481,1,8,0:0:0:0:
315,181,5564,1,8,0:0:0:0:
363,192,5647,1,8,0:0:0:0:
174,217,5731,1,8,0:3:0:0:
127,261,5814,1,8,0:3:0:0:
112,314,5897,1,0,0:0:0:0:
138,365,5981,1,0,0:0:0:0:
294,321,6064,6,0,P|349:349|407:357,1,89,6|8,0:0|0:0,0:0:0:0:
183,65,6314,2,0,L|237:52,1,44.5,0|8,0:0|0:0,0:0:0:0:
134,183,6564,2,0,L|187:173,1,44.5,2|8,0:0|0:0,0:0:0:0:
335,204,6731,2,0,L|380:189,1,44.5,4|8,0:0|0:0,0:0:0:0:
334,164,6898,1,2,0:0:0:0:
65,203,7064,6,0,L|54:62,1,133.5,2|8,0:1|0:0,0:0:0:0:
161,360,7398,2,0,L|44:349,1,89,4|2,0:0|0:1,0:0:0:0:
179,332,7731,2,0,L|264:340,2,66.75,8|8|4,0:0|0:0|0:0,0:0:0:0:
355,233,8064,6,0,L|448:254,1,89,6|8,0:0|0:0,0:0:0:0:
400,234,8314,1,8,0:0:0:0:
305,260,8398,2,0,L|312:166,1,89,2|8,0:0|0:0,0:0:0:0:
464,242,8731,2,0,L|358:267,1,89,2|8,0:0|0:0,0:0:0:0:
172,59,8981,1,8,0:0:0:0:
98,51,9064,6,0,B|59:49|2:89|185:98,1,178,2|2,0:1|0:1,0:0:0:0:
449,189,9564,2,0,P|493:136|418:43,1,178,2|8,0:0|0:0,0:0:0:0:
373,24,9981,1,8,0:0:0:0:
157,128,10064,6,0,L|341:121,1,178,6|2,0:0|0:1,0:0:0:0:
185,106,10564,2,0,L|66:114,1,89,8|8,0:0|0:0,0:0:0:0:
147,85,10814,1,0,0:0:0:0:
374,352,10897,6,0,L|489:339,2,89,12|2|8,0:0|0:0|0:0,0:0:0:0:
241,291,11397,2,0,L|359:279,1,89,2|8,0:0|0:0,0:0:0:0:
375,274,11647,1,8,0:0:0:0:
197,177,11730,6,0,L|43:194,1,133.5,4|8,0:0|0:0,0:0:0:0:
274,119,12063,1,8,0:0:0:0:
290,213,12230,1,2,0:0:0:0:
131,346,12396,2,0,L|179:355,1,44.5,8|8,0:0|0:0,0:0:0:0:
338,374,12563,1,8,0:0:0:0:
75,313,12729,6,0,L|100:118,1,178,6|2,0:0|0:0,0:0:0:0:
252,134,13229,2,0,L|202:126,1,44.5,8|8,0:0|0:0,0:0:0:0:
52,226,13395,1,2,0:1:0:0:
380,320,13562,5,6,0:0:0:0:
451,244,13728,2,0,L|392:259,1,44.5,2|2,0:3|0:3,0:0:0:0:
157,262,13895,2,0,L|114:251,1,44.5,2|2,0:3|0:3,0:0:0:0:
330,52,14062,6,0,P|380:83|363:162,1,146.850004481506,4|2,0:1|0:0,0:0:0:0:
275,158,14395,2,0,L|429:185,1,146.850004481506,8|0,0:0|0:0,0:0:0:0:
182,365,14728,2,0,L|54:344,2,97.900002987671,2|8|8,0:0|0:0|0:0,0:0:0:0:
316,306,15395,2,0,L|380:296,1,48.9500014938355,6|6,0:0|0:0,0:0:0:0:
147,217,15561,5,8,0:0:0:0:
203,209,15645,1,0,0:0:0:0:
258,202,15728,2,0,B|356:193|356:193|275:183,1,146.850004481506,8|0,0:0|0:0,0:0:0:0:
163,156,16062,1,4,0:0:0:0:
53,138,16228,1,2,0:0:0:0:
195,124,16394,1,8,0:0:0:0:
53,138,16562,1,8,0:0:0:0:
311,29,16728,6,0,L|136:52,1,146.850004481506,2|2,0:1|0:0,0:0:0:0:
272,358,17062,2,0,P|331:332|360:289,1,97.900002987671,8|8,0:0|0:0,0:0:0:0:
322,245,17312,1,0,0:0:0:0:
257,230,17395,1,2,0:0:0:0:
494,160,17562,1,8,0:0:0:0:
256,367,17728,2,0,L|372:386,1,97.900002987671,8|0,0:0|0:0,0:0:0:0:
71,347,18061,6,0,B|62:161,1,146.850004481506,2|2,0:1|0:0,0:0:0:0:
238,223,18395,2,0,L|243:335,1,97.900002987671,8|8,0:0|0:0,0:0:0:0:
192,301,18645,1,0,0:0:0:0:
363,111,18728,2,0,L|470:124,1,97.900002987671,2|2,0:0|0:1,0:0:0:0:
207,34,19062,1,8,0:0:0:0:
205,89,19145,1,8,0:0:0:0:
121,163,19228,1,8,0:0:0:0:
170,137,19312,1,8,0:0:0:0:
369,199,19395,6,0,P|427:228|382:314,1,146.850004481506,4|2,0:1|0:0,0:0:0:0:
219,346,19728,2,0,P|161:317|202:208,1,173.549992055512,8|0,0:0|0:0,0:0:0:0:
369,199,20062,2,0,P|424:214|392:394,1,258.990006125405,8|0,0:0|0:0,0:0:0:0:
209,365,20395,2,0,P|151:336|244:69,1,400.500015277863,8|0,0:0|0:0,0:0:0:0:
284,73,20729,6,0,L|173:61,1,97.900002987671,2|0,0:0|0:0,0:0:0:0:
362,223,21062,1,10,0:0:0:0:
372,125,21228,1,2,0:0:0:0:
131,225,21396,1,8,0:0:0:0:
363,138,21562,1,2,0:0:0:0:
118,326,21729,1,8,0:0:0:0:
96,230,21895,1,8,0:0:0:0:
327,246,22062,6,0,P|385:284|372:352,1,146.850004481506,6|8,0:0|0:0,0:0:0:0:
139,345,22395,2,0,L|24:336,1,97.900002987671,2|2,0:0|0:1,0:0:0:0:
297,141,22728,2,0,L|412:132,1,97.900002987671,2|8,0:0|0:0,0:0:0:0:
257,115,23061,1,2,0:0:0:0:
121,95,23228,1,8,0:0:0:0:
447,357,23395,6,0,L|456:152,1,195.800005975342,6|2,0:0|0:0,0:0:0:0:
341,198,23895,2,0,L|422:216,1,48.9500014938355,8|0,0:0|0:0,0:0:0:0:
216,86,24061,2,0,L|102:113,1,97.900002987671,8|8,0:0|0:0,0:0:0:0:
270,276,24395,2,0,L|223:286,1,48.9500014938355,8|8,0:0|0:0,0:0:0:0:
26,139,24561,2,0,L|74:129,1,48.9500014938355,8|8,0:0|0:0,0:0:0:0:
270,259,24728,6,0,L|115:292,1,146.850004481506,4|8,0:1|0:0,0:0:0:0:
210,254,25062,2,0,B|278:181|278:181|247:128,1,146.850004481506,2|8,0:0|0:0,0:0:0:0:
78,53,25395,2,0,L|200:75,1,97.900002987671,2|8,0:0|0:0,0:0:0:0:
33,146,25728,1,2,0:0:0:0:
146,236,25895,1,8,0:0:0:0:
87,233,25978,1,0,0:0:0:0:
240,338,26062,1,6,0:0:0:0:
337,183,26228,5,8,0:0:0:0:
281,175,26312,1,0,0:0:0:0:
226,168,26395,2,0,B|128:159|128:159|209:149,1,146.850004481506,8|0,0:0|0:0,0:0:0:0:
393,290,26728,1,8,0:0:0:0:
409,287,26895,2,0,P|453:287|519:303,2,97.900002987671,2|8|2,0:0|0:0|0:0,0:0:0:0:
170,319,27395,6,0,P|119:276|183:224,1,146.850004481506,6|2,0:0|0:1,0:0:0:0:
260,225,27728,2,0,L|108:208,1,146.850004481506,8|8,0:0|0:0,0:0:0:0:
304,153,28061,2,0,P|356:109|309:56,1,146.850004481506,8|0,0:0|0:0,0:0:0:0:
216,43,28395,2,0,L|370:37,1,146.850004481506,2|0,0:0|0:0,0:0:0:0:
169,0,28728,6,0,L|161:156,1,146.850004481506,6|0,0:0|0:0,0:0:0:0:
251,141,29061,2,0,L|246:189,1,48.9500014938355,2|2,0:0|0:0,0:0:0:0:
156,285,29228,2,0,L|203:297,1,48.9500014938355,2|2,0:0|0:0,0:0:0:0:
404,374,29395,5,2,0:0:0:0:
467,378,29478,1,8,0:0:0:0:
381,363,29561,1,2,0:1:0:0:
335,323,29644,1,2,0:1:0:0:
310,273,29728,1,2,0:1:0:0:
310,221,29811,1,2,0:1:0:0:
331,170,29894,1,2,0:1:0:0:
375,138,29978,1,2,0:1:0:0:
208,37,30062,6,0,P|120:61|70:138,1,178,4|0,0:0|0:0,0:0:0:0:
224,189,30562,2,0,P|161:271|84:289,1,178
404,260,31062,6,0,L|85:303,1,311.500002970696,4|0,0:0|0:0,0:0:0:0:
244,115,31617,2,0,P|151:155|138:221,1,148.333333333333,4|0,0:0|0:0,0:0:0:0:
293,328,32062,6,0,P|307:276|313:211,1,89,2|4,0:1|0:0,0:0:0:0:
75,225,32396,1,8,0:0:0:0:
103,277,32479,1,8,0:0:0:0:
145,319,32562,1,8,0:0:0:0:
197,347,32645,1,8,0:0:0:0:
468,99,32728,6,0,B|413:89|413:89|402:79|402:79|327:67,1,133.5,6|8,0:1|0:0,0:0:0:0:
243,199,33228,2,0,L|338:178,1,89,2|8,0:0|0:0,0:0:0:0:
181,171,33478,1,0,0:0:0:0:
224,161,33561,1,2,0:0:0:0:
110,329,33728,5,4,0:0:0:0:
312,221,33978,1,8,0:0:0:0:
71,188,34228,1,2,0:0:0:0:
312,354,34394,1,8,0:0:0:0:
239,339,34477,1,8,0:0:0:0:
166,322,34560,1,8,0:0:0:0:
92,306,34644,1,2,0:0:0:0:
299,229,34728,6,0,L|273:390,1,133.5,6|2,0:0|0:0,0:0:0:0:
457,190,35228,1,2,0:0:0:0:
317,137,35394,1,2,0:0:0:0:
408,91,35561,1,8,0:0:0:0:
147,20,35728,6,0,L|81:36,2,44.5,2|8|2,0:0|0:0|0:0,0:0:0:0:
419,10,36061,1,8,0:0:0:0:
371,31,36144,1,0,0:0:0:0:
329,60,36228,1,2,0:0:0:0:
294,96,36311,1,0,0:0:0:0:
266,138,36394,1,8,0:0:0:0:
249,185,36477,1,0,0:0:0:0:
241,236,36561,1,8,0:0:0:0:
243,286,36644,1,8,0:0:0:0:
450,42,36727,6,0,L|311:13,2,133.5,6|0|2,0:0|0:0|0:0,0:0:0:0:
299,153,37394,2,0,L|305:221,1,44.5,8|0,0:0|0:0,0:0:0:0:
401,187,37561,2,0,L|367:237,1,44.5
172,107,37727,6,0,L|311:78,2,133.5,2|8|2,0:0|0:0|0:0,0:0:0:0:
323,218,38394,2,0,L|385:237,1,44.5,8|0,0:0|0:0,0:0:0:0:
192,324,38561,2,0,L|128:339,1,44.5,8|8,0:0|0:0,0:0:0:0:
377,368,38727,5,6,0:0:0:0:
248,52,38977,2,0,L|307:38,1,44.5,8|8,0:0|0:0,0:0:0:0:
423,117,39227,1,2,0:0:0:0:
121,205,39394,1,8,0:0:0:0:
137,73,39561,1,2,0:0:0:0:
414,331,39727,6,0,L|423:262,1,44.5,6|0,0:0|0:0,0:0:0:0:
262,278,39894,2,0,L|162:299,1,89,0|2,0:0|0:0,0:0:0:0:
321,324,40227,1,2,0:0:0:0:
328,200,40394,1,2,0:0:0:0:
67,308,40727,6,0,L|225:328,1,133.5,4|0,0:0|0:0,0:0:0:0:
97,198,41061,2,0,L|-16:216,2,89,2|4|8,0:0|0:0|0:0,0:0:0:0:
148,204,41477,1,0,0:0:0:0:
96,197,41560,1,2,0:0:0:0:
321,355,41727,5,4,0:0:0:0:
316,319,41810,1,0,0:0:0:0:
256,316,41893,1,8,0:0:0:0:
195,309,41977,1,0,0:0:0:0:
190,275,42060,1,2,0:0:0:0:
319,149,42227,1,4,0:0:0:0:
69,85,42394,2,0,L|12:92,1,44.5,8|0,0:0|0:0,0:0:0:0:
69,85,42561,1,2,0:0:0:0:
393,304,42727,6,0,L|212:331,1,160.199995111084,4|0,0:0|0:0,0:0:0:0:
407,215,43061,2,0,L|469:205,2,44.5,2|0|8,0:0|0:0|0:0,0:0:0:0:
279,120,43394,1,8,0:0:0:0:
332,131,43477,1,0,0:0:0:0:
387,136,43561,1,2,0:0:0:0:
142,257,43727,6,0,L|78:249,1,44.5,4|0,0:0|0:0,0:0:0:0:
344,293,43894,2,0,L|408:285,1,44.5,2|0,0:0|0:0,0:0:0:0:
147,137,44061,1,2,0:0:0:0:
82,152,44144,1,8,0:0:0:0:
147,137,44227,1,2,0:0:0:0:
455,39,44394,2,0,L|469:138,1,89,8|2,0:0|0:0,0:0:0:0:
200,53,44728,5,6,0:0:0:0:
167,113,44811,1,0,0:0:0:0:
183,176,44894,1,0,0:0:0:0:
229,208,44978,1,2,1:0:0:0:
293,211,45061,1,4,0:0:0:0:
110,347,45144,1,2,1:0:0:0:
70,295,45227,1,8,0:0:0:0:
146,270,45310,1,8,0:0:0:0:
182,215,45394,1,2,1:0:0:0:
107,186,45477,1,4,0:0:0:0:
312,53,45561,5,8,0:0:0:0:
345,113,45644,1,4,0:0:0:0:
329,176,45727,1,2,0:1:0:0:
285,215,45811,1,2,1:0:0:0:
222,230,45894,1,2,0:0:0:0:
374,363,45977,1,8,0:0:0:0:
414,311,46060,1,2,1:0:0:0:
338,281,46143,1,2,0:0:0:0:
302,225,46227,1,2,1:0:0:0:
377,193,46310,1,2,0:0:0:0:
233,326,46394,5,6,0:0:0:0:
192,269,46477,1,0,0:0:0:0:
200,195,46560,1,0,0:0:0:0:
250,141,46644,1,2,1:0:0:0:
329,138,46727,1,2,0:0:0:0:
145,38,46810,1,2,1:0:0:0:
92,84,46893,1,0,0:0:0:0:
80,150,46978,1,2,1:0:0:0:
112,203,47060,1,2,1:0:0:0:
186,217,47143,1,2,0:0:0:0:
361,340,47227,5,8,0:0:0:0:
402,289,47310,1,0,0:0:0:0:
404,223,47393,1,0,0:0:0:0:
367,169,47477,1,2,1:0:0:0:
305,148,47560,1,2,0:0:0:0:
388,14,47643,1,2,1:0:0:0:
329,35,47728,1,2,0:0:0:0:
271,50,47811,1,8,0:0:0:0:
327,64,47893,1,8,0:0:0:0:
386,78,47978,1,2,0:0:0:0:
215,144,48060,5,6,0:0:0:0:
198,199,48143,1,0,0:0:0:0:
226,248,48226,1,0,0:0:0:0:
284,264,48310,1,2,1:0:0:0:
108,325,48393,1,2,0:0:0:0:
160,332,48476,1,2,1:0:0:0:
341,346,48560,1,8,0:0:0:0:
179,254,48643,1,8,0:0:0:0:
124,244,48726,1,2,1:0:0:0:
179,254,48809,1,2,0:0:0:0:
326,86,48893,5,8,0:0:0:0:
387,124,48976,1,4,0:0:0:0:
404,194,49059,1,2,0:1:0:0:
371,256,49143,1,2,1:0:0:0:
177,333,49226,1,2,0:0:0:0:
125,304,49309,1,8,0:0:0:0:
308,288,49393,1,2,1:0:0:0:
313,247,49476,1,2,0:0:0:0:
112,207,49559,1,2,1:0:0:0:
162,181,49642,1,2,0:0:0:0:
349,147,49727,6,0,P|403:93|367:39,1,133.5,6|2,0:0|1:0,0:0:0:0:
298,54,50060,1,2,0:0:0:0:
280,102,50143,1,2,1:0:0:0:
301,158,50227,1,0,0:0:0:0:
347,185,50310,1,2,1:0:0:0:
399,190,50393,1,2,1:0:0:0:
94,199,50560,6,0,L|157:208,1,53.3999983703614,8|0,0:0|0:0,0:0:0:0:
349,337,50727,2,0,L|412:346,1,53.3999983703614,8|0,0:0|0:0,0:0:0:0:
161,191,50893,1,2,0:0:0:0:
104,184,50976,1,2,1:0:0:0:
161,191,51059,1,2,0:0:0:0:
363,324,51143,1,2,0:0:0:0:
420,331,51226,1,8,0:0:0:0:
363,324,51309,1,2,0:0:0:0:
99,349,51400,6,0,L|24:249,2,89,6|8|8,0:0|0:0|0:0,0:0:0:0:
234,67,51900,2,0,L|391:59,2,133.500005092621,6|8|8,0:0|0:0|0:0,0:0:0:0:
405,39,52400,6,0,L|468:121,2,89,6|8|8,0:0|0:0|0:0,0:0:0:0:
238,303,52900,2,0,L|402:303,1,133.500005092621,6|8,0:0|0:0,0:0:0:0:
283,206,53150,1,0,0:0:0:0:
195,214,53233,1,8,0:0:0:0:
493,363,53400,1,6,0:0:0:0:
139,369,54483,6,0,L|135:261,1,89,6|0,0:0|0:0,0:0:0:0:
135,281,54733,1,6,0:0:0:0:
359,257,54900,5,2,0:1:0:0:
235,270,55066,1,0,0:0:0:0:
407,167,55149,6,0,L|318:158,1,89,2|0,0:1|0:0,0:0:0:0:
141,110,55399,2,0,L|229:119,1,89,2|0,0:1|0:0,0:0:0:0:
448,201,55649,2,0,L|442:104,1,89,6|0,0:0|0:0,0:0:0:0:
251,383,55899,5,6,0:0:0:0:
49,354,56441,2,0,P|101:333|43:286,1,155.75,8|0,0:0|0:0,0:0:0:0:
392,58,56900,5,6,0:1:0:0:
257,106,57066,1,8,0:0:0:0:
290,128,57149,1,0,0:0:0:0:
362,135,57232,1,8,0:0:0:0:
438,188,57400,1,2,0:0:0:0:
397,256,57483,1,8,0:0:0:0:
326,287,57566,1,8,0:0:0:0:
397,266,57650,1,2,0:0:0:0:
438,196,57733,1,8,0:0:0:0:
119,300,57900,6,0,P|75:259|146:154,1,208.260000794449,2|8,0:0|0:0,0:0:0:0:
211,190,58315,1,8,0:0:0:0:
141,154,58399,1,8,0:0:0:0:
179,91,58482,1,8,0:0:0:0:
238,54,58565,1,2,0:0:0:0:
150,334,58650,1,0,0:0:0:0:
91,297,58733,1,2,0:1:0:0:
53,234,58816,1,2,0:1:0:0:
295,350,58899,6,0,L|474:383,1,156.195000595837,6|0,0:0|0:0,0:0:0:0:
289,195,59232,2,0,L|181:211,1,104.130000397224,8|2,0:0|0:1,0:0:0:0:
291,37,59565,1,2,0:0:0:0:
415,239,59732,2,0,L|349:255,1,52.0650001986122,2|2,0:0|0:0,0:0:0:0:
167,48,59899,6,0,P|122:100|212:194,1,208.260000794449,12|2,0:0|0:1,0:0:0:0:
356,328,60399,2,0,L|362:218,1,104.130000397224,8|2,0:0|0:1,0:0:0:0:
211,268,60733,1,2,0:0:0:0:
354,313,60816,1,2,0:0:0:0:
204,343,60899,6,0,P|115:250|179:183,1,208.260000794449,12|8,0:0|0:0,0:0:0:0:
311,213,61399,1,2,0:0:0:0:
148,297,61566,1,2,0:0:0:0:
199,305,61649,1,2,0:0:0:0:
310,191,61732,6,0,L|445:214,2,102.350001952171,12|2|8,0:0|0:0|0:0,0:0:0:0:
451,45,62232,1,2,0:0:0:0:
300,283,62399,1,2,0:0:0:0:
234,239,62482,1,2,0:0:0:0:
320,207,62565,6,0,P|372:166|350:82,1,156.195000595837,6|8,0:0|0:0,0:0:0:0:
167,303,63065,2,0,P|202:327|269:342,1,104.130000397224,2|2,0:0|0:0,0:0:0:0:
135,354,63398,1,2,0:0:0:0:
297,312,63482,1,2,0:1:0:0:
122,48,63565,6,0,P|42:104|96:193,1,208.260000794449,6|2,0:0|0:0,0:0:0:0:
200,249,64065,2,0,L|259:264,1,52.0650001986122,8|8,0:0|0:0,0:0:0:0:
237,207,64231,1,2,0:1:0:0:
74,274,64398,1,6,0:0:0:0:
320,153,64565,6,0,L|312:215,1,52.0650001986122,8|2,0:0|0:3,0:0:0:0:
267,144,64731,2,0,L|259:206,1,52.0650001986122,2|8,0:0|0:0,0:0:0:0:
360,158,64898,2,0,L|352:220,1,52.0650001986122,2|2,0:3|0:3,0:0:0:0:
307,153,65065,2,0,L|299:215,1,52.0650001986122,2|2,0:3|0:3,0:0:0:0:
398,341,65231,1,2,0:3:0:0:
440,311,65314,1,2,0:3:0:0:
447,278,65397,1,2,0:3:0:0:
164,41,65565,6,0,P|277:296|229:16,1,818.800015617371,4|0,0:1|0:0,0:0:0:0:
147,43,67065,1,8,0:0:0:0:
109,143,67231,1,2,0:0:0:0:
142,230,67397,1,2,0:0:0:0:
402,275,67731,1,6,0:0:0:0:
288,332,67897,1,0,0:0:0:0:
446,242,68064,1,0,0:0:0:0:
61,240,68231,6,0,L|73:180,1,44.5,12|2,0:0|0:0,0:0:0:0:
359,143,68481,2,0,L|372:86,1,44.5,2|2,0:1|0:0,0:0:0:0:
61,240,68731,2,0,L|72:181,1,44.5,2|8,0:0|0:0,0:0:0:0:
359,143,68981,2,0,L|370:91,1,44.5,2|8,0:1|0:0,0:0:0:0:
51,323,69231,6,0,L|-10:309,1,44.5,2|0,0:0|0:0,0:0:0:0:
187,369,69398,1,8,0:0:0:0:
236,356,69481,1,8,0:0:0:0:
394,322,69564,1,2,0:0:0:0:
429,296,69647,1,2,0:1:0:0:
431,257,69731,1,2,0:1:0:0:
389,232,69814,1,2,0:1:0:0:
117,170,69898,2,0,L|61:182,1,44.5,2|2,0:1|0:1,0:0:0:0:
240,214,70065,1,2,0:1:0:0:
286,223,70148,1,2,0:1:0:0:
444,105,70231,5,8,0:0:0:0:
326,106,70398,1,2,0:0:0:0:
370,111,70481,1,2,0:0:0:0:
406,137,70564,1,8,0:0:0:0:
423,178,70647,1,2,0:0:0:0:
418,221,70731,1,8,0:0:0:0:
392,257,70814,1,2,0:0:0:0:
222,337,70898,6,0,L|363:353,1,133.5,6|2,0:1|0:0,0:0:0:0:
180,131,71231,2,0,L|39:149,1,133.5,8|0,0:0|0:0,0:0:0:0:
243,260,71564,1,8,0:0:0:0:
128,278,71730,1,2,0:0:0:0:
275,145,71898,1,8,0:0:0:0:
160,127,72064,1,0,0:0:0:0:
431,59,72231,6,0,L|246:80,1,178,6|8,0:0|0:0,0:0:0:0:
393,194,72814,2,0,L|374:143,1,44.5,2|8,0:0|0:0,0:0:0:0:
202,219,73064,1,2,0:0:0:0:
357,306,73231,2,0,L|373:173,1,133.5,8|0,0:0|0:0,0:0:0:0:
141,184,73564,6,0,L|288:213,1,133.5,6|2,0:0|0:0,0:0:0:0:
438,243,73898,1,8,0:0:0:0:
206,35,74148,2,0,L|221:90,1,44.5,0|8,0:0|0:0,0:0:0:0:
351,84,74398,1,2,0:0:0:0:
176,159,74564,1,2,0:0:0:0:
433,274,74730,1,8,0:0:0:0:
127,339,74898,6,0,L|276:360,1,133.5,6|2,0:0|0:0,0:0:0:0:
178,325,75231,1,8,0:0:0:0:
334,349,75481,1,2,0:0:0:0:
83,261,75564,2,0,L|72:212,1,44.5,8|0,0:0|0:0,0:0:0:0:
155,200,75731,2,0,L|166:150,1,44.5,2|0,0:0|0:0,0:0:0:0:
324,226,75898,1,8,0:0:0:0:
378,204,75981,1,8,0:0:0:0:
395,152,76064,1,2,0:1:0:0:
357,113,76147,1,2,0:1:0:0:
157,352,76230,6,0,L|146:208,1,133.5,6|2,0:0|0:0,0:0:0:0:
343,354,76564,2,0,B|457:302|457:302|391:292,1,186.899994296265,8|0,0:0|0:0,0:0:0:0:
206,255,76897,1,8,0:0:0:0:
358,365,77063,1,2,0:0:0:0:
134,224,77230,1,8,0:0:0:0:
146,165,77313,1,0,0:0:0:0:
190,122,77398,1,2,1:0:0:0:
252,122,77481,1,0,0:0:0:0:
177,85,77564,5,6,0:0:0:0:
409,306,77814,1,6,0:0:0:0:
200,333,78231,1,8,0:0:0:0:
96,327,78314,1,2,0:0:0:0:
182,69,78564,1,2,0:0:0:0:
216,120,78647,1,2,0:0:0:0:
272,146,78731,1,2,0:1:0:0:
350,153,78814,1,2,0:1:0:0:
169,232,78898,6,0,L|30:232,1,133.5,2|8,0:0|0:0,0:0:0:0:
226,176,79231,2,0,P|274:154|300:78,1,133.5,2|8,0:0|0:0,0:0:0:0:
108,332,79564,2,0,L|261:342,1,133.5,2|8,0:0|0:0,0:0:0:0:
139,40,79897,1,2,0:0:0:0:
92,66,79980,1,2,0:1:0:0:
71,111,80063,1,2,0:1:0:0:
98,154,80148,1,2,0:1:0:0:
271,242,80231,6,0,L|168:226,1,89,2|2,0:1|0:1,0:0:0:0:
187,251,80481,1,0,0:1:0:0:
363,153,80564,2,0,P|405:202|391:264,1,133.5,6|8,0:0|0:0,0:0:0:0:
291,341,80898,2,0,L|386:356,1,89,2|8,0:0|0:0,0:0:0:0:
333,368,81148,1,8,0:0:0:0:
132,360,81231,1,2,0:0:0:0:
60,325,81314,1,0,0:0:0:0:
31,254,81398,1,2,0:0:0:0:
59,179,81480,1,0,0:0:0:0:
267,144,81564,5,8,0:0:0:0:
231,101,81648,1,2,0:1:0:0:
160,123,81731,1,8,0:0:0:0:
305,128,81898,2,0,L|381:115,1,53.3999983703614,2|2,0:0|0:0,0:0:0:0:
160,300,82064,2,0,L|87:317,1,53.3999983703614,2|2,0:1|0:1,0:0:0:0:
320,360,82231,5,6,0:0:0:0:
372,349,82314,1,2,0:1:0:0:
415,318,82397,1,8,0:0:0:0:
442,272,82480,1,2,0:1:0:0:
447,219,82564,1,8,0:0:0:0:
429,169,82647,1,2,0:1:0:0:
211,74,82731,2,0,L|226:142,1,53.3999983703614,2|2,0:0|0:1,0:0:0:0:
375,267,82898,2,0,L|390:199,1,53.3999983703614,8|2,0:0|0:1,0:0:0:0:
473,198,83064,2,0,L|458:266,1,53.3999983703614,8|2,0:0|0:1,0:0:0:0:
192,24,83231,5,2,0:0:0:0:
140,35,83314,1,2,0:1:0:0:
97,66,83397,1,8,0:0:0:0:
70,112,83480,1,2,0:1:0:0:
65,165,83564,1,8,0:0:0:0:
83,215,83647,1,2,0:1:0:0:
272,328,83731,2,0,L|335:326,1,53.3999983703614,2|2,0:0|0:1,0:0:0:0:
154,122,83897,2,0,L|135:187,1,53.3999983703614,8|2,0:0|0:1,0:0:0:0:
48,181,84063,2,0,L|72:247,1,53.3999983703614,8|2,0:0|0:1,0:0:0:0:
305,255,84230,5,6,0:0:0:0:
349,229,84313,1,2,0:1:0:0:
357,178,84396,1,8,0:0:0:0:
322,141,84481,1,2,0:1:0:0:
247,150,84563,1,10,0:0:0:0:
220,193,84646,1,2,0:1:0:0:
396,21,84731,2,0,L|465:28,1,53.3999983703614,6|2,0:0|0:1,0:0:0:0:
356,133,84898,2,0,L|287:140,1,53.3999983703614,10|2,0:0|0:1,0:0:0:0:
392,239,85064,2,0,L|461:246,1,53.3999983703614,8|2,0:0|0:1,0:0:0:0:
220,60,85230,5,2,0:0:0:0:
175,85,85313,1,2,0:1:0:0:
167,136,85396,1,8,0:0:0:0:
202,173,85481,1,2,0:1:0:0:
290,177,85563,1,8,0:0:0:0:
263,134,85646,1,2,0:1:0:0:
80,361,85731,1,2,0:0:0:0:
20,325,85814,1,2,0:1:0:0:
9,255,85897,1,8,0:0:0:0:
57,205,85982,1,2,0:1:0:0:
128,212,86064,1,8,0:0:0:0:
165,270,86147,1,2,0:1:0:0:
385,251,86230,6,0,L|414:309,1,53.3999983703614,6|2,0:0|0:1,0:0:0:0:
252,320,86397,2,0,L|183:327,1,53.3999983703614,8|2,0:0|0:1,0:0:0:0:
252,320,86563,2,0,L|321:327,1,53.3999983703614,8|2,0:0|0:1,0:0:0:0:
127,251,86730,2,0,L|58:258,1,53.3999983703614,6|2,0:0|0:1,0:0:0:0:
260,320,86897,2,0,L|329:327,1,53.3999983703614,8|2,0:0|0:1,0:0:0:0:
260,320,87063,2,0,L|191:327,1,53.3999983703614,8|2,0:0|0:1,0:0:0:0:
413,66,87230,5,6,0:0:0:0:
346,87,87313,1,2,0:1:0:0:
280,107,87396,1,8,0:0:0:0:
291,173,87481,1,2,0:1:0:0:
377,201,87587,1,8,0:0:0:0:
361,197,87670,1,2,0:1:0:0:
192,33,87732,5,6,0:0:0:0:
139,47,87795,1,2,0:1:0:0:
258,75,87940,1,8,0:0:0:0:
304,96,87995,1,2,0:1:0:0:
258,75,88051,1,2,0:1:0:0:
112,206,88106,1,8,0:0:0:0:
164,210,88190,1,2,0:1:0:0:
374,354,88255,6,0,L|491:343,1,106.799996740723,6|0,0:0|0:0,0:0:0:0:
270,223,88480,2,0,L|153:234,1,106.799996740723,6|0,0:0|0:0,0:0:0:0:
459,328,88730,2,0,L|337:340,1,106.799996740723,6|6,0:0|0:0,0:0:0:0:
121,329,89230,6,0,L|238:340,1,106.799996740723,6|0,0:0|0:0,0:0:0:0:
475,164,89480,2,0,L|358:175,1,106.799996740723,6|0,0:0|0:0,0:0:0:0:
141,45,89730,2,0,P|59:114|195:233,1,320.399990222168,6|2,0:0|0:3,0:0:0:0:
