osu file format v14

[General]
AudioFilename: audio.mp3
AudioLeadIn: 0
PreviewTime: 55995
Countdown: 0
SampleSet: Soft
StackLeniency: 0.7
Mode: 2
LetterboxInBreaks: 0
WidescreenStoryboard: 1

[Editor]
DistanceSpacing: 1.1
BeatDivisor: 4
GridSize: 16
TimelineZoom: 6.059997

[Metadata]
Title:asura
TitleUnicode:asura
Artist:Co shu Nie
ArtistUnicode:Cö shu Nie
Creator:skill issue lol
Version:salad
Source:
Tags:fayew baron alienflybot autofanboy afb ymiir fii -wwwww アスラ rock alternative experimental Aurora EP japanese pop Miku Nakamura コシュニエ 中村未来 Shunsuke Matsumoto 松本駿介 Ryosuke Fujita 藤田亮介 j-pop jpop j-rock jrock math
BeatmapID:2388578
BeatmapSetID:1101376

[Difficulty]
HPDrainRate:4
CircleSize:3
OverallDifficulty:7
ApproachRate:7
SliderMultiplier:1.4
SliderTickRate:1

[Events]
//Background and Video events
0,0,"asura.jpg",0,0
//Break Periods
//Storyboard Layer 0 (Background)
//Storyboard Layer 1 (Fail)
//Storyboard Layer 2 (Pass)
//Storyboard Layer 3 (Foreground)
//Storyboard Layer 4 (Overlay)
//Storyboard Sound Samples

[TimingPoints]
399,333.333333333333,4,2,2,50,1,0
3065,-100,4,2,2,50,0,0
4398,333.333333333333,5,2,2,50,1,0
6065,333.333333333333,3,2,2,50,1,0
10064,333.333333333333,5,2,2,50,1,0
11730,333.333333333333,3,2,2,50,1,0
12729,333.333333333333,4,2,2,50,1,0
14062,333.333333333333,4,2,2,50,1,1
14062,-90.9090909090909,4,2,2,50,0,1
30061,-100,4,2,2,50,0,0
32728,333.333333333333,3,2,2,50,1,0
44727,416.666666666667,4,2,2,50,1,0
44727,-72.463768115942,4,2,2,50,0,0
51400,333.333333333333,3,2,2,50,1,0
53400,333.333333333333,5,2,2,50,1,0
54900,333.333333333333,3,2,2,50,1,0
56400,-66.6666666666667,3,2,2,50,0,0
56816,-66.6666666666667,3,2,2,5,0,0
56900,333.333333333333,3,2,2,50,1,1
56900,-83.3333333333333,3,2,2,50,0,1
60899,333.333333333333,5,2,2,50,1,0
60899,-83.3333333333333,5,2,2,50,0,1
62565,333.333333333333,3,2,2,50,1,0
62565,-83.3333333333333,3,2,2,50,0,1
64565,-100,3,2,2,50,0,0
65565,333.333333333333,4,1,0,50,1,0
67731,-40,3,2,2,50,0,0
68231,-90.9090909090909,3,2,2,50,0,1
70565,-100,3,2,2,50,0,0
70898,-83.3333333333333,4,2,2,50,0,1
77898,-83.3333333333333,3,2,2,50,0,1
78898,333.333333333333,5,2,2,50,1,0
82231,333.333333333333,3,2,2,50,1,0
82231,-83.3333333333333,3,2,2,50,0,0
87587,333.333333333333,3,2,2,50,1,0
87940,333.333333333333,3,2,2,50,1,0
88255,333.333333333333,3,2,2,50,1,0
88255,-83.3333333333333,3,2,2,50,0,0
88480,333.333333333333,4,2,2,50,1,0
88480,-83.3333333333333,4,2,2,50,0,0
89729,-66.6666666666667,3,2,2,50,0,0

[Colours]
Combo1 : 130,238,254
Combo2 : 246,138,146
Combo3 : 141,164,242
Combo4 : 238,221,146

[HitObjects]
226,203,3065,5,8,0:0:0:0:
102,181,3315,2,0,L|13:175,1,70,8|2,0:0|0:1,0:0:0:0:
380,42,3898,6,0,L|495:36,1,105,8|8,0:0|0:0,0:0:0:0:
360,32,4398,6,0,P|322:58|369:133,1,140,4|8,0:0|0:0,0:0:0:0:
480,160,5065,6,0,L|186:172,1,280,4|8,0:0|0:3,0:0:0:0:
480,352,6065,6,0,L|487:212,1,140,6|8,0:0|0:0,0:0:0:0:
307,124,6731,1,4,0:0:0:0:
51,45,7064,1,2,0:1:0:0:
165,111,7398,1,4,0:0:0:0:
96,117,7564,1,2,0:1:0:0:
27,122,7731,1,8,0:0:0:0:
345,300,8064,6,0,P|404:269|320:126,1,280,6|2,0:0|0:0,0:0:0:0:
154,148,9064,2,0,L|375:147,1,210,2|2,0:1|0:0,0:0:0:0:
16,32,10064,6,0,P|16:97|137:187,1,210,6|8,0:0|0:0,0:0:0:0:
266,244,10897,2,0,L|488:240,1,210,12|2,0:0|0:0,0:0:0:0:
169,59,11730,6,0,P|117:158|187:200,1,210,4|2,0:0|0:0,0:0:0:0:
411,55,12729,2,0,L|271:55,1,140,6|2,0:0|0:0,0:0:0:0:
97,168,13562,2,0,P|54:140|112:80,1,140,6|2,0:0|0:3,0:0:0:0:
273,81,14062,6,0,L|426:77,1,154.000004699707,4|8,0:1|0:0,0:0:0:0:
266,219,14728,2,0,L|112:217,1,154.000004699707,2|8,0:0|0:0,0:0:0:0:
432,43,15395,5,6,0:0:0:0:
429,54,15561,1,8,0:0:0:0:
330,120,15728,1,8,0:0:0:0:
268,121,15895,2,0,L|439:120,1,154.000004699707,2|2,0:0|0:0,0:0:0:0:
78,39,16728,6,0,L|308:39,1,231.000007049561,2|8,0:1|0:0,0:0:0:0:
446,103,17562,2,0,L|369:94,1,77.0000023498536,8|8,0:0|0:0,0:0:0:0:
117,68,18062,6,0,P|61:125|130:175,1,154.000004699707,2|8,0:1|0:0,0:0:0:0:
195,260,18562,2,0,L|41:265,1,154.000004699707,8|2,0:0|0:1,0:0:0:0:
41,199,19062,2,0,L|146:200,1,77.0000023498536,8|8,0:0|0:0,0:0:0:0:
296,109,19395,6,0,L|478:98,3,154.000004699707,4|8|8|8,0:1|0:0|0:0|0:0,0:0:0:0:
188,171,20728,6,0,P|146:102|197:53,1,154.000004699707,2|10,0:0|0:0,0:0:0:0:
338,74,21395,2,0,L|183:67,1,154.000004699707,8|8,0:0|0:0,0:0:0:0:
435,125,22062,6,0,P|460:239|402:345,1,231.000007049561,6|2,0:0|0:1,0:0:0:0:
328,350,22728,2,0,L|499:338,1,154.000004699707,2|2,0:0|0:0,0:0:0:0:
236,318,23395,6,0,P|183:289|231:151,1,231.000007049561,6|8,0:0|0:0,0:0:0:0:
304,269,24062,1,8,0:0:0:0:
377,262,24228,1,8,0:0:0:0:
377,262,24395,1,8,0:0:0:0:
304,269,24562,1,8,0:0:0:0:
121,267,24728,6,0,L|88:82,1,154.000004699707,4|2,0:1|0:0,0:0:0:0:
237,90,25395,2,0,L|81:88,1,154.000004699707,2|2,0:0|0:0,0:0:0:0:
361,189,26062,5,6,0:0:0:0:
419,235,26228,1,8,0:0:0:0:
392,304,26395,1,8,0:0:0:0:
313,307,26562,2,0,L|149:308,1,154.000004699707,2|2,0:0|0:0,0:0:0:0:
508,111,27395,6,0,L|481:263,1,154.000004699707,6|8,0:0|0:0,0:0:0:0:
334,190,28062,2,0,L|298:6,1,154.000004699707,8|2,0:0|0:0,0:0:0:0:
157,191,28728,6,0,L|493:191,1,308.000009399414,6|2,0:0|0:0,0:0:0:0:
16,192,30062,6,0,P|50:73|129:41,1,210,4|0,0:0|0:0,0:0:0:0:
311,57,31062,2,0,B|181:117|181:117|116:37,1,233.333333333333,4|4,0:0|0:0,0:0:0:0:
311,57,32062,2,0,L|391:57,1,70,2|4,0:1|0:0,0:0:0:0:
444,49,32395,2,0,L|444:97,1,35,8|8,0:0|0:0,0:0:0:0:
405,88,32562,1,8,0:0:0:0:
240,28,32728,6,0,L|122:22,1,105,6|8,0:1|0:0,0:0:0:0:
53,115,33228,2,0,L|122:115,1,70,2|8,0:0|0:0,0:0:0:0:
390,166,33728,2,0,L|513:169,2,105,4|8|2,0:0|0:0|0:0,0:0:0:0:
306,227,34394,2,0,L|223:227,1,70,8|8,0:0|0:0,0:0:0:0:
405,152,34728,6,0,L|396:282,1,105,6|2,0:0|0:0,0:0:0:0:
309,279,35228,1,2,0:0:0:0:
226,259,35394,2,0,L|149:259,1,70,2|8,0:0|0:0,0:0:0:0:
326,270,35728,2,0,P|417:213|346:72,1,280,2|8,0:0|0:0,0:0:0:0:
48,240,36727,5,6,0:0:0:0:
48,160,36893,1,8,0:0:0:0:
121,127,37060,1,8,0:0:0:0:
48,96,37227,2,0,L|48:16,1,70,2|8,0:0|0:0,0:0:0:0:
320,48,37727,6,0,P|396:122|324:180,1,210,2|2,0:0|0:0,0:0:0:0:
256,208,38394,2,0,L|336:240,1,70,8|8,0:0|0:0,0:0:0:0:
160,336,38727,5,6,0:0:0:0:
46,290,39061,1,8,0:0:0:0:
9,235,39227,1,2,0:0:0:0:
42,177,39394,1,8,0:0:0:0:
106,154,39561,1,2,0:0:0:0:
266,161,39727,6,0,P|241:55|139:43,1,210,6|2,0:0|0:0,0:0:0:0:
483,19,40727,6,0,L|472:170,1,140,4|2,0:0|0:0,0:0:0:0:
367,165,41227,2,0,L|378:316,1,140,4|2,0:0|0:0,0:0:0:0:
473,158,41727,2,0,P|468:255|371:305,1,210,4|4,0:0|0:0,0:0:0:0:
290,302,42394,1,8,0:0:0:0:
32,32,42727,5,4,0:0:0:0:
32,96,42893,1,8,0:0:0:0:
102,156,43060,1,2,0:0:0:0:
188,163,43227,1,8,0:0:0:0:
272,140,43393,1,8,0:0:0:0:
16,320,43727,1,4,0:0:0:0:
18,244,43893,1,2,0:0:0:0:
80,191,44060,1,2,0:0:0:0:
163,170,44227,2,0,L|77:157,1,70,2|8,0:0|0:0,0:0:0:0:
421,273,44727,6,0,P|469:239|389:113,1,231.84000035376,6|8,0:0|0:0,0:0:0:0:
263,116,45477,2,0,P|368:206|457:108,1,270.48000041272,4|2,0:0|1:0,0:0:0:0:
180,38,46393,6,0,P|103:90|213:233,1,309.12000047168,6|2,0:0|1:0,0:0:0:0:
291,217,47227,2,0,B|47:189,1,231.84000035376,8|2,0:0|0:0,0:0:0:0:
348,58,48060,6,0,B|448:92|441:189|375:188|375:188|257:185,1,309.12000047168,6|2,0:0|1:0,0:0:0:0:
172,170,48893,2,0,P|91:219|180:295,1,231.84000035376,8|2,0:0|1:0,0:0:0:0:
439,314,49727,6,0,L|124:303,1,309.12000047168,6|2,0:0|1:0,0:0:0:0:
206,252,50560,1,8,0:0:0:0:
279,201,50727,1,8,0:0:0:0:
163,94,50977,2,0,P|109:140|107:189,1,115.92000017688,2|8,1:0|0:0,0:0:0:0:
268,197,51400,6,0,P|291:254|255:331,1,140,6|8,0:0|0:0,0:0:0:0:
178,345,51900,2,0,L|39:357,1,140,6|8,0:0|0:0,0:0:0:0:
189,302,52400,5,6,0:0:0:0:
249,269,52566,1,8,0:0:0:0:
267,203,52733,1,8,0:0:0:0:
179,144,52899,1,6,0:0:0:0:
116,83,53066,2,0,L|100:35,2,35,8|0|8,0:0|0:0|0:0,0:0:0:0:
299,50,53400,5,6,0:0:0:0:
458,112,54483,5,6,0:0:0:0:
375,174,54733,1,6,0:0:0:0:
458,112,54900,1,2,0:1:0:0:
487,176,55150,1,2,0:1:0:0:
450,246,55400,1,2,0:1:0:0:
270,275,55650,1,6,0:0:0:0:
450,356,55900,1,6,0:0:0:0:
217,368,56441,2,0,L|97:209,1,183.750007009506,8|0,0:0|0:0,0:0:0:0:
284,200,56900,6,0,L|379:122,2,83.9999974365235,6|8|8,0:1|0:0|0:0,0:0:0:0:
192,208,57400,2,0,P|156:142|219:79,1,167.999994873047,2|8,0:0|0:0,0:0:0:0:
394,64,57900,6,0,P|459:124|385:142,1,167.999994873047,2|8,0:0|0:0,0:0:0:0:
314,176,58400,1,8,0:0:0:0:
410,208,58566,1,2,0:0:0:0:
99,254,58899,6,0,P|55:205|126:112,1,167.999994873047,6|8,0:0|0:0,0:0:0:0:
185,116,59399,2,0,L|75:117,2,83.9999974365235,2|2|2,0:1|0:0|0:0,0:0:0:0:
372,167,59899,5,12,0:0:0:0:
372,167,60233,1,2,0:1:0:0:
443,137,60399,1,8,0:0:0:0:
451,62,60566,1,2,0:1:0:0:
375,35,60732,1,2,0:0:0:0:
190,55,60899,6,0,L|12:66,1,167.999994873047,12|8,0:0|0:0,0:0:0:0:
107,41,61399,2,0,L|199:56,1,83.9999974365235,2|2,0:0|0:0,0:0:0:0:
370,109,61732,6,0,P|349:180|245:217,1,167.999994873047,12|8,0:0|0:0,0:0:0:0:
177,211,62232,1,2,0:0:0:0:
431,228,62565,6,0,P|478:139|376:48,1,251.999992309571,6|2,0:0|0:0,0:0:0:0:
297,70,63231,1,2,0:0:0:0:
22,183,63565,6,0,L|301:183,1,251.999992309571,6|8,0:0|0:0,0:0:0:0:
231,90,64231,1,2,0:1:0:0:
150,42,64398,1,6,0:0:0:0:
318,37,64565,5,8,0:0:0:0:
400,67,64731,1,2,0:0:0:0:
418,99,64815,1,8,0:0:0:0:
424,138,64898,1,2,0:3:0:0:
414,174,64981,1,2,0:3:0:0:
392,206,65065,1,2,0:3:0:0:
303,222,65231,2,0,L|140:224,1,140,2|4,0:3|0:1,0:0:0:0:
256,192,65898,12,6,67731,0:0:0:0:
411,156,68231,5,12,0:0:0:0:
268,145,68565,1,2,0:0:0:0:
372,107,68731,1,2,0:0:0:0:
222,54,69065,2,0,L|55:66,1,154.000004699707,8|8,0:0|0:0,0:0:0:0:
250,146,69565,6,0,P|294:209|271:295,1,154.000004699707,2|2,0:0|0:1,0:0:0:0:
177,322,70064,2,0,L|5:332,2,154.000004699707,2|2|8,0:1|0:0|0:0,0:0:0:0:
371,308,70898,6,0,P|460:219|464:154,2,167.999994873047,6|8|8,0:1|0:0|0:0,0:0:0:0:
208,277,71898,1,8,0:0:0:0:
369,219,72231,6,0,L|394:35,1,167.999994873047,6|8,0:0|0:0,0:0:0:0:
228,60,72898,2,0,L|58:70,1,167.999994873047,8|8,0:0|0:0,0:0:0:0:
371,115,73564,6,0,P|456:219|432:270,1,167.999994873047,6|8,0:0|0:0,0:0:0:0:
317,254,74231,1,8,0:0:0:0:
483,286,74564,1,2,0:0:0:0:
216,324,74898,6,0,P|216:244|312:180,1,167.999994873047,6|8,0:0|0:0,0:0:0:0:
352,166,75398,1,2,0:0:0:0:
246,130,75564,2,0,L|146:139,1,83.9999974365235,8|2,0:0|0:0,0:0:0:0:
210,46,75898,1,8,0:0:0:0:
479,37,76231,6,0,L|463:222,1,167.999994873047,6|8,0:0|0:0,0:0:0:0:
297,219,76898,2,0,L|473:203,1,167.999994873047,8|8,0:0|0:0,0:0:0:0:
170,308,77564,5,6,0:0:0:0:
44,302,77814,2,0,P|104:285|18:79,1,377.999988464356,6|2,0:0|0:0,0:0:0:0:
288,224,78898,6,0,L|454:217,1,140,2|2,0:0|0:0,0:0:0:0:
261,150,79564,2,0,L|106:133,1,140,2|2,0:0|0:0,0:0:0:0:
286,44,80231,1,2,0:1:0:0:
25,37,80564,6,0,L|29:182,1,140,6|2,0:0|0:0,0:0:0:0:
222,217,81231,1,2,0:0:0:0:
276,177,81397,1,2,0:0:0:0:
272,110,81564,1,8,0:0:0:0:
214,77,81731,1,8,0:0:0:0:
122,71,81898,1,2,0:0:0:0:
438,43,82231,6,0,P|485:118|427:137,1,167.999994873047,6|8,0:0|0:0,0:0:0:0:
346,179,82731,1,2,0:0:0:0:
278,240,82897,1,8,0:0:0:0:
318,314,83064,1,8,0:0:0:0:
216,268,83231,5,2,0:0:0:0:
143,202,83397,1,8,0:0:0:0:
179,126,83564,1,8,0:0:0:0:
265,144,83731,1,2,0:0:0:0:
367,102,83897,1,8,0:0:0:0:
334,27,84064,1,8,0:0:0:0:
176,16,84231,6,0,P|190:157|305:215,1,251.999992309571,6|6,0:0|0:0,0:0:0:0:
389,187,85064,1,8,0:0:0:0:
229,133,85231,6,0,L|59:132,1,167.999994873047,2|8,0:0|0:0,0:0:0:0:
155,38,85731,2,0,L|347:37,1,167.999994873047,2|8,0:0|0:0,0:0:0:0:
168,54,86231,5,6,0:0:0:0:
91,118,86397,1,8,0:0:0:0:
111,196,86564,1,8,0:0:0:0:
211,174,86731,1,6,0:0:0:0:
282,235,86897,1,8,0:0:0:0:
228,317,87064,1,8,0:0:0:0:
339,269,87231,5,6,0:0:0:0:
403,207,87397,1,8,0:0:0:0:
339,269,87587,1,8,0:0:0:0:
240,159,87732,1,6,0:0:0:0:
186,91,87940,1,8,0:0:0:0:
240,159,88106,1,8,0:0:0:0:
413,33,88255,5,6,0:0:0:0:
400,158,88480,1,6,0:0:0:0:
248,181,88730,2,0,L|230:276,1,83.9999974365235,6|6,0:0|0:0,0:0:0:0:
496,112,89230,6,0,L|370:109,1,125.999996154785,6|6,0:0|0:0,0:0:0:0:
130,58,89730,2,0,P|28:161|138:220,1,315.000012016297,6|2,0:0|0:3,0:0:0:0:
