osu file format v14

[General]
AudioFilename: audio.mp3
AudioLeadIn: 0
PreviewTime: 55995
Countdown: 0
SampleSet: Normal
StackLeniency: 0.7
Mode: 2
LetterboxInBreaks: 0
WidescreenStoryboard: 1

[Editor]
DistanceSpacing: 1.1
BeatDivisor: 4
GridSize: 16
TimelineZoom: 4.659998

[Metadata]
Title:asura
TitleUnicode:asura
Artist:Co shu Nie
ArtistUnicode:Cö shu Nie
Creator:skill issue lol
Version:rain
Source:
Tags:fayew baron alienflybot autofanboy afb ymiir fii -wwwww アスラ rock alternative experimental Aurora EP japanese pop Miku Nakamura コシュニエ 中村未来 Shunsuke Matsumoto 松本駿介 Ryosuke Fujita 藤田亮介 j-pop jpop j-rock jrock math
BeatmapID:3919590
BeatmapSetID:1101376

[Difficulty]
HPDrainRate:5.5
CircleSize:4
OverallDifficulty:9
ApproachRate:9
SliderMultiplier:1.62
SliderTickRate:1

[Events]
//Background and Video events
0,0,"asura.jpg",0,0
//Break Periods
//Storyboard Layer 0 (Background)
//Storyboard Layer 1 (Fail)
//Storyboard Layer 2 (Pass)
//Storyboard Layer 3 (Foreground)
//Storyboard Layer 4 (Overlay)
//Storyboard Sound Samples

[TimingPoints]
399,333.333333333333,4,2,2,50,1,0
3065,-100,4,2,2,50,0,0
4398,333.333333333333,5,2,2,50,1,0
6065,333.333333333333,3,2,2,50,1,0
10064,333.333333333333,5,2,2,50,1,0
11730,333.333333333333,3,2,2,50,1,0
12729,333.333333333333,4,2,2,50,1,0
14062,333.333333333333,4,2,2,50,1,1
14062,-90.9090909090909,4,2,2,50,0,1
30061,-100,4,2,2,50,0,0
32728,333.333333333333,3,2,2,50,1,0
44727,416.666666666667,4,2,2,50,1,0
44727,-72.463768115942,4,2,2,50,0,0
51400,333.333333333333,3,2,2,50,1,0
53400,333.333333333333,5,2,2,50,1,0
54900,333.333333333333,3,2,2,50,1,0
56400,-66.6666666666667,3,2,2,50,0,0
56733,-66.6666666666667,3,2,2,5,0,0
56816,-66.6666666666667,3,2,2,5,0,0
56900,333.333333333333,3,2,2,50,1,1
56900,-83.3333333333333,3,2,2,50,0,1
60899,333.333333333333,5,2,2,50,1,0
60899,-83.3333333333333,5,2,2,50,0,1
62565,333.333333333333,3,2,2,50,1,0
62565,-83.3333333333333,3,2,2,50,0,1
64565,-100,3,2,2,50,0,0
65565,333.333333333333,4,1,0,50,1,0
67731,-40,3,2,2,50,0,0
68231,-90.9090909090909,3,2,2,50,0,1
70565,-100,3,2,2,50,0,0
70898,-86.9565217391304,4,2,2,50,0,1
77898,-83.3333333333333,3,2,2,50,0,1
78898,333.333333333333,5,2,2,50,1,0
82231,333.333333333333,3,2,2,50,1,0
82231,-83.3333333333333,3,2,2,50,0,0
87587,333.333333333333,3,2,2,50,1,0
87940,333.333333333333,3,2,2,50,1,0
88255,333.333333333333,3,2,2,50,1,0
88255,-83.3333333333333,3,2,2,50,0,0
88480,333.333333333333,4,2,2,50,1,0
88480,-83.3333333333333,4,2,2,50,0,0
89729,-66.6666666666667,3,2,2,50,0,0

[Colours]
Combo1 : 130,238,254
Combo2 : 246,138,146
Combo3 : 141,164,242
Combo4 : 238,221,146

[HitObjects]
288,192,3065,6,0,L|290:142,1,40.5,8|8,0:0|0:0,0:0:0:0:
160,64,3315,1,8,0:0:0:0:
288,32,3482,1,2,0:1:0:0:
330,36,3565,1,2,0:1:0:0:
353,71,3648,1,2,0:1:0:0:
342,112,3731,1,2,0:1:0:0:
304,130,3815,1,2,0:1:0:0:
144,160,3898,1,8,0:0:0:0:
74,182,4065,1,2,0:1:0:0:
144,160,4148,1,8,0:0:0:0:
468,327,4398,6,0,L|338:327,1,121.5,4|0,0:0|0:0,0:0:0:0:
255,320,4732,1,8,0:0:0:0:
208,288,4815,1,0,0:0:0:0:
208,256,4898,1,8,0:0:0:0:
256,224,4981,1,8,0:0:0:0:
416,224,5065,1,4,0:0:0:0:
336,176,5232,1,0,0:0:0:0:
288,160,5315,1,8,0:0:0:0:
288,112,5398,1,8,0:0:0:0:
336,96,5481,1,8,0:0:0:0:
384,80,5565,1,8,0:0:0:0:
384,32,5648,1,8,0:0:0:0:
113,59,5731,2,0,L|65:136,1,81,8|0,0:3|0:0,0:0:0:0:
345,49,6065,6,0,L|326:151,1,81,6|8,0:0|0:0,0:0:0:0:
195,166,6398,1,8,0:0:0:0:
369,207,6564,1,2,0:0:0:0:
406,185,6647,1,8,0:0:0:0:
432,150,6730,1,4,0:0:0:0:
442,107,6813,1,8,0:0:0:0:
434,65,6897,1,2,0:0:0:0:
203,46,7064,6,0,L|103:46,1,81,2|2,0:1|0:1,0:0:0:0:
163,104,7314,1,8,0:0:0:0:
214,147,7398,2,0,L|324:148,1,81,4|2,0:0|0:1,0:0:0:0:
115,102,7731,2,0,L|45:103,1,60.75,8|8,0:0|0:0,0:0:0:0:
114,110,7981,1,4,0:0:0:0:
320,64,8064,6,0,L|433:64,2,81,6|8|2,0:0|0:0|0:0,0:0:0:0:
151,82,8564,1,8,0:0:0:0:
258,138,8731,2,0,L|400:138,1,121.5,2|8,0:0|0:0,0:0:0:0:
146,298,9064,6,0,P|90:235|146:193,1,162,2|2,0:1|0:1,0:0:0:0:
288,98,9564,1,2,0:0:0:0:
376,32,9731,2,0,L|280:33,1,81,0|8,0:0|0:0,0:0:0:0:
250,33,9981,1,8,0:0:0:0:
67,37,10064,6,0,P|43:144|81:164,1,162,6|2,0:0|0:1,0:0:0:0:
176,174,10564,1,8,0:0:0:0:
283,124,10730,2,0,L|274:172,1,40.5,8|0,0:0|0:0,0:0:0:0:
115,157,10897,6,0,P|65:105|129:76,1,162,12|8,0:0|0:0,0:0:0:0:
242,74,11397,1,2,0:0:0:0:
334,169,11563,2,0,L|294:165,1,40.5,8|8,0:0|0:0,0:0:0:0:
94,193,11730,5,4,0:0:0:0:
216,146,11980,2,0,L|256:145,1,40.5,8|8,0:0|0:0,0:0:0:0:
154,62,12230,2,0,L|43:61,2,81,2|8|8,0:0|0:0|0:0,0:0:0:0:
408,58,12729,6,0,L|401:153,1,81,6|0,0:0|0:0,0:0:0:0:
273,201,13062,2,0,L|267:302,1,81,2|8,0:0|0:0,0:0:0:0:
157,326,13395,1,2,0:1:0:0:
399,125,13562,2,0,L|482:126,1,81,6|2,0:0|0:3,0:0:0:0:
434,59,13812,2,0,L|374:57,1,40.5,2|2,0:3|0:3,0:0:0:0:
108,252,14062,6,0,L|110:157,1,89.1000027191163,4|0,0:1|0:0,0:0:0:0:
205,139,14395,2,0,L|209:48,1,89.1000027191163,8|8,0:0|0:0,0:0:0:0:
30,38,14728,2,0,L|218:37,1,178.200005438233,2|8,0:0|0:0,0:0:0:0:
125,59,15228,1,8,0:0:0:0:
381,102,15395,6,0,L|377:198,1,89.1000027191163,6|8,0:0|0:0,0:0:0:0:
263,217,15728,1,8,0:0:0:0:
444,294,15895,2,0,L|237:293,1,178.200005438233,2|2,0:0|0:0,0:0:0:0:
369,185,16395,2,0,L|474:185,1,89.1000027191163,8|8,0:0|0:0,0:0:0:0:
206,158,16728,6,0,P|151:106|219:24,1,178.200005438233,2|8,0:1|0:0,0:0:0:0:
372,25,17228,2,0,L|173:27,1,178.200005438233,8|8,0:0|0:0,0:0:0:0:
274,101,17728,2,0,L|384:99,1,89.1000027191163,8|0,0:0|0:0,0:0:0:0:
72,337,18062,6,0,B|69:246|69:246|174:239,1,178.200005438233,2|8,0:1|0:0,0:0:0:0:
342,169,18562,2,0,L|137:166,1,178.200005438233,8|2,0:0|0:1,0:0:0:0:
291,68,19062,2,0,L|388:66,1,89.1000027191163,8|8,0:0|0:0,0:0:0:0:
337,36,19312,1,8,0:0:0:0:
152,131,19395,6,0,L|158:230,1,89.1000027191163,4|0,0:1|0:0,0:0:0:0:
242,233,19728,2,0,L|135:233,1,89.1000027191163,8|2,0:0|0:0,0:0:0:0:
332,99,20061,2,0,P|314:186|228:224,1,178.200005438233,8|8,0:0|0:0,0:0:0:0:
153,186,20562,1,8,0:0:0:0:
384,195,20728,6,0,L|394:92,1,89.1000027191163,2|0,0:0|0:0,0:0:0:0:
252,44,21062,2,0,L|452:46,1,178.200005438233,10|8,0:0|0:0,0:0:0:0:
299,102,21562,1,2,0:0:0:0:
158,145,21728,2,0,L|63:145,1,89.1000027191163,8|8,0:0|0:0,0:0:0:0:
305,94,22062,6,0,P|377:130|323:198,1,178.200005438233,6|2,0:0|0:0,0:0:0:0:
182,207,22562,1,2,0:1:0:0:
305,94,22728,2,0,L|95:90,1,178.200005438233,2|2,0:0|0:0,0:0:0:0:
202,174,23228,1,8,0:0:0:0:
431,200,23395,6,0,L|421:311,1,89.1000027191163,6|0,0:0|0:0,0:0:0:0:
321,317,23728,1,2,0:0:0:0:
102,248,23978,1,0,0:0:0:0:
56,200,24062,2,0,L|170:197,1,89.1000027191163,8|8,0:0|0:0,0:0:0:0:
325,134,24395,2,0,L|371:135,2,44.5500013595581,8|8|8,0:0|0:0|0:0,0:0:0:0:
44,149,24728,6,0,L|43:48,1,89.1000027191163,4|0,0:1|0:0,0:0:0:0:
223,48,25062,2,0,P|274:105|216:167,1,178.200005438233,2|2,0:0|0:0,0:0:0:0:
125,163,25562,1,8,0:0:0:0:
215,167,25728,2,0,L|86:164,1,89.1000027191163,2|8,0:0|0:0,0:0:0:0:
371,170,26062,6,0,L|359:275,1,89.1000027191163,6|8,0:0|0:0,0:0:0:0:
266,320,26395,1,8,0:0:0:0:
447,303,26562,2,0,P|339:234|257:218,2,178.200005438233,2|2|2,0:0|0:0|0:0,0:0:0:0:
203,332,27395,6,0,P|149:279|218:234,1,178.200005438233,6|8,0:0|0:0,0:0:0:0:
302,234,27895,1,0,0:0:0:0:
125,229,28062,2,0,L|102:120,1,89.1000027191163,8|8,0:0|0:0,0:0:0:0:
219,143,28395,2,0,L|338:142,1,89.1000027191163,2|8,0:0|0:0,0:0:0:0:
61,321,28728,6,0,L|60:211,1,89.1000027191163,6|0,0:0|0:0,0:0:0:0:
240,227,29062,1,2,0:0:0:0:
288,212,29145,1,2,0:0:0:0:
312,167,29228,1,2,0:0:0:0:
297,118,29311,1,2,0:0:0:0:
178,62,29395,2,0,L|57:63,2,89.1000027191163,2|2|2,0:0|0:1|0:1,0:0:0:0:
227,68,29812,1,2,0:1:0:0:
272,93,29895,1,2,0:1:0:0:
296,139,29978,1,2,0:1:0:0:
145,197,30062,5,4,0:0:0:0:
253,270,30562,1,0,0:0:0:0:
331,316,31062,1,4,0:0:0:0:
160,320,31617,1,4,0:0:0:0:
288,32,32062,1,2,0:1:0:0:
176,128,32228,1,4,0:0:0:0:
288,32,32395,1,8,0:0:0:0:
336,64,32478,1,8,0:0:0:0:
336,128,32561,1,8,0:0:0:0:
288,160,32644,1,8,0:0:0:0:
109,43,32728,6,0,P|86:107|134:162,1,121.5,6|8,0:1|0:0,0:0:0:0:
175,167,33061,1,0,0:0:0:0:
352,182,33228,2,0,L|471:181,2,81,2|8|2,0:0|0:0|0:0,0:0:0:0:
63,220,33728,6,0,P|81:276|159:308,1,121.5,4|8,0:0|0:0,0:0:0:0:
185,304,34061,1,8,0:0:0:0:
353,302,34228,2,0,L|365:204,1,81,2|8,0:0|0:0,0:0:0:0:
241,200,34561,2,0,L|183:198,1,40.5,8|2,0:0|0:0,0:0:0:0:
403,40,34728,6,0,B|484:49|484:49|491:93,1,121.5,6|2,0:0|0:0,0:0:0:0:
450,92,35061,1,8,0:0:0:0:
331,116,35228,1,2,0:0:0:0:
436,226,35394,2,0,L|423:130,1,81,2|8,0:0|0:0,0:0:0:0:
181,138,35728,6,0,L|88:135,1,81,2|2,0:0|0:0,0:0:0:0:
191,80,36061,2,0,L|289:77,1,81,8|2,0:0|0:0,0:0:0:0:
180,29,36394,2,0,L|67:21,1,81,8|8,0:0|0:0,0:0:0:0:
138,43,36644,1,8,0:0:0:0:
322,137,36727,6,0,L|404:138,2,81,6|8|8,0:0|0:0|0:0,0:0:0:0:
220,282,37227,2,0,L|322:284,1,81,2|8,0:0|0:0,0:0:0:0:
391,236,37561,1,0,0:0:0:0:
146,144,37727,6,0,L|42:144,1,81,2|0,0:0|0:0,0:0:0:0:
101,110,37977,1,8,0:0:0:0:
145,77,38061,2,0,L|234:75,1,81,8|2,0:0|0:0,0:0:0:0:
366,190,38394,2,0,L|262:189,1,81,8|8,0:0|0:0,0:0:0:0:
235,182,38644,1,8,0:0:0:0:
414,52,38727,6,0,P|426:146|400:180,1,121.5,6|8,0:0|0:0,0:0:0:0:
359,186,39061,1,8,0:0:0:0:
228,244,39227,1,2,0:0:0:0:
347,348,39394,2,0,L|348:262,1,81,8|2,0:0|0:0,0:0:0:0:
116,211,39727,6,0,L|99:97,1,81,6|0,0:0|0:0,0:0:0:0:
147,109,39977,1,8,0:0:0:0:
190,105,40061,1,2,0:0:0:0:
328,103,40227,2,0,L|225:95,1,81,2|2,0:0|0:0,0:0:0:0:
152,91,40561,1,0,0:0:0:0:
428,43,40727,5,4,0:0:0:0:
478,111,40893,1,8,0:0:0:0:
463,195,41060,1,2,0:0:0:0:
272,221,41227,1,4,0:0:0:0:
248,125,41394,1,8,0:0:0:0:
368,154,41561,1,2,0:0:0:0:
195,293,41727,2,0,L|85:293,2,81,4|8|2,0:0|0:0|0:0,0:0:0:0:
323,320,42227,1,4,0:0:0:0:
435,251,42394,1,8,0:0:0:0:
294,195,42561,1,2,0:0:0:0:
27,198,42727,5,4,0:0:0:0:
16,114,42893,1,8,0:0:0:0:
56,71,42977,1,0,0:0:0:0:
110,59,43060,1,2,0:0:0:0:
349,97,43227,1,8,0:0:0:0:
247,94,43393,1,8,0:0:0:0:
200,95,43477,1,0,0:0:0:0:
158,95,43560,1,2,0:0:0:0:
413,48,43727,2,0,L|332:48,2,81,4|2|2,0:0|0:0|0:0,0:0:0:0:
182,227,44227,2,0,L|101:224,1,81,2|8,0:0|0:0,0:0:0:0:
356,183,44561,2,0,L|396:184,1,40.5,2|2,0:0|0:0,0:0:0:0:
211,103,44727,6,0,L|58:102,1,134.136000204675,6|2,0:0|1:0,0:0:0:0:
123,85,45060,1,4,0:0:0:0:
229,57,45227,1,8,0:0:0:0:
394,29,45393,2,0,L|390:133,1,89.4240001364502,2|8,1:0|0:0,0:0:0:0:
209,135,45727,1,2,0:1:0:0:
297,256,45893,2,0,L|197:255,1,89.4240001364502,2|2,0:0|1:0,0:0:0:0:
155,198,46143,2,0,L|259:198,1,89.4240001364502,2|2,0:0|0:0,0:0:0:0:
433,161,46393,6,0,P|467:115|416:73,1,134.136000204675,6|2,0:0|1:0,0:0:0:0:
352,74,46726,1,2,0:0:0:0:
194,53,46893,1,0,0:0:0:0:
299,47,47060,2,0,L|269:141,1,89.4240001364502,2|8,1:0|0:0,0:0:0:0:
156,153,47393,1,0,0:0:0:0:
252,248,47560,2,0,L|369:244,1,89.4240001364502,2|2,0:0|0:0,0:0:0:0:
243,245,47810,2,0,L|186:243,2,44.7120000682251,8|8|2,0:0|0:0|0:0,0:0:0:0:
389,330,48060,6,0,P|429:274|397:196,1,134.136000204675,6|2,0:0|1:0,0:0:0:0:
368,192,48393,1,2,0:0:0:0:
199,174,48560,1,8,0:0:0:0:
115,132,48726,2,0,L|63:135,2,44.7120000682251,2|2|8,1:0|0:0|0:0,0:0:0:0:
295,100,49060,1,2,0:1:0:0:
205,116,49226,2,0,L|101:134,1,89.4240001364502,2|2,0:0|1:0,0:0:0:0:
222,215,49560,2,0,L|274:218,1,44.7120000682251,2|2,1:0|0:0,0:0:0:0:
426,329,49727,6,0,P|466:273|435:192,1,134.136000204675,6|2,0:0|1:0,0:0:0:0:
405,191,50059,1,2,0:0:0:0:
265,128,50227,2,0,L|273:228,1,89.4240001364502,0|2,0:0|1:0,0:0:0:0:
419,93,50560,1,8,0:0:0:0:
269,46,50726,1,8,0:0:0:0:
113,41,50893,2,0,L|244:35,1,89.4240001364502,2|2,0:0|0:0,0:0:0:0:
105,109,51143,1,2,0:0:0:0:
61,144,51227,1,8,0:0:0:0:
104,191,51310,1,2,0:0:0:0:
368,48,51400,5,6,0:0:0:0:
462,106,51566,1,8,0:0:0:0:
370,164,51733,1,8,0:0:0:0:
144,48,51900,1,6,0:0:0:0:
43,103,52066,1,8,0:0:0:0:
87,139,52150,1,2,0:1:0:0:
141,164,52233,1,8,0:0:0:0:
416,32,52400,5,6,0:0:0:0:
320,99,52566,1,8,0:0:0:0:
419,160,52733,1,8,0:0:0:0:
133,33,52900,1,6,0:0:0:0:
84,41,52983,1,2,0:1:0:0:
57,81,53066,1,8,0:0:0:0:
65,128,53150,1,0,0:0:0:0:
106,154,53233,1,8,0:0:0:0:
396,170,53400,5,6,0:0:0:0:
308,167,53600,1,0,0:0:0:0:
165,164,53816,1,2,0:3:0:0:
252,163,53983,1,2,0:3:0:0:
376,166,54233,1,4,0:3:0:0:
141,330,54483,6,0,L|295:339,1,121.5,6|6,0:0|0:0,0:0:0:0:
19,323,54900,2,0,L|170:331,1,121.5,2|2,0:1|0:1,0:0:0:0:
481,124,55400,2,0,L|349:131,1,121.5,2|6,0:1|0:0,0:0:0:0:
32,96,55900,1,6,0:0:0:0:
401,31,56441,6,0,P|471:98|390:155,1,212.625008111,8|0,0:0|0:0,0:0:0:0:
57,231,56900,6,0,L|72:351,1,97.1999970336915,6|8,0:1|0:0,0:0:0:0:
205,333,57233,1,8,0:0:0:0:
251,310,57316,1,0,0:0:0:0:
266,262,57399,1,2,0:0:0:0:
242,217,57483,1,8,0:0:0:0:
193,204,57566,1,8,0:0:0:0:
105,197,57650,2,0,L|51:197,1,48.5999985168458,2|8,0:0|0:0,0:0:0:0:
332,144,57900,6,0,P|389:187|317:273,1,194.399994067383,2|8,0:0|0:0,0:0:0:0:
190,256,58400,1,8,0:0:0:0:
336,338,58566,2,0,L|340:231,1,97.1999970336915,2|2,0:0|0:1,0:0:0:0:
282,224,58816,1,2,0:1:0:0:
118,191,58899,6,0,L|101:94,1,97.1999970336915,6|2,0:0|0:1,0:0:0:0:
227,58,59233,1,8,0:0:0:0:
312,101,59399,1,2,0:1:0:0:
191,192,59566,2,0,L|128:192,1,48.5999985168458,2|0,0:0|0:0,0:0:0:0:
139,192,59733,2,0,L|191:193,1,48.5999985168458,2|2,0:0|0:0,0:0:0:0:
408,65,59899,6,0,P|462:137|408:211,1,194.399994067383,12|2,0:0|0:1,0:0:0:0:
289,222,60399,1,8,0:0:0:0:
430,345,60566,2,0,L|432:240,1,97.1999970336915,2|2,0:1|0:0,0:0:0:0:
380,226,60816,1,2,0:0:0:0:
203,168,60899,6,0,L|45:157,1,145.799995550537,12|0,0:0|0:0,0:0:0:0:
95,138,61232,1,8,0:0:0:0:
266,81,61399,1,2,0:0:0:0:
366,151,61565,1,2,0:0:0:0:
352,202,61649,1,2,0:0:0:0:
148,286,61732,6,0,P|91:239|70:146,1,145.799995550537,12|0,0:0|0:0,0:0:0:0:
120,169,62065,1,8,0:0:0:0:
225,171,62232,1,2,0:0:0:0:
135,144,62399,2,0,L|66:134,1,48.5999985168458,2|2,0:0|0:0,0:0:0:0:
265,53,62565,6,0,P|344:132|322:159,1,145.799995550537,6|8,0:0|0:0,0:0:0:0:
291,145,62898,1,8,0:0:0:0:
189,229,63065,2,0,L|323:231,1,97.1999970336915,2|2,0:0|0:0,0:0:0:0:
421,211,63398,2,0,L|420:157,1,48.5999985168458,2|2,0:0|0:1,0:0:0:0:
238,157,63565,6,0,L|31:155,1,194.399994067383,6|2,0:0|0:0,0:0:0:0:
190,268,64065,1,8,0:0:0:0:
240,258,64148,1,8,0:0:0:0:
385,117,64315,1,0,0:0:0:0:
344,86,64398,1,6,0:0:0:0:
99,45,64565,5,8,0:0:0:0:
64,71,64648,1,2,0:3:0:0:
44,110,64731,1,2,0:0:0:0:
43,153,64815,1,8,0:0:0:0:
61,192,64898,1,2,0:3:0:0:
94,220,64981,1,2,0:3:0:0:
136,231,65065,1,2,0:3:0:0:
179,223,65148,1,2,0:3:0:0:
236,208,65231,1,2,0:3:0:0:
175,196,65314,1,2,0:3:0:0:
134,146,65397,1,2,0:3:0:0:
143,90,65481,1,2,0:3:0:0:
402,101,65565,5,4,0:1:0:0:
318,74,65898,1,2,0:1:0:0:
403,54,66231,1,2,0:1:0:0:
487,77,66565,1,2,0:1:0:0:
238,118,67065,1,8,0:0:0:0:
155,147,67231,1,2,0:0:0:0:
73,179,67398,1,2,0:0:0:0:
256,192,67731,2,0,B|430:298|430:298|486:100,1,405,6|0,0:0|0:0,0:0:0:0:
193,153,68231,6,0,L|113:154,1,44.5500013595581,12|2,0:0|0:0,0:0:0:0:
343,58,68565,1,2,0:0:0:0:
178,32,68731,2,0,L|102:33,1,44.5500013595581,2|8,0:0|0:0,0:0:0:0:
365,126,68981,2,0,L|436:128,1,44.5500013595581,2|8,0:1|0:0,0:0:0:0:
171,218,69231,2,0,L|185:274,1,44.5500013595581,2|0,0:0|0:0,0:0:0:0:
249,268,69398,2,0,L|316:268,1,44.5500013595581,8|8,0:0|0:0,0:0:0:0:
133,227,69565,5,2,0:0:0:0:
87,214,69648,1,2,0:1:0:0:
63,174,69731,1,2,0:1:0:0:
73,128,69814,1,2,0:1:0:0:
231,170,69898,1,2,0:1:0:0:
276,158,69981,1,2,0:1:0:0:
201,129,70064,1,2,0:1:0:0:
191,83,70147,1,2,0:1:0:0:
365,65,70231,5,8,0:0:0:0:
455,65,70398,1,2,0:0:0:0:
488,99,70481,1,2,0:0:0:0:
499,145,70564,1,8,0:0:0:0:
486,191,70647,1,2,0:0:0:0:
452,224,70731,1,8,0:0:0:0:
213,254,70898,6,0,L|45:253,1,139.725002665043,6|2,0:1|0:0,0:0:0:0:
108,243,71231,1,8,0:0:0:0:
210,215,71398,1,2,0:0:0:0:
261,202,71481,1,0,0:0:0:0:
181,176,71564,2,0,L|63:174,1,93.1500017766953,8|2,0:0|0:0,0:0:0:0:
234,70,71898,2,0,L|105:68,1,93.1500017766953,8|0,0:0|0:0,0:0:0:0:
434,30,72232,6,0,L|420:153,1,93.1500017766953,6|0,0:0|0:0,0:0:0:0:
368,142,72482,1,2,0:0:0:0:
316,150,72565,1,8,0:0:0:0:
213,173,72731,1,2,0:0:0:0:
161,183,72814,1,2,0:0:0:0:
217,177,72898,2,0,L|325:183,1,93.1500017766953,8|2,0:0|0:0,0:0:0:0:
206,291,73231,2,0,L|70:292,1,93.1500017766953,8|0,0:0|0:0,0:0:0:0:
388,296,73564,6,0,P|371:230|281:172,1,139.725002665043,6|2,0:0|0:0,0:0:0:0:
276,182,73898,1,8,0:0:0:0:
172,181,74064,2,0,L|107:184,1,46.5750008883476,2|0,0:0|0:0,0:0:0:0:
356,148,74231,2,0,P|366:246|310:252,1,139.725002665043,8|0,0:0|0:0,0:0:0:0:
281,205,74564,2,0,L|390:209,1,93.1500017766953,2|8,0:0|0:0,0:0:0:0:
145,295,74898,6,0,P|76:256|56:175,1,139.725002665043,6|2,0:0|0:0,0:0:0:0:
106,174,75231,1,8,0:0:0:0:
249,163,75398,2,0,L|315:163,1,46.5750008883476,2|2,0:0|0:0,0:0:0:0:
143,30,75564,2,0,P|121:73|163:121,1,93.1500017766953,8|2,0:0|0:0,0:0:0:0:
324,198,75898,1,8,0:0:0:0:
352,240,75981,1,8,0:0:0:0:
337,288,76064,1,2,0:1:0:0:
289,307,76147,1,2,0:1:0:0:
123,303,76231,6,0,L|20:304,1,93.1500017766953,6|0,0:0|0:0,0:0:0:0:
73,279,76481,1,2,0:0:0:0:
159,205,76564,2,0,L|276:206,1,93.1500017766953,8|2,0:0|0:0,0:0:0:0:
296,187,76814,1,0,0:0:0:0:
149,122,76898,2,0,L|43:120,2,93.1500017766953,8|2|8,0:0|0:0|0:0,0:0:0:0:
201,119,77315,1,0,0:0:0:0:
253,121,77398,1,2,1:0:0:0:
424,50,77564,6,0,L|421:150,1,93.1500017766953,6|0,0:0|0:0,0:0:0:0:
156,204,77814,2,0,P|78:145|148:42,1,232.875004441738,6|8,0:0|0:0,0:0:0:0:
205,35,78314,2,0,L|269:32,1,48.5999985168458,2|0,0:0|0:0,0:0:0:0:
385,27,78564,1,2,0:0:0:0:
229,65,78731,2,0,L|280:64,1,48.5999985168458,2|2,0:1|0:1,0:0:0:0:
454,157,78898,5,2,0:0:0:0:
332,211,79148,1,8,0:0:0:0:
144,209,79231,1,2,0:0:0:0:
71,157,79481,1,8,0:0:0:0:
230,132,79564,1,2,0:0:0:0:
369,64,79814,1,8,0:0:0:0:
224,32,79898,5,2,0:0:0:0:
180,31,79981,1,2,0:1:0:0:
180,31,80064,1,2,0:1:0:0:
224,32,80148,1,2,0:1:0:0:
381,69,80231,1,2,0:1:0:0:
360,107,80314,1,2,0:1:0:0:
323,129,80397,1,2,0:1:0:0:
280,129,80481,1,0,0:1:0:0:
133,148,80564,5,6,0:0:0:0:
36,228,80731,2,0,L|88:230,1,40.5,0|8,0:0|0:0,0:0:0:0:
267,159,80898,1,2,0:0:0:0:
346,38,81064,2,0,L|297:41,1,40.5,8|8,0:0|0:0,0:0:0:0:
108,39,81231,1,2,0:0:0:0:
56,86,81314,1,0,0:0:0:0:
55,147,81397,1,2,0:0:0:0:
107,180,81480,1,0,0:0:0:0:
263,198,81564,6,0,L|377:196,1,81,8|8,0:0|0:0,0:0:0:0:
263,198,81898,1,2,0:0:0:0:
213,167,81981,1,2,0:0:0:0:
200,108,82064,1,2,0:1:0:0:
234,59,82147,1,2,0:1:0:0:
415,73,82231,5,6,0:0:0:0:
462,94,82314,1,2,0:1:0:0:
413,79,82397,1,8,0:0:0:0:
413,79,82480,1,2,0:1:0:0:
467,102,82564,1,8,0:0:0:0:
200,163,82731,1,2,0:0:0:0:
154,184,82814,1,2,0:1:0:0:
196,170,82897,1,8,0:0:0:0:
196,170,82980,1,2,0:1:0:0:
140,169,83064,1,8,0:0:0:0:
432,328,83231,6,0,L|496:328,1,48.5999985168458,2|2,0:0|0:1,0:0:0:0:
418,266,83397,2,0,L|338:266,1,48.5999985168458,8|2,0:0|0:1,0:0:0:0:
312,244,83564,1,8,0:0:0:0:
28,215,83731,2,0,L|28:151,1,48.5999985168458,2|2,0:0|0:1,0:0:0:0:
85,147,83897,2,0,L|85:67,1,48.5999985168458,8|2,0:0|0:1,0:0:0:0:
143,70,84064,1,8,0:0:0:0:
380,52,84231,5,6,0:0:0:0:
436,60,84314,1,2,0:1:0:0:
462,72,84397,1,8,0:0:0:0:
435,81,84480,1,2,0:1:0:0:
400,92,84564,1,10,0:0:0:0:
144,64,84731,1,6,0:0:0:0:
94,95,84814,1,2,0:1:0:0:
63,104,84897,1,10,0:0:0:0:
94,88,84980,1,2,0:1:0:0:
152,116,85064,1,8,0:0:0:0:
397,252,85231,6,0,L|458:250,1,48.5999985168458,2|2,0:0|0:1,0:0:0:0:
381,200,85397,2,0,L|378:151,1,48.5999985168458,8|2,0:0|0:1,0:0:0:0:
318,116,85564,1,8,0:0:0:0:
58,207,85731,2,0,L|54:144,1,48.5999985168458,2|2,0:0|0:1,0:0:0:0:
118,133,85897,2,0,L|127:78,1,48.5999985168458,8|2,0:0|0:1,0:0:0:0:
62,36,86064,1,8,0:0:0:0:
381,202,86231,5,6,0:0:0:0:
434,202,86314,1,2,0:1:0:0:
486,202,86397,1,8,0:0:0:0:
434,202,86481,1,2,0:1:0:0:
381,202,86564,1,8,0:0:0:0:
150,167,86731,1,6,0:0:0:0:
98,167,86814,1,2,0:1:0:0:
46,167,86897,1,8,0:0:0:0:
98,167,86981,1,2,0:1:0:0:
150,167,87064,1,8,0:0:0:0:
398,167,87231,6,0,L|402:111,1,48.5999985168458,6|2,0:0|0:1,0:0:0:0:
353,103,87397,2,0,L|299:94,1,48.5999985168458,8|2,0:0|0:1,0:0:0:0:
239,86,87587,1,8,0:0:0:0:
484,211,87732,2,0,L|484:175,1,30.375,6|2,0:0|0:1,0:0:0:0:
389,144,87940,2,0,L|340:145,2,27,8|2|2,0:0|0:1|0:1,0:0:0:0:
449,139,88106,1,8,0:0:0:0:
170,250,88255,5,6,0:0:0:0:
17,220,88480,1,6,0:0:0:0:
169,172,88730,1,6,0:0:0:0:
345,171,88896,1,6,0:0:0:0:
345,171,89230,5,6,0:0:0:0:
170,174,89480,1,6,0:0:0:0:
409,302,89730,2,0,P|482:246|328:71,1,364.500013904572,6|2,0:0|0:3,0:0:0:0:
