osu file format v14

[General]
AudioFilename: audio.mp3
AudioLeadIn: 0
PreviewTime: 55995
Countdown: 0
SampleSet: Soft
StackLeniency: 0.7
Mode: 2
LetterboxInBreaks: 0
WidescreenStoryboard: 1

[Editor]
DistanceSpacing: 1.1
BeatDivisor: 8
GridSize: 8
TimelineZoom: 2.910001

[Metadata]
Title:asura
TitleUnicode:asura
Artist:Co shu Nie
ArtistUnicode:Cö shu Nie
Creator:skill issue lol
Version:baron's cup
Source:
Tags:fayew baron alienflybot autofanboy afb ymiir fii -wwwww アスラ rock alternative experimental Aurora EP japanese pop Miku Nakamura コシュニエ 中村未来 Shunsuke Matsumoto 松本駿介 Ryosuke Fujita 藤田亮介 j-pop jpop j-rock jrock math
BeatmapID:2326832
BeatmapSetID:1101376

[Difficulty]
HPDrainRate:3
CircleSize:2.5
OverallDifficulty:6
ApproachRate:6
SliderMultiplier:1.3
SliderTickRate:1

[Events]
//Background and Video events
0,0,"asura.jpg",0,0
//Break Periods
//Storyboard Layer 0 (Background)
//Storyboard Layer 1 (Fail)
//Storyboard Layer 2 (Pass)
//Storyboard Layer 3 (Foreground)
//Storyboard Layer 4 (Overlay)
//Storyboard Sound Samples

[TimingPoints]
399,333.333333333333,4,2,2,50,1,0
3065,-100,4,2,2,50,0,0
4398,333.333333333333,5,2,2,50,1,0
6065,333.333333333333,3,2,2,50,1,0
10064,333.333333333333,5,2,2,50,1,0
11730,333.333333333333,3,2,2,50,1,0
12729,333.333333333333,4,2,2,50,1,0
14062,333.333333333333,4,2,2,50,1,1
14062,-90.9090909090909,4,2,2,50,0,1
30061,-100,4,2,2,50,0,0
32728,333.333333333333,3,2,2,50,1,0
44727,416.666666666667,4,2,2,50,1,0
44727,-72.463768115942,4,2,2,50,0,0
51400,333.333333333333,3,2,2,50,1,0
53400,333.333333333333,5,2,2,50,1,0
54900,333.333333333333,3,2,2,50,1,0
56400,-66.6666666666667,3,2,2,50,0,0
56816,-66.6666666666667,3,2,2,5,0,0
56900,333.333333333333,3,2,2,50,1,1
56900,-83.3333333333333,3,2,2,50,0,1
60899,333.333333333333,5,2,2,50,1,0
60899,-83.3333333333333,5,2,2,50,0,1
62565,333.333333333333,3,2,2,50,1,0
62565,-83.3333333333333,3,2,2,50,0,1
64565,-100,3,2,2,50,0,0
65565,333.333333333333,4,1,0,50,1,0
67731,-40,3,2,2,50,0,0
68231,-90.9090909090909,3,2,2,50,0,1
70565,-100,3,2,2,50,0,0
70898,-83.3333333333333,4,2,2,50,0,1
77898,-83.3333333333333,3,2,2,50,0,1
78898,333.333333333333,5,2,2,50,1,0
82231,333.333333333333,3,2,2,50,1,0
82231,-83.3333333333333,3,2,2,50,0,0
87587,333.333333333333,3,2,2,50,1,0
87940,333.333333333333,3,2,2,50,1,0
88255,333.333333333333,3,2,2,50,1,0
88480,333.333333333333,4,2,2,50,1,0
88480,-83.3333333333333,4,2,2,50,0,0
89729,-66.6666666666667,3,2,2,50,0,0

[Colours]
Combo1 : 130,238,254
Combo2 : 246,138,146
Combo3 : 141,164,242
Combo4 : 238,221,146

[HitObjects]
160,240,3065,6,0,P|96:128|192:96,1,260,8|2,0:0|0:1,0:0:0:0:
288,48,3898,1,8,0:0:0:0:
400,48,4148,1,8,0:0:0:0:
272,192,4398,6,0,L|144:96,2,130,4|8|4,0:0|0:0|0:0,0:0:0:0:
405,193,5315,2,0,P|453:145|389:97,1,162.5,8|8,0:0|0:3,0:0:0:0:
202,257,6065,6,0,P|122:161|202:81,1,260,6|4,0:0|0:0,0:0:0:0:
348,143,7064,1,2,0:1:0:0:
208,96,7398,2,0,L|144:48,2,65,4|2|8,0:0|0:1|0:0,0:0:0:0:
390,192,8064,6,0,P|438:144|326:16,1,260,6|2,0:0|0:0,0:0:0:0:
160,224,9064,2,0,L|288:144,1,130,2|2,0:1|0:1,0:0:0:0:
352,128,9564,2,0,P|400:80|371:35,1,130,2|8,0:0|0:0,0:0:0:0:
276,36,10064,6,0,P|228:100|292:180,1,195,6|8,0:0|0:0,0:0:0:0:
448,176,10897,2,0,L|288:176,1,130,12|8,0:0|0:0,0:0:0:0:
240,176,11397,1,2,0:0:0:0:
85,185,11730,6,0,P|91:143|190:102,1,130,4|8,0:0|0:0,0:0:0:0:
240,192,12230,2,0,P|219:256|128:272,1,130,2|8,0:0|0:0,0:0:0:0:
68,280,12729,5,6,0:0:0:0:
240,272,13062,2,0,L|368:224,1,130,2|2,0:0|0:1,0:0:0:0:
334,181,13562,1,6,0:0:0:0:
181,33,14062,6,0,L|325:33,1,143.000004364014,4|8,0:1|0:0,0:0:0:0:
181,177,14728,1,2,0:0:0:0:
357,192,15062,1,8,0:0:0:0:
446,121,15395,6,0,L|318:25,1,143.000004364014,6|8,0:0|0:0,0:0:0:0:
232,44,15895,2,0,L|382:57,1,143.000004364014,2|2,0:0|0:0,0:0:0:0:
421,95,16395,1,8,0:0:0:0:
224,256,16728,6,0,P|128:192|137:95,1,214.500006546021,2|8,0:1|0:0,0:0:0:0:
304,192,17562,2,0,L|371:142,1,71.5000021820069,8|8,0:0|0:0,0:0:0:0:
176,192,18062,6,0,L|65:98,1,143.000004364014,2|8,0:1|0:0,0:0:0:0:
166,93,18562,1,8,0:0:0:0:
320,112,18895,2,0,P|368:160|320:208,1,143.000004364014,2|8,0:1|0:0,0:0:0:0:
224,112,19395,6,0,L|368:112,1,143.000004364014,4|8,0:1|0:0,0:0:0:0:
224,192,20062,1,8,0:0:0:0:
408,192,20395,1,8,0:0:0:0:
488,256,20728,6,0,P|459:308|368:342,1,143.000004364014,2|10,0:0|0:0,0:0:0:0:
252,320,21395,1,8,0:0:0:0:
118,268,21728,1,8,0:0:0:0:
304,256,22062,6,0,P|368:192|288:32,1,286.000008728028,6|2,0:0|0:0,0:0:0:0:
120,32,23062,1,2,0:0:0:0:
240,176,23395,6,0,L|368:112,1,143.000004364014,6|2,0:0|0:0,0:0:0:0:
224,256,24062,2,0,L|160:224,2,71.5000021820069,8|8|8,0:0|0:0|0:0,0:0:0:0:
400,224,24728,6,0,L|528:128,2,143.000004364014,4|2|2,0:1|0:0|0:0,0:0:0:0:
216,130,25728,2,0,P|184:85|263:62,1,143.000004364014,2|6,0:0|0:0,0:0:0:0:
336,192,26228,6,0,L|400:144,2,71.5000021820069,8|8|2,0:0|0:0|0:0,0:0:0:0:
160,192,26895,2,0,P|128:112|160:96,1,143.000004364014,2|2,0:0|0:0,0:0:0:0:
256,96,27395,5,6,0:0:0:0:
416,96,27728,1,8,0:0:0:0:
256,192,28062,1,8,0:0:0:0:
96,192,28395,1,2,0:0:0:0:
272,192,28728,6,0,P|333:128|255:48,1,214.500006546021,6|2,0:0|0:0,0:0:0:0:
184,80,29395,2,0,P|141:173|174:220,1,143.000004364014,2|2,0:0|0:1,0:0:0:0:
256,192,30062,12,8,32395,0:0:0:0:
128,192,32728,6,0,L|16:128,2,97.5,6|8|2,0:1|0:0|0:0,0:0:0:0:
208,192,33394,1,8,0:0:0:0:
358,196,33728,6,0,P|355:144|306:131,1,97.5,4|8,0:0|0:0,0:0:0:0:
181,152,34228,1,2,0:0:0:0:
93,189,34394,2,0,L|157:254,1,65,8|8,0:0|0:0,0:0:0:0:
215,262,34728,6,0,L|316:262,1,97.5,6|2,0:0|0:0,0:0:0:0:
375,73,35228,1,2,0:0:0:0:
266,61,35394,2,0,L|138:109,1,130,2|2,0:0|0:0,0:0:0:0:
259,128,36061,6,0,P|282:150|223:279,1,195,8|8,0:0|0:0,0:0:0:0:
128,272,36727,2,0,L|0:176,2,130,6|8|8,0:0|0:0|0:0,0:0:0:0:
272,272,37727,6,0,L|416:272,1,130,2|8,0:0|0:0,0:0:0:0:
320,192,38227,2,0,P|272:128|352:64,1,195,2|6,0:0|0:0,0:0:0:0:
490,64,39061,5,8,0:0:0:0:
403,64,39227,1,2,0:0:0:0:
316,65,39394,2,0,L|172:97,1,130,8|6,0:0|0:0,0:0:0:0:
368,96,40227,2,0,P|416:144|368:176,1,130,2|0,0:0|0:0,0:0:0:0:
304,176,40727,6,0,L|192:80,1,130,4|2,0:0|0:0,0:0:0:0:
368,80,41394,2,0,P|416:128|384:192,1,130,8|4,0:0|0:0,0:0:0:0:
224,192,42061,1,2,0:0:0:0:
144,192,42227,1,4,0:0:0:0:
80,192,42394,1,8,0:0:0:0:
240,128,42727,6,0,L|352:96,2,97.5,4|0|8,0:0|0:0|0:0,0:0:0:0:
144,144,43394,2,0,P|112:208|144:272,1,130,8|4,0:0|0:0,0:0:0:0:
272,272,43977,2,0,L|352:192,1,97.5,0|2,0:0|0:0,0:0:0:0:
256,160,44394,1,8,0:0:0:0:
96,192,44727,6,0,L|9:52,1,143.000004364014,6|4,0:0|0:0,0:0:0:0:
176,192,45477,2,0,L|397:55,1,251.16000038324,4|2,0:0|1:0,0:0:0:0:
496,128,46393,2,0,P|401:207|512:288,1,287.040000437988,6|2,0:0|1:0,0:0:0:0:
400,336,47227,2,0,L|205:240,1,215.280000328491,8|2,0:0|0:0,0:0:0:0:
88,283,48060,6,0,P|117:144|254:98,1,287.040000437988,6|2,0:0|1:0,0:0:0:0:
352,32,48893,2,0,P|449:94|336:176,1,287.040000437988,8|2,0:0|1:0,0:0:0:0:
240,341,49726,2,0,P|105:169|101:131,1,257.887500393505,6|0,0:0|0:0,0:0:0:0:
240,80,50560,5,8,0:0:0:0:
336,80,50727,2,0,P|384:157|336:208,1,143.520000218994,8|2,0:0|0:0,0:0:0:0:
208,192,51400,6,0,L|80:96,1,130,6|8,0:0|0:0,0:0:0:0:
192,96,51900,2,0,L|336:96,1,130,6|8,0:0|0:0,0:0:0:0:
391,96,52400,1,6,0:0:0:0:
240,192,52733,2,0,L|128:288,1,130,8|8,0:0|0:0,0:0:0:0:
304,272,53400,1,6,0:0:0:0:
368,192,54483,6,0,L|240:192,1,97.5,6|6,0:0|0:0,0:0:0:0:
176,192,54900,2,0,L|80:160,2,97.5,2|2|2,0:1|0:1|0:1,0:0:0:0:
288,192,55650,2,0,L|288:80,1,97.5,6|6,0:0|0:0,0:0:0:0:
176,192,56900,6,0,L|48:96,2,155.999995239258,6|8|8,0:1|0:0|0:0,0:0:0:0:
352,192,57900,2,0,L|496:96,1,155.999995239258,2|8,0:0|0:0,0:0:0:0:
400,80,58400,2,0,L|304:80,1,77.999997619629,8|2,0:0|0:0,0:0:0:0:
160,192,58899,6,0,L|48:120,2,116.999996429443,6|0|2,0:0|0:0|0:1,0:0:0:0:
240,288,59566,2,0,L|324:249,1,77.999997619629,2|2,0:0|0:0,0:0:0:0:
310,183,59900,1,12,0:0:0:0:
416,160,60233,2,0,P|479:63|368:6,1,233.999992858887,2|2,0:1|0:0,0:0:0:0:
320,32,60899,6,0,L|176:96,1,155.999995239258,12|8,0:0|0:0,0:0:0:0:
96,128,61399,1,2,0:0:0:0:
272,192,61732,2,0,L|416:272,1,155.999995239258,12|8,0:0|0:0,0:0:0:0:
352,304,62232,1,2,0:0:0:0:
179,266,62565,6,0,B|91:190|91:190|120:137,1,155.999995239258,6|8,0:0|0:0,0:0:0:0:
192,96,63065,2,0,L|352:96,1,155.999995239258,2|2,0:0|0:0,0:0:0:0:
400,176,63565,6,0,L|240:176,1,155.999995239258,6|2,0:0|0:0,0:0:0:0:
160,176,64065,2,0,L|80:128,2,77.999997619629,8|2|6,0:0|0:1|0:0,0:0:0:0:
256,176,64565,6,0,P|352:192|224:336,1,390,8|4,0:0|0:1,0:0:0:0:
256,192,65898,12,6,67731,0:0:0:0:
192,193,68231,6,0,L|62:109,1,143.000004364014,12|2,0:0|0:0,0:0:0:0:
127,88,68731,2,0,L|275:19,1,143.000004364014,2|8,0:0|0:0,0:0:0:0:
437,46,69398,1,8,0:0:0:0:
345,91,69565,6,0,P|296:151|349:191,1,143.000004364014,2|2,0:0|0:1,0:0:0:0:
431,262,70064,1,2,0:1:0:0:
288,297,70398,2,0,P|304:202|348:179,1,143.000004364014,2|8,0:0|0:0,0:0:0:0:
407,190,70898,6,0,L|262:101,2,155.999995239258,6|8|8,0:1|0:0|0:0,0:0:0:0:
227,198,71898,2,0,L|106:88,1,155.999995239258,8|6,0:0|0:0,0:0:0:0:
272,105,72564,2,0,L|416:0,2,155.999995239258,8|8|8,0:0|0:0|0:0,0:0:0:0:
96,200,73564,6,0,P|54:132|118:92,1,155.999995239258,6|8,0:0|0:0,0:0:0:0:
263,95,74231,2,0,L|263:7,1,77.999997619629,8|2,0:0|0:0,0:0:0:0:
208,157,74564,1,2,0:0:0:0:
369,82,74898,6,0,P|415:152|362:187,1,155.999995239258,6|8,0:0|0:0,0:0:0:0:
285,207,75398,2,0,L|225:263,2,77.999997619629,2|8|2,0:0|0:0|0:0,0:0:0:0:
353,142,75898,1,8,0:0:0:0:
177,159,76231,6,0,L|57:270,2,155.999995239258,6|8|8,0:0|0:0|0:0,0:0:0:0:
341,103,77231,2,0,L|476:213,1,155.999995239258,8|6,0:0|0:0,0:0:0:0:
309,289,77814,6,0,P|209:252|236:180,1,194.999994049072,6|8,0:0|0:0,0:0:0:0:
304,149,78398,2,0,L|443:67,1,155.999995239258,0|2,0:0|0:1,0:0:0:0:
346,191,78898,6,0,L|226:250,2,130,2|2|2,0:0|0:0|0:0,0:0:0:0:
173,178,79898,2,0,L|73:73,2,130,2|2|6,0:0|0:1|0:0,0:0:0:0:
352,185,80898,6,0,P|380:97|345:70,1,130,2|2,0:0|0:0,0:0:0:0:
177,81,81564,2,0,P|134:140|165:211,1,130,8|2,0:0|0:0,0:0:0:0:
279,191,82231,5,6,0:0:0:0:
256,192,82564,12,8,83897,0:0:0:0:
142,193,84231,5,6,0:0:0:0:
329,193,84731,2,0,P|399:131|310:53,1,233.999992858887,6|2,0:0|0:0,0:0:0:0:
144,72,85564,2,0,L|71:112,2,77.999997619629,8|2|8,0:0|0:0|0:0,0:0:0:0:
330,186,86231,6,0,L|507:30,2,233.999992858887,6|6|6,0:0|0:0|0:0,0:0:0:0:
136,192,87587,1,8,0:0:0:0:
77,140,87732,1,6,0:0:0:0:
183,127,87940,1,8,0:0:0:0:
256,126,88106,1,8,0:0:0:0:
339,69,88255,5,6,0:0:0:0:
336,185,88480,1,6,0:0:0:0:
429,194,88730,2,0,P|475:237|475:268,1,77.999997619629,6|6,0:0|0:0,0:0:0:0:
309,277,89230,6,0,L|311:156,1,116.999996429443,6|6,0:0|0:0,0:0:0:0:
166,255,89730,2,0,B|96:136|96:136|189:-6,1,292.50001115799,6|2,0:0|0:3,0:0:0:0:
